osu file format v14

[General]
AudioFilename: audio.mp3
AudioLeadIn: 0
PreviewTime: 61668
Countdown: 0
SampleSet: Soft
StackLeniency: 0.6
Mode: 0
LetterboxInBreaks: 0
EpilepsyWarning: 1
WidescreenStoryboard: 1

[Editor]
Bookmarks: 110149
DistanceSpacing: 0.8
BeatDivisor: 4
GridSize: 16
TimelineZoom: 2.5

[Metadata]
Title:Umiyuri Kaiteitan
TitleUnicode:ウミユリ海底譚
Artist:GEM
ArtistUnicode:ジェム
Creator:Loreley
Version:Icekalt's Advanced
Source:初音ミク -Project DIVA- X
Tags:hatsune miku utaite vocaloid n-buna mirash icekalt Sakurauchi Riko Phyloukz [ -Scarlet- ] 619 nattu smau5 Xentaphen delis Tale of the Deep-sea Lily
BeatmapID:1512594
BeatmapSetID:647452

[Difficulty]
HPDrainRate:5
CircleSize:3.8
OverallDifficulty:5
ApproachRate:6
SliderMultiplier:1.08
SliderTickRate:1

[Events]
//Background and Video events
0,0,"nante.jpg",0,0
//Break Periods
2,160368,175118
2,180992,182118
2,188618,190118
//Storyboard Layer 0 (Background)
Sprite,Background,Centre,"sb\ring.png",0,0 M,0,144168,,221,269 F,0,144168,145368,0.4,0 S,0,144168,145368,0.5,0.6 M,0,146168,,447,288 F,0,146168,147368,0.4,0 S,0,146168,147368,0.5,0.6 M,0,148168,,255,359 F,0,148168,149368,0.4,0 S,0,148168,149368,0.5,0.6 M,0,150168,,341,86 F,0,150168,151368,0.4,0 S,0,150168,151368,0.5,0.6 M,0,151918,,222,363 F,0,151918,153118,0.4,0 S,0,151918,153118,0.5,0.6 M,0,153168,,158,145 F,0,153168,154368,0.4,0 S,0,153168,154368,0.5,0.6 M,0,154918,,196,218 F,0,154918,156118,0.4,0 S,0,154918,156118,0.5,0.6 M,0,156168,,238,348 F,0,156168,157368,0.4,0 S,0,156168,157368,0.5,0.6 M,0,157668,,435,320 F,0,157668,158868,0.4,0 S,0,157668,158868,0.5,0.6 M,0,159168,,443,137 F,0,159168,160368,0.4,0 S,0,159168,160368,0.5,0.6
Sprite,Background,Centre,"sb\ring.png",0,0 M,0,145168,,366,251 F,0,145168,146368,0.4,0 S,0,145168,146368,0.5,0.6 M,0,146918,,289,156 F,0,146918,148118,0.4,0 S,0,146918,148118,0.5,0.6 M,0,149168,,477,287 F,0,149168,150368,0.4,0 S,0,149168,150368,0.5,0.6 M,0,150668,,313,175 F,0,150668,151868,0.4,0 S,0,150668,151868,0.5,0.6 M,0,152168,,138,377 F,0,152168,153368,0.4,0 S,0,152168,153368,0.5,0.6 M,0,154168,,422,144 F,0,154168,155368,0.4,0 S,0,154168,155368,0.5,0.6 M,0,158168,,491,440 F,0,158168,159368,0.4,0 S,0,158168,159368,0.5,0.6 M,0,159668,,574,60 F,0,159668,160868,0.4,0 S,0,159668,160868,0.5,0.6
Sprite,Background,Centre,"sb\ring.png",0,0 M,0,147168,,224,199 F,0,147168,148368,0.4,0 S,0,147168,148368,0.5,0.6 M,0,155168,,170,291 F,0,155168,156368,0.4,0 S,0,155168,156368,0.5,0.6
Sprite,Background,Centre,"sb\bubble.png",0,0 S,0,4168,,0.1558161 M,2,4168,5168,349,372,439,198 F,0,4168,5168,1,0 S,0,5668,,0.1202604 M,2,5668,6668,286,102,93,-243 F,0,5668,6668,1,0 S,0,7168,,0.1360233 M,2,7168,8168,91,248,137,-17 F,0,7168,8168,1,0 S,0,8668,,0.18235 M,2,8668,9668,400,363,566,173 F,0,8668,9668,1,0 S,0,10168,,0.1979684 M,1,10168,11168,348,236,242,-214 F,0,10168,11168,1,0 S,0,11418,,0.1258933 M,2,11418,12418,486,317,320,-142 F,0,11418,12418,1,0
Sprite,Background,Centre,"sb\bubble.png",0,0 S,0,4168,,0.1442178 M,2,4168,5168,349,372,231,95 F,0,4168,5168,1,0 S,0,5668,,0.196289 M,2,5668,6668,286,102,451,-387 F,0,5668,6668,1,0 S,0,7168,,0.110254 M,1,7168,8168,91,248,193,63 F,0,7168,8168,1,0 S,0,8668,,0.1451056 M,2,8668,9668,400,363,294,198 F,0,8668,9668,1,0 S,0,10168,,0.1422871 M,2,10168,11168,348,236,254,-104 F,0,10168,11168,1,0 S,0,11418,,0.1621497 M,1,11418,12418,486,317,558,-7 F,0,11418,12418,1,0
Sprite,Background,Centre,"sb\bubble.png",0,0 S,0,4168,,0.1467315 M,1,4168,5168,349,372,540,-19 F,0,4168,5168,1,0 S,0,5668,,0.1278329 M,2,5668,6668,286,102,483,-392 F,0,5668,6668,1,0 S,0,7168,,0.1816208 M,2,7168,8168,91,248,136,2 F,0,7168,8168,1,0 S,0,8668,,0.1062614 M,2,8668,9668,400,363,497,151 F,0,8668,9668,1,0 S,0,10168,,0.124247 M,2,10168,11168,348,236,529,-260 F,0,10168,11168,1,0 S,0,11418,,0.1223602 M,2,11418,12418,486,317,656,139 F,0,11418,12418,1,0
Sprite,Background,Centre,"sb\bubble.png",0,0 S,0,4168,,0.1030367 M,2,4168,5168,349,372,402,59 F,0,4168,5168,1,0 S,0,5668,,0.1324167 M,2,5668,6668,286,102,472,-163 F,0,5668,6668,1,0 S,0,7168,,0.1592747 M,1,7168,8168,91,248,236,-157 F,0,7168,8168,1,0 S,0,8668,,0.1654323 M,2,8668,9668,400,363,273,-121 F,0,8668,9668,1,0 S,0,10168,,0.1267078 M,1,10168,11168,348,236,306,12 F,0,10168,11168,1,0 S,0,11418,,0.1397571 M,1,11418,12418,486,317,382,-86 F,0,11418,12418,1,0
Sprite,Background,Centre,"sb\bubble.png",0,0 S,0,4168,,0.1314592 M,2,4168,5168,349,372,493,270 F,0,4168,5168,1,0 S,0,5668,,0.1972887 M,2,5668,6668,286,102,254,-9 F,0,5668,6668,1,0 S,0,7168,,0.1995221 M,2,7168,8168,91,248,156,-220 F,0,7168,8168,1,0 S,0,8668,,0.1781676 M,2,8668,9668,400,363,294,106 F,0,8668,9668,1,0 S,0,10168,,0.1168425 M,2,10168,11168,348,236,411,-176 F,0,10168,11168,1,0 S,0,11418,,0.1497483 M,2,11418,12418,486,317,626,-98 F,0,11418,12418,1,0
Sprite,Background,Centre,"sb\bubble.png",0,0 S,0,4168,,0.1032625 M,2,4168,5168,349,372,475,211 F,0,4168,5168,1,0 S,0,5668,,0.1178221 M,2,5668,6668,286,102,188,-346 F,0,5668,6668,1,0 S,0,7168,,0.1152305 M,1,7168,8168,91,248,-46,-60 F,0,7168,8168,1,0 S,0,8668,,0.153416 M,2,8668,9668,400,363,573,-119 F,0,8668,9668,1,0 S,0,10168,,0.1787126 M,1,10168,11168,348,236,392,120 F,0,10168,11168,1,0 S,0,11418,,0.1664536 M,1,11418,12418,486,317,349,-149 F,0,11418,12418,1,0
Sprite,Background,Centre,"sb\bubble.png",0,0 S,0,4168,,0.168762 M,2,4168,5168,349,372,428,82 F,0,4168,5168,1,0 S,0,5668,,0.1514041 M,2,5668,6668,286,102,439,-181 F,0,5668,6668,1,0 S,0,7168,,0.1034062 M,1,7168,8168,91,248,285,-238 F,0,7168,8168,1,0 S,0,8668,,0.107489 M,1,8668,9668,400,363,302,-131 F,0,8668,9668,1,0 S,0,10168,,0.1796123 M,1,10168,11168,348,236,399,-123 F,0,10168,11168,1,0 S,0,11418,,0.1660709 M,2,11418,12418,486,317,494,9 F,0,11418,12418,1,0
Sprite,Background,Centre,"sb\bubble.png",0,0 S,0,4168,,0.1453327 M,1,4168,5168,349,372,367,-96 F,0,4168,5168,1,0 S,0,5668,,0.1691727 M,1,5668,6668,286,102,226,-2 F,0,5668,6668,1,0 S,0,7168,,0.1224299 M,2,7168,8168,91,248,97,-23 F,0,7168,8168,1,0 S,0,8668,,0.1567671 M,2,8668,9668,400,363,490,-33 F,0,8668,9668,1,0 S,0,10168,,0.1260759 M,2,10168,11168,348,236,217,20 F,0,10168,11168,1,0 S,0,11418,,0.1877137 M,1,11418,12418,486,317,377,83 F,0,11418,12418,1,0
Sprite,Background,Centre,"sb\bubble.png",0,0 S,0,4168,,0.1762964 M,2,4168,5168,349,372,267,267 F,0,4168,5168,1,0 S,0,5668,,0.1581289 M,1,5668,6668,286,102,134,-321 F,0,5668,6668,1,0 S,0,7168,,0.1832899 M,2,7168,8168,91,248,-63,-190 F,0,7168,8168,1,0 S,0,8668,,0.1924282 M,2,8668,9668,400,363,445,149 F,0,8668,9668,1,0 S,0,10168,,0.1747003 M,2,10168,11168,348,236,457,121 F,0,10168,11168,1,0 S,0,11418,,0.1069991 M,2,11418,12418,486,317,602,-122 F,0,11418,12418,1,0
Sprite,Background,Centre,"sb\bubble.png",0,0 S,0,4168,,0.1957455 M,1,4168,5168,349,372,161,24 F,0,4168,5168,1,0 S,0,5668,,0.1784076 M,1,5668,6668,286,102,190,-274 F,0,5668,6668,1,0 S,0,7168,,0.1123624 M,1,7168,8168,91,248,192,-156 F,0,7168,8168,1,0 S,0,8668,,0.1680085 M,2,8668,9668,400,363,474,259 F,0,8668,9668,1,0 S,0,10168,,0.1703927 M,2,10168,11168,348,236,344,30 F,0,10168,11168,1,0 S,0,11418,,0.1792655 M,2,11418,12418,486,317,398,191 F,0,11418,12418,1,0
Sprite,Background,Centre,"sb\bubble.png",0,0 S,0,4168,,0.1273451 M,1,4168,5168,349,372,351,158 F,0,4168,5168,1,0 S,0,5668,,0.1655619 M,2,5668,6668,286,102,139,-153 F,0,5668,6668,1,0 S,0,7168,,0.1829503 M,2,7168,8168,91,248,-38,-21 F,0,7168,8168,1,0 S,0,8668,,0.1656179 M,2,8668,9668,400,363,450,-114 F,0,8668,9668,1,0 S,0,10168,,0.112558 M,2,10168,11168,348,236,190,-26 F,0,10168,11168,1,0 S,0,11418,,0.1496177 M,2,11418,12418,486,317,572,-126 F,0,11418,12418,1,0
Sprite,Background,Centre,"sb\bubble.png",0,0 S,0,4168,,0.1457209 M,1,4168,5168,349,372,511,189 F,0,4168,5168,1,0 S,0,5668,,0.1877911 M,1,5668,6668,286,102,222,-389 F,0,5668,6668,1,0 S,0,7168,,0.1280021 M,1,7168,8168,91,248,-18,-92 F,0,7168,8168,1,0 S,0,8668,,0.1790971 M,1,8668,9668,400,363,572,-9 F,0,8668,9668,1,0 S,0,10168,,0.1825591 M,2,10168,11168,348,236,543,-175 F,0,10168,11168,1,0 S,0,11418,,0.1016198 M,2,11418,12418,486,317,616,10 F,0,11418,12418,1,0
Sprite,Background,Centre,"sb\bubble.png",0,0 S,0,4168,,0.1718727 M,1,4168,5168,349,372,207,-40 F,0,4168,5168,1,0 S,0,5668,,0.1255308 M,2,5668,6668,286,102,370,-42 F,0,5668,6668,1,0 S,0,7168,,0.1415991 M,2,7168,8168,91,248,84,-110 F,0,7168,8168,1,0 S,0,8668,,0.1926326 M,1,8668,9668,400,363,562,-108 F,0,8668,9668,1,0 S,0,10168,,0.1093488 M,2,10168,11168,348,236,374,-247 F,0,10168,11168,1,0 S,0,11418,,0.1304048 M,2,11418,12418,486,317,530,164 F,0,11418,12418,1,0
Sprite,Background,Centre,"sb\bubble.png",0,0 S,0,4168,,0.1878192 M,1,4168,5168,349,372,396,67 F,0,4168,5168,1,0 S,0,5668,,0.1887585 M,1,5668,6668,286,102,191,-209 F,0,5668,6668,1,0 S,0,7168,,0.1134914 M,1,7168,8168,91,248,208,-175 F,0,7168,8168,1,0 S,0,8668,,0.1870886 M,1,8668,9668,400,363,513,-20 F,0,8668,9668,1,0 S,0,10168,,0.1275329 M,2,10168,11168,348,236,358,-177 F,0,10168,11168,1,0 S,0,11418,,0.1000311 M,1,11418,12418,486,317,421,178 F,0,11418,12418,1,0
Sprite,Background,Centre,"sb\bubble.png",0,0 S,0,4168,,0.1679749 M,2,4168,5168,349,372,479,166 F,0,4168,5168,1,0 S,0,5668,,0.1368972 M,1,5668,6668,286,102,282,-143 F,0,5668,6668,1,0 S,0,7168,,0.1720458 M,1,7168,8168,91,248,101,50 F,0,7168,8168,1,0 S,0,8668,,0.1219765 M,2,8668,9668,400,363,292,-90 F,0,8668,9668,1,0 S,0,10168,,0.191184 M,1,10168,11168,348,236,524,-119 F,0,10168,11168,1,0 S,0,11418,,0.1199902 M,2,11418,12418,486,317,673,152 F,0,11418,12418,1,0
Sprite,Background,Centre,"sb\bubble.png",0,0 S,0,4668,,0.189644 M,2,4668,5668,168,349,217,-64 F,0,4668,5668,1,0 S,0,6168,,0.1001825 M,2,6168,7168,220,245,117,143 F,0,6168,7168,1,0 S,0,8168,,0.1040189 M,2,8168,9168,208,378,190,-88 F,0,8168,9168,1,0 S,0,10668,,0.1241179 M,1,10668,11668,482,157,422,-335 F,0,10668,11668,1,0
Sprite,Background,Centre,"sb\bubble.png",0,0 S,0,4668,,0.1644115 M,1,4668,5668,168,349,2,184 F,0,4668,5668,1,0 S,0,6168,,0.1772257 M,1,6168,7168,220,245,413,129 F,0,6168,7168,1,0 S,0,8168,,0.1707156 M,2,8168,9168,208,378,319,16 F,0,8168,9168,1,0 S,0,10668,,0.1433084 M,1,10668,11668,482,157,355,-232 F,0,10668,11668,1,0
Sprite,Background,Centre,"sb\bubble.png",0,0 S,0,4668,,0.1481366 M,2,4668,5668,168,349,298,-64 F,0,4668,5668,1,0 S,0,6168,,0.1110062 M,1,6168,7168,220,245,56,-179 F,0,6168,7168,1,0 S,0,8168,,0.142316 M,2,8168,9168,208,378,193,95 F,0,8168,9168,1,0 S,0,10668,,0.192364 M,2,10668,11668,482,157,288,-217 F,0,10668,11668,1,0
Sprite,Background,Centre,"sb\bubble.png",0,0 S,0,4668,,0.1100935 M,2,4668,5668,168,349,228,136 F,0,4668,5668,1,0 S,0,6168,,0.1642671 M,2,6168,7168,220,245,313,-215 F,0,6168,7168,1,0 S,0,8168,,0.1581277 M,2,8168,9168,208,378,370,41 F,0,8168,9168,1,0 S,0,10668,,0.1015061 M,1,10668,11668,482,157,497,-7 F,0,10668,11668,1,0
Sprite,Background,Centre,"sb\bubble.png",0,0 S,0,4668,,0.1905176 M,1,4668,5668,168,349,259,136 F,0,4668,5668,1,0 S,0,6168,,0.1859581 M,2,6168,7168,220,245,249,-159 F,0,6168,7168,1,0 S,0,8168,,0.1584561 M,2,8168,9168,208,378,308,-29 F,0,8168,9168,1,0 S,0,10668,,0.1402978 M,2,10668,11668,482,157,318,-320 F,0,10668,11668,1,0
Sprite,Background,Centre,"sb\bubble.png",0,0 S,0,4668,,0.1325501 M,2,4668,5668,168,349,43,39 F,0,4668,5668,1,0 S,0,6168,,0.1460244 M,2,6168,7168,220,245,198,107 F,0,6168,7168,1,0 S,0,8168,,0.1160314 M,2,8168,9168,208,378,404,-102 F,0,8168,9168,1,0 S,0,10668,,0.1129013 M,1,10668,11668,482,157,445,-253 F,0,10668,11668,1,0
Sprite,Background,Centre,"sb\bubble.png",0,0 S,0,4668,,0.1809204 M,2,4668,5668,168,349,236,36 F,0,4668,5668,1,0 S,0,6168,,0.1647173 M,1,6168,7168,220,245,156,56 F,0,6168,7168,1,0 S,0,8168,,0.192347 M,1,8168,9168,208,378,394,55 F,0,8168,9168,1,0 S,0,10668,,0.1554413 M,2,10668,11668,482,157,312,-49 F,0,10668,11668,1,0
Sprite,Background,Centre,"sb\bubble.png",0,0 S,0,4668,,0.1294997 M,2,4668,5668,168,349,285,154 F,0,4668,5668,1,0 S,0,6168,,0.1623841 M,1,6168,7168,220,245,419,-12 F,0,6168,7168,1,0 S,0,8168,,0.1999043 M,1,8168,9168,208,378,30,134 F,0,8168,9168,1,0 S,0,10668,,0.1126908 M,2,10668,11668,482,157,300,-184 F,0,10668,11668,1,0
Sprite,Background,Centre,"sb\bubble.png",0,0 S,0,4668,,0.1286722 M,1,4668,5668,168,349,177,114 F,0,4668,5668,1,0 S,0,6168,,0.1137639 M,2,6168,7168,220,245,416,94 F,0,6168,7168,1,0 S,0,8168,,0.1094391 M,2,8168,9168,208,378,354,59 F,0,8168,9168,1,0 S,0,10668,,0.1085728 M,1,10668,11668,482,157,435,-36 F,0,10668,11668,1,0
Sprite,Background,Centre,"sb\bubble.png",0,0 S,0,4668,,0.1068519 M,1,4668,5668,168,349,296,-62 F,0,4668,5668,1,0 S,0,6168,,0.1379237 M,2,6168,7168,220,245,20,-33 F,0,6168,7168,1,0 S,0,8168,,0.1882428 M,1,8168,9168,208,378,405,153 F,0,8168,9168,1,0 S,0,10668,,0.1709087 M,2,10668,11668,482,157,420,-92 F,0,10668,11668,1,0
Sprite,Background,Centre,"sb\bubble.png",0,0 S,0,4668,,0.1927637 M,2,4668,5668,168,349,217,126 F,0,4668,5668,1,0 S,0,6168,,0.151996 M,2,6168,7168,220,245,366,-125 F,0,6168,7168,1,0 S,0,8168,,0.1939982 M,2,8168,9168,208,378,288,12 F,0,8168,9168,1,0 S,0,10668,,0.1249967 M,2,10668,11668,482,157,584,-139 F,0,10668,11668,1,0
Sprite,Background,Centre,"sb\bubble.png",0,0 S,0,4668,,0.1900104 M,1,4668,5668,168,349,56,220 F,0,4668,5668,1,0 S,0,6168,,0.1162909 M,2,6168,7168,220,245,351,-39 F,0,6168,7168,1,0 S,0,8168,,0.1384681 M,2,8168,9168,208,378,215,-49 F,0,8168,9168,1,0 S,0,10668,,0.1684822 M,2,10668,11668,482,157,388,-58 F,0,10668,11668,1,0
Sprite,Background,Centre,"sb\bubble.png",0,0 S,0,4668,,0.1106972 M,1,4668,5668,168,349,239,-114 F,0,4668,5668,1,0 S,0,6168,,0.1249951 M,1,6168,7168,220,245,273,-34 F,0,6168,7168,1,0 S,0,8168,,0.1290793 M,1,8168,9168,208,378,158,86 F,0,8168,9168,1,0 S,0,10668,,0.1881841 M,1,10668,11668,482,157,345,18 F,0,10668,11668,1,0
Sprite,Background,Centre,"sb\bubble.png",0,0 S,0,4668,,0.1148056 M,1,4668,5668,168,349,211,230 F,0,4668,5668,1,0 S,0,6168,,0.1337397 M,2,6168,7168,220,245,340,-71 F,0,6168,7168,1,0 S,0,8168,,0.1404794 M,2,8168,9168,208,378,340,194 F,0,8168,9168,1,0 S,0,10668,,0.1124287 M,2,10668,11668,482,157,507,36 F,0,10668,11668,1,0
Sprite,Background,Centre,"sb\bubble.png",0,0 S,0,4668,,0.1618182 M,1,4668,5668,168,349,239,76 F,0,4668,5668,1,0 S,0,6168,,0.1205291 M,2,6168,7168,220,245,96,-195 F,0,6168,7168,1,0 S,0,8168,,0.1334774 M,1,8168,9168,208,378,222,47 F,0,8168,9168,1,0 S,0,10668,,0.1447598 M,1,10668,11668,482,157,598,-295 F,0,10668,11668,1,0
Sprite,Background,Centre,"sb\bubble.png",0,0 S,0,5168,,0.1062308 M,2,5168,6168,309,283,111,-73 F,0,5168,6168,1,0 S,0,6668,,0.1482344 M,2,6668,7668,229,159,242,-138 F,0,6668,7668,1,0 S,0,9168,,0.1480845 M,2,9168,10168,246,272,314,-35 F,0,9168,10168,1,0 S,0,11168,,0.1616917 M,1,11168,12168,503,304,521,169 F,0,11168,12168,1,0
Sprite,Background,Centre,"sb\bubble.png",0,0 S,0,5168,,0.1988812 M,2,5168,6168,309,283,221,64 F,0,5168,6168,1,0 S,0,6668,,0.1859633 M,1,6668,7668,229,159,69,-166 F,0,6668,7668,1,0 S,0,9168,,0.1466063 M,1,9168,10168,246,272,111,-220 F,0,9168,10168,1,0 S,0,11168,,0.1769936 M,2,11168,12168,503,304,507,63 F,0,11168,12168,1,0
Sprite,Background,Centre,"sb\bubble.png",0,0 S,0,5168,,0.1506576 M,1,5168,6168,309,283,263,-8 F,0,5168,6168,1,0 S,0,6668,,0.1015509 M,2,6668,7668,229,159,253,-61 F,0,6668,7668,1,0 S,0,9168,,0.1243739 M,2,9168,10168,246,272,75,155 F,0,9168,10168,1,0 S,0,11168,,0.1464302 M,2,11168,12168,503,304,498,194 F,0,11168,12168,1,0
Sprite,Background,Centre,"sb\bubble.png",0,0 S,0,5168,,0.1496079 M,1,5168,6168,309,283,321,-195 F,0,5168,6168,1,0 S,0,6668,,0.1122342 M,2,6668,7668,229,159,256,-158 F,0,6668,7668,1,0 S,0,9168,,0.1873887 M,1,9168,10168,246,272,408,156 F,0,9168,10168,1,0 S,0,11168,,0.1898948 M,2,11168,12168,503,304,349,-161 F,0,11168,12168,1,0
Sprite,Background,Centre,"sb\bubble.png",0,0 S,0,5168,,0.1742329 M,1,5168,6168,309,283,447,28 F,0,5168,6168,1,0 S,0,6668,,0.179928 M,2,6668,7668,229,159,77,-228 F,0,6668,7668,1,0 S,0,9168,,0.1936357 M,2,9168,10168,246,272,207,127 F,0,9168,10168,1,0 S,0,11168,,0.1363329 M,2,11168,12168,503,304,469,195 F,0,11168,12168,1,0
Sprite,Background,Centre,"sb\bubble.png",0,0 S,0,5168,,0.1699652 M,1,5168,6168,309,283,269,156 F,0,5168,6168,1,0 S,0,6668,,0.1445772 M,1,6668,7668,229,159,131,-236 F,0,6668,7668,1,0 S,0,9168,,0.1651656 M,1,9168,10168,246,272,409,-78 F,0,9168,10168,1,0 S,0,11168,,0.1142121 M,1,11168,12168,503,304,375,-177 F,0,11168,12168,1,0
Sprite,Background,Centre,"sb\bubble.png",0,0 S,0,5168,,0.1569742 M,2,5168,6168,309,283,355,115 F,0,5168,6168,1,0 S,0,6668,,0.153052 M,2,6668,7668,229,159,146,-6 F,0,6668,7668,1,0 S,0,9168,,0.132211 M,2,9168,10168,246,272,83,24 F,0,9168,10168,1,0 S,0,11168,,0.1435721 M,2,11168,12168,503,304,389,173 F,0,11168,12168,1,0
Sprite,Background,Centre,"sb\bubble.png",0,0 S,0,5168,,0.1250748 M,2,5168,6168,309,283,178,-144 F,0,5168,6168,1,0 S,0,6668,,0.1851736 M,2,6668,7668,229,159,409,-261 F,0,6668,7668,1,0 S,0,9168,,0.1567461 M,2,9168,10168,246,272,171,-190 F,0,9168,10168,1,0 S,0,11168,,0.1225793 M,1,11168,12168,503,304,410,-105 F,0,11168,12168,1,0
Sprite,Background,Centre,"sb\bubble.png",0,0 S,0,5168,,0.1263684 M,1,5168,6168,309,283,507,10 F,0,5168,6168,1,0 S,0,6668,,0.1356198 M,2,6668,7668,229,159,387,-155 F,0,6668,7668,1,0 S,0,9168,,0.1143492 M,1,9168,10168,246,272,216,-35 F,0,9168,10168,1,0 S,0,11168,,0.1841409 M,1,11168,12168,503,304,488,2 F,0,11168,12168,1,0
Sprite,Background,Centre,"sb\bubble.png",0,0 S,0,5168,,0.1516366 M,2,5168,6168,309,283,446,10 F,0,5168,6168,1,0 S,0,6668,,0.1390975 M,1,6668,7668,229,159,249,-220 F,0,6668,7668,1,0 S,0,9168,,0.1911373 M,1,9168,10168,246,272,179,-164 F,0,9168,10168,1,0 S,0,11168,,0.1618144 M,2,11168,12168,503,304,352,-119 F,0,11168,12168,1,0
Sprite,Background,Centre,"sb\bubble.png",0,0 S,0,5168,,0.1155765 M,2,5168,6168,309,283,497,-186 F,0,5168,6168,1,0 S,0,6668,,0.1931997 M,2,6668,7668,229,159,197,-76 F,0,6668,7668,1,0 S,0,9168,,0.1947085 M,2,9168,10168,246,272,395,28 F,0,9168,10168,1,0 S,0,11168,,0.1182479 M,1,11168,12168,503,304,372,117 F,0,11168,12168,1,0
Sprite,Background,Centre,"sb\bubble.png",0,0 S,0,5168,,0.1552862 M,2,5168,6168,309,283,434,40 F,0,5168,6168,1,0 S,0,6668,,0.1342673 M,2,6668,7668,229,159,394,-222 F,0,6668,7668,1,0 S,0,9168,,0.182241 M,1,9168,10168,246,272,88,141 F,0,9168,10168,1,0 S,0,11168,,0.1474975 M,2,11168,12168,503,304,396,91 F,0,11168,12168,1,0
Sprite,Background,Centre,"sb\bubble.png",0,0 S,0,5168,,0.1064454 M,1,5168,6168,309,283,377,180 F,0,5168,6168,1,0 S,0,6668,,0.1909044 M,1,6668,7668,229,159,215,-22 F,0,6668,7668,1,0 S,0,9168,,0.1340294 M,1,9168,10168,246,272,100,-17 F,0,9168,10168,1,0 S,0,11168,,0.1812178 M,2,11168,12168,503,304,423,45 F,0,11168,12168,1,0
Sprite,Background,Centre,"sb\bubble.png",0,0 S,0,5168,,0.107169 M,1,5168,6168,309,283,295,-24 F,0,5168,6168,1,0 S,0,6668,,0.1270912 M,2,6668,7668,229,159,236,3 F,0,6668,7668,1,0 S,0,9168,,0.1296088 M,1,9168,10168,246,272,252,23 F,0,9168,10168,1,0 S,0,11168,,0.1496569 M,1,11168,12168,503,304,406,124 F,0,11168,12168,1,0
Sprite,Background,Centre,"sb\bubble.png",0,0 S,0,5168,,0.1451079 M,1,5168,6168,309,283,201,-157 F,0,5168,6168,1,0 S,0,6668,,0.1261453 M,1,6668,7668,229,159,227,-211 F,0,6668,7668,1,0 S,0,9168,,0.1530327 M,1,9168,10168,246,272,171,-199 F,0,9168,10168,1,0 S,0,11168,,0.1586448 M,1,11168,12168,503,304,510,-98 F,0,11168,12168,1,0
Sprite,Background,Centre,"sb\bubble.png",0,0 S,0,11668,,0.1259093 M,1,11668,12668,469,330,459,-34 F,0,11668,12668,1,0
Sprite,Background,Centre,"sb\bubble.png",0,0 S,0,11668,,0.1087311 M,1,11668,12668,469,330,461,189 F,0,11668,12668,1,0
Sprite,Background,Centre,"sb\bubble.png",0,0 S,0,11668,,0.1915051 M,1,11668,12668,469,330,554,-123 F,0,11668,12668,1,0
Sprite,Background,Centre,"sb\bubble.png",0,0 S,0,11668,,0.1015034 M,2,11668,12668,469,330,554,-125 F,0,11668,12668,1,0
Sprite,Background,Centre,"sb\bubble.png",0,0 S,0,11668,,0.1037063 M,2,11668,12668,469,330,484,85 F,0,11668,12668,1,0
Sprite,Background,Centre,"sb\bubble.png",0,0 S,0,11668,,0.1360395 M,1,11668,12668,469,330,632,209 F,0,11668,12668,1,0
Sprite,Background,Centre,"sb\bubble.png",0,0 S,0,11668,,0.1888587 M,2,11668,12668,469,330,278,-163 F,0,11668,12668,1,0
Sprite,Background,Centre,"sb\bubble.png",0,0 S,0,11668,,0.1443868 M,1,11668,12668,469,330,559,42 F,0,11668,12668,1,0
Sprite,Background,Centre,"sb\bubble.png",0,0 S,0,11668,,0.1376209 M,1,11668,12668,469,330,348,-50 F,0,11668,12668,1,0
Sprite,Background,Centre,"sb\bubble.png",0,0 S,0,11668,,0.19282 M,1,11668,12668,469,330,569,-55 F,0,11668,12668,1,0
Sprite,Background,Centre,"sb\bubble.png",0,0 S,0,11668,,0.1492125 M,1,11668,12668,469,330,290,23 F,0,11668,12668,1,0
Sprite,Background,Centre,"sb\bubble.png",0,0 S,0,11668,,0.1224119 M,2,11668,12668,469,330,570,121 F,0,11668,12668,1,0
Sprite,Background,Centre,"sb\bubble.png",0,0 S,0,11668,,0.1331701 M,1,11668,12668,469,330,318,-5 F,0,11668,12668,1,0
Sprite,Background,Centre,"sb\bubble.png",0,0 S,0,11668,,0.1526143 M,1,11668,12668,469,330,269,110 F,0,11668,12668,1,0
Sprite,Background,Centre,"sb\bubble.png",0,0 S,0,11668,,0.146296 M,1,11668,12668,469,330,385,-158 F,0,11668,12668,1,0
Sprite,Background,Centre,"sb\bubble.png",0,0 S,0,228168,,0.1182085 M,1,228168,229168,382,84,326,-199 F,0,228168,229168,1,0 S,0,229668,,0.1699289 M,2,229668,230668,192,334,8,141 F,0,229668,230668,1,0 S,0,231168,,0.1196909 M,1,231168,232168,560,155,700,-148 F,0,231168,232168,1,0 S,0,232668,,0.1042873 M,1,232668,233668,256,356,239,-53 F,0,232668,233668,1,0 S,0,234168,,0.1999337 M,2,234168,235168,285,224,237,-73 F,0,234168,235168,1,0
Sprite,Background,Centre,"sb\bubble.png",0,0 S,0,228168,,0.1412121 M,2,228168,229168,382,84,189,-148 F,0,228168,229168,1,0 S,0,229668,,0.1222029 M,1,229668,230668,192,334,37,213 F,0,229668,230668,1,0 S,0,231168,,0.1634621 M,2,231168,232168,560,155,441,-37 F,0,231168,232168,1,0 S,0,232668,,0.19585 M,1,232668,233668,256,356,191,211 F,0,232668,233668,1,0 S,0,234168,,0.1762765 M,1,234168,235168,285,224,127,-120 F,0,234168,235168,1,0
Sprite,Background,Centre,"sb\bubble.png",0,0 S,0,228168,,0.1248622 M,1,228168,229168,382,84,501,-255 F,0,228168,229168,1,0 S,0,229668,,0.1672843 M,1,229668,230668,192,334,74,194 F,0,229668,230668,1,0 S,0,231168,,0.1347484 M,2,231168,232168,560,155,542,-25 F,0,231168,232168,1,0 S,0,232668,,0.184397 M,1,232668,233668,256,356,137,114 F,0,232668,233668,1,0 S,0,234168,,0.1841318 M,2,234168,235168,285,224,445,-35 F,0,234168,235168,1,0
Sprite,Background,Centre,"sb\bubble.png",0,0 S,0,228168,,0.1425189 M,2,228168,229168,382,84,431,-53 F,0,228168,229168,1,0 S,0,229668,,0.1906092 M,2,229668,230668,192,334,9,-66 F,0,229668,230668,1,0 S,0,231168,,0.1385688 M,2,231168,232168,560,155,608,-155 F,0,231168,232168,1,0 S,0,232668,,0.1494765 M,2,232668,233668,256,356,100,145 F,0,232668,233668,1,0 S,0,234168,,0.1049773 M,1,234168,235168,285,224,116,-224 F,0,234168,235168,1,0
Sprite,Background,Centre,"sb\bubble.png",0,0 S,0,228168,,0.1293981 M,2,228168,229168,382,84,440,-194 F,0,228168,229168,1,0 S,0,229668,,0.1676065 M,1,229668,230668,192,334,62,-59 F,0,229668,230668,1,0 S,0,231168,,0.1571635 M,2,231168,232168,560,155,733,-196 F,0,231168,232168,1,0 S,0,232668,,0.1835187 M,1,232668,233668,256,356,439,39 F,0,232668,233668,1,0 S,0,234168,,0.1972101 M,2,234168,235168,285,224,480,-126 F,0,234168,235168,1,0
Sprite,Background,Centre,"sb\bubble.png",0,0 S,0,228168,,0.1312745 M,2,228168,229168,382,84,353,-291 F,0,228168,229168,1,0 S,0,229668,,0.1268878 M,1,229668,230668,192,334,359,179 F,0,229668,230668,1,0 S,0,231168,,0.1487851 M,1,231168,232168,560,155,461,-139 F,0,231168,232168,1,0 S,0,232668,,0.1104822 M,2,232668,233668,256,356,191,32 F,0,232668,233668,1,0 S,0,234168,,0.1930805 M,2,234168,235168,285,224,417,-17 F,0,234168,235168,1,0
Sprite,Background,Centre,"sb\bubble.png",0,0 S,0,228168,,0.1499615 M,1,228168,229168,382,84,209,-109 F,0,228168,229168,1,0 S,0,229668,,0.1780332 M,2,229668,230668,192,334,273,24 F,0,229668,230668,1,0 S,0,231168,,0.1458632 M,2,231168,232168,560,155,716,-293 F,0,231168,232168,1,0 S,0,232668,,0.1560661 M,2,232668,233668,256,356,222,59 F,0,232668,233668,1,0 S,0,234168,,0.1487546 M,1,234168,235168,285,224,159,-229 F,0,234168,235168,1,0
Sprite,Background,Centre,"sb\bubble.png",0,0 S,0,228168,,0.171907 M,1,228168,229168,382,84,186,-100 F,0,228168,229168,1,0 S,0,229668,,0.1253268 M,1,229668,230668,192,334,52,34 F,0,229668,230668,1,0 S,0,231168,,0.1035553 M,1,231168,232168,560,155,504,-217 F,0,231168,232168,1,0 S,0,232668,,0.1048513 M,2,232668,233668,256,356,156,140 F,0,232668,233668,1,0 S,0,234168,,0.1450344 M,1,234168,235168,285,224,122,-215 F,0,234168,235168,1,0
Sprite,Background,Centre,"sb\bubble.png",0,0 S,0,228168,,0.1509572 M,2,228168,229168,382,84,203,-196 F,0,228168,229168,1,0 S,0,229668,,0.1070335 M,1,229668,230668,192,334,181,137 F,0,229668,230668,1,0 S,0,231168,,0.1401095 M,1,231168,232168,560,155,541,-290 F,0,231168,232168,1,0 S,0,232668,,0.1510016 M,2,232668,233668,256,356,320,129 F,0,232668,233668,1,0 S,0,234168,,0.1306498 M,2,234168,235168,285,224,167,-140 F,0,234168,235168,1,0
Sprite,Background,Centre,"sb\bubble.png",0,0 S,0,228168,,0.1080516 M,1,228168,229168,382,84,231,-368 F,0,228168,229168,1,0 S,0,229668,,0.1363296 M,1,229668,230668,192,334,376,43 F,0,229668,230668,1,0 S,0,231168,,0.171763 M,1,231168,232168,560,155,373,-200 F,0,231168,232168,1,0 S,0,232668,,0.1430994 M,2,232668,233668,256,356,318,-136 F,0,232668,233668,1,0 S,0,234168,,0.1829326 M,1,234168,235168,285,224,445,-202 F,0,234168,235168,1,0
Sprite,Background,Centre,"sb\bubble.png",0,0 S,0,228168,,0.1718694 M,1,228168,229168,382,84,187,-345 F,0,228168,229168,1,0 S,0,229668,,0.1520109 M,1,229668,230668,192,334,207,177 F,0,229668,230668,1,0 S,0,231168,,0.1391475 M,2,231168,232168,560,155,486,-301 F,0,231168,232168,1,0 S,0,232668,,0.1055886 M,1,232668,233668,256,356,77,-129 F,0,232668,233668,1,0 S,0,234168,,0.146543 M,1,234168,235168,285,224,322,-216 F,0,234168,235168,1,0
Sprite,Background,Centre,"sb\bubble.png",0,0 S,0,228168,,0.1091054 M,2,228168,229168,382,84,241,-331 F,0,228168,229168,1,0 S,0,229668,,0.1421344 M,2,229668,230668,192,334,158,74 F,0,229668,230668,1,0 S,0,231168,,0.1456471 M,1,231168,232168,560,155,388,-203 F,0,231168,232168,1,0 S,0,232668,,0.1995638 M,1,232668,233668,256,356,122,-83 F,0,232668,233668,1,0 S,0,234168,,0.1145682 M,1,234168,235168,285,224,357,15 F,0,234168,235168,1,0
Sprite,Background,Centre,"sb\bubble.png",0,0 S,0,228168,,0.1735725 M,2,228168,229168,382,84,468,-71 F,0,228168,229168,1,0 S,0,229668,,0.136527 M,2,229668,230668,192,334,321,-19 F,0,229668,230668,1,0 S,0,231168,,0.107874 M,2,231168,232168,560,155,428,-143 F,0,231168,232168,1,0 S,0,232668,,0.1056593 M,1,232668,233668,256,356,405,-23 F,0,232668,233668,1,0 S,0,234168,,0.1982902 M,2,234168,235168,285,224,394,-158 F,0,234168,235168,1,0
Sprite,Background,Centre,"sb\bubble.png",0,0 S,0,228168,,0.1045985 M,1,228168,229168,382,84,351,-40 F,0,228168,229168,1,0 S,0,229668,,0.1178316 M,2,229668,230668,192,334,154,145 F,0,229668,230668,1,0 S,0,231168,,0.1334353 M,2,231168,232168,560,155,555,-108 F,0,231168,232168,1,0 S,0,232668,,0.1018649 M,1,232668,233668,256,356,430,159 F,0,232668,233668,1,0 S,0,234168,,0.1732339 M,2,234168,235168,285,224,250,82 F,0,234168,235168,1,0
Sprite,Background,Centre,"sb\bubble.png",0,0 S,0,228168,,0.1250589 M,1,228168,229168,382,84,492,-397 F,0,228168,229168,1,0 S,0,229668,,0.1637601 M,2,229668,230668,192,334,168,58 F,0,229668,230668,1,0 S,0,231168,,0.107175 M,1,231168,232168,560,155,382,0 F,0,231168,232168,1,0 S,0,232668,,0.1830052 M,2,232668,233668,256,356,314,228 F,0,232668,233668,1,0 S,0,234168,,0.1986112 M,2,234168,235168,285,224,302,-16 F,0,234168,235168,1,0
Sprite,Background,Centre,"sb\bubble.png",0,0 S,0,228668,,0.1007589 M,1,228668,229668,499,188,390,-226 F,0,228668,229668,1,0 S,0,230168,,0.1704244 M,1,230168,231168,370,399,209,46 F,0,230168,231168,1,0 S,0,231668,,0.1136624 M,1,231668,232668,429,78,311,-289 F,0,231668,232668,1,0 S,0,233168,,0.1492837 M,2,233168,234168,449,357,324,139 F,0,233168,234168,1,0 S,0,234668,,0.1747075 M,2,234668,235668,331,339,167,154 F,0,234668,235668,1,0
Sprite,Background,Centre,"sb\bubble.png",0,0 S,0,228668,,0.1072885 M,1,228668,229668,499,188,427,-95 F,0,228668,229668,1,0 S,0,230168,,0.1286134 M,1,230168,231168,370,399,410,-64 F,0,230168,231168,1,0 S,0,231668,,0.1483173 M,2,231668,232668,429,78,370,-92 F,0,231668,232668,1,0 S,0,233168,,0.1427275 M,1,233168,234168,449,357,542,-89 F,0,233168,234168,1,0 S,0,234668,,0.173668 M,2,234668,235668,331,339,240,-83 F,0,234668,235668,1,0
Sprite,Background,Centre,"sb\bubble.png",0,0 S,0,228668,,0.1524858 M,1,228668,229668,499,188,435,-123 F,0,228668,229668,1,0 S,0,230168,,0.165331 M,2,230168,231168,370,399,553,157 F,0,230168,231168,1,0 S,0,231668,,0.1569434 M,1,231668,232668,429,78,407,-221 F,0,231668,232668,1,0 S,0,233168,,0.1937931 M,2,233168,234168,449,357,332,-143 F,0,233168,234168,1,0 S,0,234668,,0.180289 M,1,234668,235668,331,339,194,213 F,0,234668,235668,1,0
Sprite,Background,Centre,"sb\bubble.png",0,0 S,0,228668,,0.1249557 M,1,228668,229668,499,188,332,-102 F,0,228668,229668,1,0 S,0,230168,,0.1059923 M,1,230168,231168,370,399,251,-80 F,0,230168,231168,1,0 S,0,231668,,0.1142658 M,1,231668,232668,429,78,587,-35 F,0,231668,232668,1,0 S,0,233168,,0.1299096 M,2,233168,234168,449,357,542,255 F,0,233168,234168,1,0 S,0,234668,,0.1678736 M,1,234668,235668,331,339,505,225 F,0,234668,235668,1,0
Sprite,Background,Centre,"sb\bubble.png",0,0 S,0,228668,,0.185505 M,1,228668,229668,499,188,654,-294 F,0,228668,229668,1,0 S,0,230168,,0.1102588 M,2,230168,231168,370,399,467,221 F,0,230168,231168,1,0 S,0,231668,,0.1533588 M,1,231668,232668,429,78,547,-403 F,0,231668,232668,1,0 S,0,233168,,0.1263679 M,2,233168,234168,449,357,395,67 F,0,233168,234168,1,0 S,0,234668,,0.1457269 M,1,234668,235668,331,339,317,38 F,0,234668,235668,1,0
Sprite,Background,Centre,"sb\bubble.png",0,0 S,0,228668,,0.1145939 M,2,228668,229668,499,188,323,-171 F,0,228668,229668,1,0 S,0,230168,,0.1781306 M,2,230168,231168,370,399,422,70 F,0,230168,231168,1,0 S,0,231668,,0.1854759 M,1,231668,232668,429,78,278,-379 F,0,231668,232668,1,0 S,0,233168,,0.1947922 M,2,233168,234168,449,357,326,138 F,0,233168,234168,1,0 S,0,234668,,0.1797468 M,2,234668,235668,331,339,527,-100 F,0,234668,235668,1,0
Sprite,Background,Centre,"sb\bubble.png",0,0 S,0,228668,,0.1111514 M,1,228668,229668,499,188,663,-173 F,0,228668,229668,1,0 S,0,230168,,0.1695133 M,2,230168,231168,370,399,500,273 F,0,230168,231168,1,0 S,0,231668,,0.1858786 M,2,231668,232668,429,78,429,-275 F,0,231668,232668,1,0 S,0,233168,,0.1901603 M,1,233168,234168,449,357,415,198 F,0,233168,234168,1,0 S,0,234668,,0.1308977 M,1,234668,235668,331,339,247,-22 F,0,234668,235668,1,0
Sprite,Background,Centre,"sb\bubble.png",0,0 S,0,228668,,0.1073391 M,2,228668,229668,499,188,505,-104 F,0,228668,229668,1,0 S,0,230168,,0.140074 M,2,230168,231168,370,399,544,-56 F,0,230168,231168,1,0 S,0,231668,,0.1170089 M,1,231668,232668,429,78,377,-145 F,0,231668,232668,1,0 S,0,233168,,0.172525 M,2,233168,234168,449,357,329,55 F,0,233168,234168,1,0 S,0,234668,,0.1250316 M,2,234668,235668,331,339,442,-66 F,0,234668,235668,1,0
Sprite,Background,Centre,"sb\bubble.png",0,0 S,0,228668,,0.1798532 M,2,228668,229668,499,188,302,-224 F,0,228668,229668,1,0 S,0,230168,,0.1172145 M,1,230168,231168,370,399,380,70 F,0,230168,231168,1,0 S,0,231668,,0.198189 M,2,231668,232668,429,78,251,-261 F,0,231668,232668,1,0 S,0,233168,,0.1347599 M,1,233168,234168,449,357,407,214 F,0,233168,234168,1,0 S,0,234668,,0.1806214 M,2,234668,235668,331,339,279,20 F,0,234668,235668,1,0
Sprite,Background,Centre,"sb\bubble.png",0,0 S,0,228668,,0.1604057 M,1,228668,229668,499,188,610,-145 F,0,228668,229668,1,0 S,0,230168,,0.1321804 M,2,230168,231168,370,399,485,65 F,0,230168,231168,1,0 S,0,231668,,0.1245911 M,1,231668,232668,429,78,563,-189 F,0,231668,232668,1,0 S,0,233168,,0.1030512 M,1,233168,234168,449,357,382,90 F,0,233168,234168,1,0 S,0,234668,,0.1484304 M,1,234668,235668,331,339,324,13 F,0,234668,235668,1,0
Sprite,Background,Centre,"sb\bubble.png",0,0 S,0,228668,,0.1241236 M,2,228668,229668,499,188,306,-59 F,0,228668,229668,1,0 S,0,230168,,0.1176065 M,1,230168,231168,370,399,330,122 F,0,230168,231168,1,0 S,0,231668,,0.1667089 M,1,231668,232668,429,78,413,-212 F,0,231668,232668,1,0 S,0,233168,,0.1872541 M,2,233168,234168,449,357,637,211 F,0,233168,234168,1,0 S,0,234668,,0.1838 M,2,234668,235668,331,339,168,-5 F,0,234668,235668,1,0
Sprite,Background,Centre,"sb\bubble.png",0,0 S,0,228668,,0.1897083 M,2,228668,229668,499,188,523,-171 F,0,228668,229668,1,0 S,0,230168,,0.13519 M,1,230168,231168,370,399,339,-92 F,0,230168,231168,1,0 S,0,231668,,0.1521516 M,1,231668,232668,429,78,291,-322 F,0,231668,232668,1,0 S,0,233168,,0.1939562 M,1,233168,234168,449,357,435,-1 F,0,233168,234168,1,0 S,0,234668,,0.1446449 M,1,234668,235668,331,339,190,-137 F,0,234668,235668,1,0
Sprite,Background,Centre,"sb\bubble.png",0,0 S,0,228668,,0.1730434 M,1,228668,229668,499,188,563,2 F,0,228668,229668,1,0 S,0,230168,,0.1632856 M,1,230168,231168,370,399,427,203 F,0,230168,231168,1,0 S,0,231668,,0.100839 M,2,231668,232668,429,78,364,-173 F,0,231668,232668,1,0 S,0,233168,,0.1119334 M,2,233168,234168,449,357,640,-70 F,0,233168,234168,1,0 S,0,234668,,0.1045697 M,1,234668,235668,331,339,338,192 F,0,234668,235668,1,0
Sprite,Background,Centre,"sb\bubble.png",0,0 S,0,228668,,0.1876007 M,1,228668,229668,499,188,653,-209 F,0,228668,229668,1,0 S,0,230168,,0.1670053 M,1,230168,231168,370,399,453,256 F,0,230168,231168,1,0 S,0,231668,,0.1097302 M,2,231668,232668,429,78,408,-113 F,0,231668,232668,1,0 S,0,233168,,0.1486051 M,2,233168,234168,449,357,645,1 F,0,233168,234168,1,0 S,0,234668,,0.1936526 M,2,234668,235668,331,339,291,-19 F,0,234668,235668,1,0
Sprite,Background,Centre,"sb\bubble.png",0,0 S,0,228668,,0.1971972 M,1,228668,229668,499,188,471,-210 F,0,228668,229668,1,0 S,0,230168,,0.1665494 M,2,230168,231168,370,399,334,14 F,0,230168,231168,1,0 S,0,231668,,0.1985441 M,2,231668,232668,429,78,247,-255 F,0,231668,232668,1,0 S,0,233168,,0.1879474 M,1,233168,234168,449,357,257,160 F,0,233168,234168,1,0 S,0,234668,,0.1925261 M,1,234668,235668,331,339,161,187 F,0,234668,235668,1,0
Sprite,Background,Centre,"sb\bubble.png",0,0 S,0,229168,,0.1819589 M,2,229168,230168,309,230,209,-237 F,0,229168,230168,1,0 S,0,230668,,0.1844462 M,1,230668,231668,427,217,326,-82 F,0,230668,231668,1,0 S,0,232168,,0.1752683 M,1,232168,233168,270,165,181,-321 F,0,232168,233168,1,0 S,0,233668,,0.1712158 M,1,233668,234668,463,166,272,-222 F,0,233668,234668,1,0
Sprite,Background,Centre,"sb\bubble.png",0,0 S,0,229168,,0.1861686 M,2,229168,230168,309,230,406,-179 F,0,229168,230168,1,0 S,0,230668,,0.177475 M,1,230668,231668,427,217,233,-66 F,0,230668,231668,1,0 S,0,232168,,0.149132 M,2,232168,233168,270,165,133,-263 F,0,232168,233168,1,0 S,0,233668,,0.184007 M,2,233668,234668,463,166,318,-289 F,0,233668,234668,1,0
Sprite,Background,Centre,"sb\bubble.png",0,0 S,0,229168,,0.1469697 M,1,229168,230168,309,230,379,-78 F,0,229168,230168,1,0 S,0,230668,,0.132798 M,1,230668,231668,427,217,543,102 F,0,230668,231668,1,0 S,0,232168,,0.1214509 M,1,232168,233168,270,165,252,-226 F,0,232168,233168,1,0 S,0,233668,,0.1782231 M,2,233668,234668,463,166,565,-161 F,0,233668,234668,1,0
Sprite,Background,Centre,"sb\bubble.png",0,0 S,0,229168,,0.1425997 M,2,229168,230168,309,230,368,-47 F,0,229168,230168,1,0 S,0,230668,,0.1071884 M,2,230668,231668,427,217,582,-71 F,0,230668,231668,1,0 S,0,232168,,0.1597854 M,1,232168,233168,270,165,74,-268 F,0,232168,233168,1,0 S,0,233668,,0.1307609 M,1,233668,234668,463,166,344,29 F,0,233668,234668,1,0
Sprite,Background,Centre,"sb\bubble.png",0,0 S,0,229168,,0.1555714 M,2,229168,230168,309,230,350,-54 F,0,229168,230168,1,0 S,0,230668,,0.1801772 M,1,230668,231668,427,217,613,29 F,0,230668,231668,1,0 S,0,232168,,0.125004 M,2,232168,233168,270,165,110,-88 F,0,232168,233168,1,0 S,0,233668,,0.1058605 M,1,233668,234668,463,166,629,-9 F,0,233668,234668,1,0
Sprite,Background,Centre,"sb\bubble.png",0,0 S,0,229168,,0.1731331 M,1,229168,230168,309,230,387,-111 F,0,229168,230168,1,0 S,0,230668,,0.1175259 M,1,230668,231668,427,217,536,-86 F,0,230668,231668,1,0 S,0,232168,,0.1746849 M,2,232168,233168,270,165,144,-326 F,0,232168,233168,1,0 S,0,233668,,0.1016002 M,2,233668,234668,463,166,475,-266 F,0,233668,234668,1,0
Sprite,Background,Centre,"sb\bubble.png",0,0 S,0,229168,,0.1749337 M,1,229168,230168,309,230,254,-270 F,0,229168,230168,1,0 S,0,230668,,0.1632259 M,2,230668,231668,427,217,498,115 F,0,230668,231668,1,0 S,0,232168,,0.1283954 M,2,232168,233168,270,165,133,-201 F,0,232168,233168,1,0 S,0,233668,,0.1033414 M,2,233668,234668,463,166,600,-37 F,0,233668,234668,1,0
Sprite,Background,Centre,"sb\bubble.png",0,0 S,0,229168,,0.1522252 M,1,229168,230168,309,230,121,120 F,0,229168,230168,1,0 S,0,230668,,0.149884 M,2,230668,231668,427,217,395,-46 F,0,230668,231668,1,0 S,0,232168,,0.1418203 M,2,232168,233168,270,165,252,-170 F,0,232168,233168,1,0 S,0,233668,,0.1575468 M,1,233668,234668,463,166,366,-32 F,0,233668,234668,1,0
Sprite,Background,Centre,"sb\bubble.png",0,0 S,0,229168,,0.193487 M,1,229168,230168,309,230,237,-100 F,0,229168,230168,1,0 S,0,230668,,0.1898835 M,1,230668,231668,427,217,441,-182 F,0,230668,231668,1,0 S,0,232168,,0.1426057 M,2,232168,233168,270,165,448,-315 F,0,232168,233168,1,0 S,0,233668,,0.1689438 M,1,233668,234668,463,166,465,-158 F,0,233668,234668,1,0
Sprite,Background,Centre,"sb\bubble.png",0,0 S,0,229168,,0.1333184 M,1,229168,230168,309,230,140,102 F,0,229168,230168,1,0 S,0,230668,,0.1880204 M,1,230668,231668,427,217,310,-36 F,0,230668,231668,1,0 S,0,232168,,0.1975071 M,2,232168,233168,270,165,235,-233 F,0,232168,233168,1,0 S,0,233668,,0.135206 M,2,233668,234668,463,166,527,-305 F,0,233668,234668,1,0
Sprite,Background,Centre,"sb\bubble.png",0,0 S,0,229168,,0.1180619 M,1,229168,230168,309,230,444,46 F,0,229168,230168,1,0 S,0,230668,,0.1679287 M,2,230668,231668,427,217,585,-128 F,0,230668,231668,1,0 S,0,232168,,0.1063072 M,1,232168,233168,270,165,365,-59 F,0,232168,233168,1,0 S,0,233668,,0.1546471 M,1,233668,234668,463,166,589,-142 F,0,233668,234668,1,0
Sprite,Background,Centre,"sb\bubble.png",0,0 S,0,229168,,0.1325374 M,1,229168,230168,309,230,234,5 F,0,229168,230168,1,0 S,0,230668,,0.1176512 M,2,230668,231668,427,217,423,-241 F,0,230668,231668,1,0 S,0,232168,,0.1279615 M,2,232168,233168,270,165,197,-206 F,0,232168,233168,1,0 S,0,233668,,0.1084543 M,2,233668,234668,463,166,350,14 F,0,233668,234668,1,0
Sprite,Background,Centre,"sb\bubble.png",0,0 S,0,229168,,0.1889492 M,1,229168,230168,309,230,277,35 F,0,229168,230168,1,0 S,0,230668,,0.1630165 M,2,230668,231668,427,217,304,90 F,0,230668,231668,1,0 S,0,232168,,0.1426534 M,2,232168,233168,270,165,350,-195 F,0,232168,233168,1,0 S,0,233668,,0.1206931 M,2,233668,234668,463,166,290,-203 F,0,233668,234668,1,0
Sprite,Background,Centre,"sb\bubble.png",0,0 S,0,229168,,0.1852404 M,1,229168,230168,309,230,377,-54 F,0,229168,230168,1,0 S,0,230668,,0.175343 M,2,230668,231668,427,217,600,-253 F,0,230668,231668,1,0 S,0,232168,,0.1255074 M,2,232168,233168,270,165,357,-181 F,0,232168,233168,1,0 S,0,233668,,0.1851931 M,1,233668,234668,463,166,373,-327 F,0,233668,234668,1,0
Sprite,Background,Centre,"sb\bubble.png",0,0 S,0,229168,,0.1740949 M,1,229168,230168,309,230,362,60 F,0,229168,230168,1,0 S,0,230668,,0.1019978 M,1,230668,231668,427,217,407,-214 F,0,230668,231668,1,0 S,0,232168,,0.1822695 M,2,232168,233168,270,165,275,-190 F,0,232168,233168,1,0 S,0,233668,,0.1392759 M,2,233668,234668,463,166,406,-250 F,0,233668,234668,1,0
//Storyboard Layer 1 (Fail)
//Storyboard Layer 2 (Pass)
//Storyboard Layer 3 (Foreground)
//Storyboard Sound Samples

[TimingPoints]
2168,250,4,2,6,40,1,0
2168,-100,4,2,6,40,0,0
2605,-100,4,2,5,40,0,0
2730,-100,4,2,6,40,0,0
3105,-100,4,2,6,20,0,0
3168,-100,4,3,1,20,0,0
3355,-100,4,3,1,20,0,0
3418,-100,4,3,1,30,0,0
3605,-100,4,3,1,20,0,0
3668,-100,4,3,1,40,0,0
3855,-100,4,3,1,20,0,0
3918,-100,4,3,1,50,0,0
4105,-100,4,2,1,20,0,0
4168,-100,4,2,1,50,0,0
11230,-100,4,2,1,20,0,0
11293,-100,4,2,1,50,0,0
11480,-100,4,2,1,20,0,0
11543,-100,4,2,1,50,0,0
11730,-100,4,2,1,20,0,0
11793,-100,4,2,1,50,0,0
11918,-100,4,2,1,35,0,0
12168,-100,4,2,1,50,0,0
12355,-100,4,2,1,20,0,0
12418,-100,4,2,1,50,0,0
23230,-100,4,2,1,20,0,0
23293,-100,4,2,1,50,0,0
23355,-100,4,2,1,20,0,0
23418,-100,4,2,1,50,0,0
25230,-100,4,2,1,20,0,0
25293,-100,4,2,1,50,0,0
25355,-100,4,2,1,20,0,0
25418,-100,4,2,1,50,0,0
25668,-100,4,2,1,50,0,0
28168,-100,4,2,1,50,0,0
34355,-100,4,2,1,20,0,0
34418,-100,4,2,1,50,0,0
34855,-100,4,2,1,20,0,0
34918,-100,4,2,1,50,0,0
35355,-100,4,2,1,20,0,0
35418,-100,4,2,1,50,0,0
35855,-100,4,2,1,20,0,0
35918,-100,4,2,1,50,0,0
35980,-100,4,2,1,20,0,0
36043,-100,4,2,1,50,0,0
36105,-100,4,2,1,20,0,0
36168,-100,4,2,1,50,0,0
36605,-100,4,2,1,20,0,0
36668,-100,4,2,1,50,0,0
36855,-100,4,2,1,20,0,0
36918,-100,4,2,1,50,0,0
37105,-100,4,2,1,20,0,0
37168,-100,4,2,1,50,0,0
37605,-100,4,2,1,20,0,0
37668,-100,4,2,1,50,0,0
37855,-100,4,2,1,20,0,0
37918,-100,4,2,1,50,0,0
38105,-100,4,2,1,20,0,0
38168,-100,4,2,1,50,0,0
38605,-100,4,2,1,20,0,0
38668,-100,4,2,1,50,0,0
38855,-100,4,2,1,20,0,0
38918,-100,4,2,1,50,0,0
39105,-100,4,2,1,20,0,0
39168,-100,4,2,1,50,0,0
44168,-100,4,2,1,40,0,0
50355,-100,4,2,1,20,0,0
50418,-100,4,2,1,40,0,0
51855,-100,4,2,1,20,0,0
51918,-100,4,2,1,40,0,0
51980,-100,4,2,1,20,0,0
52043,-100,4,2,1,40,0,0
52105,-100,4,2,1,20,0,0
52168,-100,4,2,1,40,0,0
59793,-100,4,2,1,50,0,0
60355,-100,4,2,1,20,0,0
60418,-100,4,2,1,60,0,0
60605,-100,4,2,1,20,0,0
60668,-100,4,2,1,70,0,0
60855,-100,4,2,1,20,0,0
60918,-100,4,2,1,70,0,0
61105,-100,4,2,1,20,0,0
61168,-100,4,2,1,100,0,0
61668,-100,4,2,1,35,0,0
61918,-100,4,2,1,35,0,0
62105,-100,4,2,1,20,0,0
62168,-90.9090909090909,4,2,1,70,0,1
62418,-90.9090909090909,4,2,1,70,0,1
65605,-90.9090909090909,4,2,1,20,0,1
65668,-90.9090909090909,4,2,1,70,0,1
65855,-90.9090909090909,4,2,1,20,0,1
65918,-90.9090909090909,4,2,1,70,0,1
65980,-90.9090909090909,4,2,1,20,0,1
66043,-90.9090909090909,4,2,1,70,0,1
66105,-90.9090909090909,4,2,1,20,0,1
66168,-90.9090909090909,4,2,1,70,0,1
70168,-90.9090909090909,4,2,1,70,0,1
70418,-90.9090909090909,4,2,1,70,0,1
70855,-90.9090909090909,4,2,1,20,0,1
70918,-90.9090909090909,4,2,1,70,0,1
73605,-90.9090909090909,4,2,1,20,0,1
73668,-90.9090909090909,4,2,1,70,0,1
73855,-90.9090909090909,4,2,1,20,0,1
73918,-90.9090909090909,4,2,1,70,0,1
73980,-90.9090909090909,4,2,1,20,0,1
74043,-90.9090909090909,4,2,1,70,0,1
74105,-90.9090909090909,4,2,1,20,0,1
74168,-90.9090909090909,4,2,1,70,0,1
77793,-100,4,2,1,70,0,0
77918,-100,4,2,1,35,0,0
78168,-100,4,2,1,70,0,0
78355,-100,4,2,1,20,0,0
78418,-100,4,2,1,70,0,0
89230,-100,4,2,1,20,0,0
89293,-100,4,2,1,70,0,0
89355,-100,4,2,1,20,0,0
89418,-100,4,2,1,70,0,0
94168,-111.111111111111,4,2,1,80,0,0
94230,-111.111111111111,4,2,1,80,0,0
102168,-111.111111111111,4,2,1,45,0,0
108168,-90.9090909090909,4,2,1,60,0,0
110168,-100,4,2,1,60,0,0
126168,-100,4,2,1,60,0,0
126355,-100,4,2,1,20,0,0
126418,-100,4,2,1,70,0,0
126605,-100,4,2,1,20,0,0
126668,-100,4,2,1,80,0,0
126855,-100,4,2,1,20,0,0
126918,-100,4,2,1,80,0,0
127105,-100,4,2,1,20,0,0
127168,-100,4,2,1,55,0,0
128168,-90.9090909090909,4,2,1,70,0,1
128418,-90.9090909090909,4,2,1,70,0,1
131605,-90.9090909090909,4,2,1,20,0,1
131668,-90.9090909090909,4,2,1,70,0,1
131855,-90.9090909090909,4,2,1,20,0,1
131918,-90.9090909090909,4,2,1,70,0,1
131980,-90.9090909090909,4,2,1,20,0,1
132043,-90.9090909090909,4,2,1,70,0,1
132105,-90.9090909090909,4,2,1,20,0,1
132168,-90.9090909090909,4,2,1,70,0,1
136168,-90.9090909090909,4,2,1,70,0,1
136418,-90.9090909090909,4,2,1,70,0,1
139605,-90.9090909090909,4,2,1,20,0,1
139668,-90.9090909090909,4,2,1,70,0,1
139855,-90.9090909090909,4,2,1,20,0,1
139918,-90.9090909090909,4,2,1,70,0,1
139980,-90.9090909090909,4,2,1,20,0,1
140043,-90.9090909090909,4,2,1,70,0,1
140105,-90.9090909090909,4,2,1,20,0,1
140168,-90.9090909090909,4,2,1,70,0,1
144168,-111.111111111111,4,2,1,40,0,0
155355,-111.111111111111,4,2,1,20,0,0
155418,-111.111111111111,4,2,1,40,0,0
155855,-111.111111111111,4,2,1,20,0,0
155918,-111.111111111111,4,2,1,40,0,0
159918,-111.111111111111,4,2,1,20,0,0
160168,-100,4,2,1,70,0,0
163855,-100,4,2,1,20,0,0
163918,-100,4,2,1,70,0,0
163980,-100,4,2,1,20,0,0
164043,-100,4,2,1,70,0,0
164105,-100,4,2,1,20,0,0
164168,-100,4,2,1,70,0,0
174418,-100,4,2,1,60,0,0
176168,-105.263157894737,4,2,1,60,0,0
183168,-100,4,2,1,60,0,0
184168,-100,4,2,1,50,0,0
190918,-100,4,2,1,50,0,0
191168,-100,4,2,1,35,0,0
191418,-100,4,2,1,20,0,0
191668,-100,4,2,1,20,0,0
192168,-90.9090909090909,4,2,1,70,0,1
192418,-90.9090909090909,4,2,1,70,0,1
194043,-100,4,2,1,70,0,0
194168,-100,4,2,1,20,0,0
195168,-90.9090909090909,4,2,1,80,0,1
195918,-90.9090909090909,4,2,1,35,0,1
196105,-90.9090909090909,4,2,1,20,0,1
196168,-90.9090909090909,4,2,1,80,0,1
196418,-90.9090909090909,4,2,1,80,0,1
200168,-90.9090909090909,4,2,1,80,0,1
200418,-90.9090909090909,4,2,1,80,0,1
203168,-90.9090909090909,4,2,1,90,0,1
203668,-90.9090909090909,4,2,1,70,0,1
203855,-90.9090909090909,4,2,1,20,0,1
203918,-90.9090909090909,4,2,1,70,0,1
203980,-90.9090909090909,4,2,1,20,0,1
204043,-90.9090909090909,4,2,1,70,0,1
204105,-90.9090909090909,4,2,1,20,0,1
204168,-90.9090909090909,4,2,1,70,0,1
204418,-90.9090909090909,4,2,1,70,0,1
208168,-111.111111111111,4,2,1,50,0,0
208355,-111.111111111111,4,2,1,20,0,0
208418,-111.111111111111,4,2,1,50,0,0
208855,-111.111111111111,4,2,1,20,0,0
208918,-111.111111111111,4,2,1,50,0,0
209355,-111.111111111111,4,2,1,20,0,0
209418,-111.111111111111,4,2,1,50,0,0
209855,-111.111111111111,4,2,1,20,0,0
209918,-111.111111111111,4,2,1,50,0,0
211168,-100,4,2,1,50,0,0
211230,-100,4,2,1,20,0,0
211293,-100,4,2,1,50,0,0
211480,-100,4,2,1,20,0,0
211543,-100,4,2,1,50,0,0
211668,-100,4,2,1,50,0,0
211730,-100,4,2,1,20,0,0
211793,-100,4,2,1,50,0,0
211918,-100,4,2,1,35,0,0
212168,-100,4,2,1,70,0,0
212355,-100,4,2,1,20,0,0
212418,-100,4,2,1,70,0,0
223230,-100,4,2,1,20,0,0
223293,-100,4,2,1,70,0,0
223355,-100,4,2,1,20,0,0
223418,-100,4,2,1,70,0,0
225230,-100,4,2,1,20,0,0
225293,-100,4,2,1,70,0,0
225355,-100,4,2,1,20,0,0
225418,-100,4,2,1,70,0,0
228168,-100,4,2,1,50,0,0
228355,-100,4,2,1,15,0,0
228418,-100,4,2,1,50,0,0
228855,-100,4,2,1,15,0,0
228918,-100,4,2,1,50,0,0
229355,-100,4,2,1,15,0,0
229418,-100,4,2,1,50,0,0
229855,-100,4,2,1,15,0,0
229918,-100,4,2,1,50,0,0
230355,-100,4,2,1,15,0,0
230418,-100,4,2,1,50,0,0
230855,-100,4,2,1,15,0,0
230918,-100,4,2,1,50,0,0
231355,-100,4,2,1,15,0,0
231418,-100,4,2,1,50,0,0
231855,-100,4,2,1,15,0,0
231918,-100,4,2,1,50,0,0
232355,-100,4,2,1,15,0,0
232418,-100,4,2,1,50,0,0
232855,-100,4,2,1,15,0,0
232918,-100,4,2,1,50,0,0
233355,-100,4,2,1,15,0,0
233418,-100,4,2,1,50,0,0
234168,-100,4,2,1,40,0,0
234355,-100,4,2,1,10,0,0
234418,-100,4,2,1,40,0,0
234855,-100,4,2,1,10,0,0
234918,-100,4,2,1,40,0,0
236043,-100,4,2,1,20,0,0

[Colours]
Combo1 : 248,211,171
Combo2 : 171,252,203
Combo3 : 175,221,254
Combo4 : 249,254,186
Combo5 : 240,80,80

[HitObjects]
239,94,2168,6,0,P|119:53|210:208,1,432,4|4,0:0|0:0,0:0:0:0:
225,219,3418,1,4,0:0:0:0:
245,227,3668,1,4,0:0:0:0:
265,233,3918,1,4,1:0:0:0:
285,316,4168,6,0,P|234:338|166:309,1,108,4|8,1:2|0:0,0:0:0:0:
104,293,4668,2,0,P|155:315|223:286,1,108,0|8,1:0|0:0,0:0:0:0:
245,227,5168,2,0,P|267:176|238:108,1,108,0|8,1:0|0:0,0:0:0:0:
222,46,5668,2,0,P|244:97|215:165,1,108,0|8,1:0|0:0,0:0:0:0:
156,189,6168,6,0,L|162:260,2,54,0|0|8,1:0|0:0|0:0,0:0:0:0:
165,103,6668,2,0,L|53:112,1,108,4|8,1:2|0:0,0:0:0:0:
27,192,7168,2,0,P|11:243|28:300,2,108,0|8|0,1:0|0:0|1:0,0:0:0:0:
144,322,8168,6,0,L|264:302,1,108,4|8,1:2|0:0,0:0:0:0:
336,307,8668,2,0,L|229:289,1,108,0|8,1:0|0:0,0:0:0:0:
182,216,9168,2,0,L|200:109,1,108,0|8,1:0|0:0,0:0:0:0:
198,22,9669,2,0,L|216:128,1,108,0|8,1:0|0:0,0:0:0:0:
284,180,10168,6,0,P|352:194|402:171,1,108,0|8,1:0|0:0,0:0:0:0:
418,101,10668,1,0,1:0:0:0:
471,168,10918,1,8,0:0:0:0:
439,248,11168,5,4,1:3:0:0:
422,261,11418,1,4,1:3:0:0:
419,347,11668,1,4,1:3:0:0:
246,336,12168,6,0,P|189:321|132:337,1,108,4|8,1:2|0:0,0:0:0:0:
64,293,12668,1,0,1:0:0:0:
97,213,12918,2,0,P|108:185|106:158,1,54,8|0,0:0|0:0,0:0:0:0:
98,119,13168,2,0,P|155:134|212:118,1,108,0|8,1:0|0:0,0:0:0:0:
265,181,13668,1,0,1:0:0:0:
240,263,13918,1,8,0:0:0:0:
316,304,14168,6,0,L|448:275,1,108,0|8,1:0|0:0,0:0:0:0:
507,277,14668,2,0,L|402:251,1,108,0|8,1:0|0:0,0:0:0:0:
377,168,15168,1,0,1:0:0:0:
277,26,15668,1,0,1:0:0:0:
209,80,15918,2,0,P|216:110|212:141,1,54,8|8,0:0|0:0,0:0:0:0:
197,172,16168,6,0,P|252:167|302:186,1,108,4|8,1:2|0:0,0:0:0:0:
352,254,16668,1,0,1:0:0:0:
305,322,16918,2,0,P|274:323|243:332,1,54,8|0,0:0|0:0,0:0:0:0:
225,363,17168,2,0,P|169:374|102:353,1,108,0|8,1:0|0:0,0:0:0:0:
84,283,17668,1,0,1:0:0:0:
128,209,17918,1,8,0:0:0:0:
208,178,18168,6,0,P|201:121|169:84,1,108,0|8,1:0|0:0,0:0:0:0:
98,34,18668,2,0,P|145:66|162:111,1,108,0|8,1:0|0:0,0:0:0:0:
75,114,19168,1,0,1:0:0:0:
224,27,19668,1,0,1:0:0:0:
306,51,19918,2,0,P|349:53|376:42,1,54,8|8,0:0|0:0,0:0:0:0:
398,33,20168,6,0,P|386:81|397:148,1,108,4|8,1:2|0:0,0:0:0:0:
459,194,20668,1,0,1:0:0:0:
411,266,20918,2,0,P|409:295|412:322,1,54,8|0,0:0|0:0,0:0:0:0:
433,357,21168,2,0,P|385:369|318:358,1,108,0|8,1:0|0:0,0:0:0:0:
279,289,21668,1,0,1:0:0:0:
200,324,21918,1,8,0:0:0:0:
135,266,22168,6,0,L|122:147,1,108,0|8,1:0|0:0,0:0:0:0:
108,73,22668,2,0,L|95:192,1,108,0|8,1:0|0:0,0:0:0:0:
47,251,23168,1,0,1:0:0:0:
200,324,23668,1,0,1:0:0:0:
279,289,23918,2,0,P|320:278|354:287,1,54,8|8,0:0|0:0,0:0:0:0:
370,296,24168,6,0,P|357:241|374:185,1,108,4|8,1:2|0:0,0:0:0:0:
447,153,24668,1,0,1:0:0:0:
464,68,24918,2,0,P|456:39|442:11,1,54,8|0,0:0|0:0,0:0:0:0:
403,6,25168,2,0,P|348:-7|292:10,2,108,0|8|0,1:0|0:0|1:0,0:0:0:0:
380,89,25918,1,8,0:0:0:0:
300,122,26168,6,0,P|231:129|185:112,1,108,0|8,1:0|0:0,0:0:0:0:
110,136,26668,2,0,P|179:143|225:126,1,108,0|8,1:0|0:0,0:0:0:0:
251,52,27168,1,0,1:0:0:0:
229,48,27418,1,8,0:0:0:0:
143,57,27668,1,0,1:0:0:0:
121,52,27918,1,8,0:0:0:0:
38,27,28168,6,0,P|92:89|5:187,1,216,4|0,1:2|1:0,0:0:0:0:
56,267,28918,1,10,0:0:0:0:
140,282,29168,2,0,L|255:268,2,108,0|10|0,1:0|0:0|1:0,0:0:0:0:
85,349,29918,1,10,0:0:0:0:
170,363,30168,1,0,1:0:0:0:
410,265,30918,5,10,0:0:0:0:
411,180,31168,2,0,P|437:126|424:70,1,108,0|10,1:0|0:0,0:0:0:0:
364,24,31668,2,0,P|304:28|262:67,1,108,0|10,1:0|0:0,0:0:0:0:
314,131,32168,5,0,1:0:0:0:
227,133,32418,2,0,L|117:166,1,108,10|0,0:0|1:0,0:0:0:0:
86,241,32918,1,10,0:0:0:0:
39,313,33168,2,0,P|102:294|153:317,1,108,0|10,1:0|0:0,0:0:0:0:
210,357,33668,2,0,P|273:376|324:353,1,108,0|10,1:0|0:0,0:0:0:0:
373,301,34168,6,0,L|482:311,2,108,0|10|0,1:0|0:0|1:0,0:0:0:0:
299,255,34918,1,10,0:0:0:0:
376,216,35168,1,0,1:0:0:0:
314,54,35668,2,0,L|309:173,1,108,0|8,1:0|0:0,0:0:0:0:
376,216,36168,5,4,1:2:0:0:
299,255,36418,2,0,P|240:265|179:246,1,108,8|2,0:0|1:2,0:0:0:0:
129,312,36918,1,8,0:0:0:0:
26,172,37418,6,0,P|85:162|146:181,1,108,8|2,0:0|1:2,0:0:0:0:
196,115,37918,1,8,0:0:0:0:
280,265,38418,6,0,P|221:275|160:256,1,108,8|2,0:0|1:2,0:0:0:0:
110,322,38918,1,8,0:0:0:0:
40,163,39418,6,0,P|99:153|160:172,1,108,8|2,0:0|1:2,0:0:0:0:
210,106,39918,1,8,0:0:0:0:
271,167,40168,2,0,P|323:155|376:165,1,108,2|8,1:2|0:0,0:0:0:0:
238,270,40918,5,8,0:0:0:0:
170,323,41168,2,0,P|261:352|320:245,1,216,2|2,1:2|1:2,0:0:0:0:
279,190,41918,1,8,0:0:0:0:
198,159,42168,6,0,P|130:169|80:151,1,108,2|8,1:2|0:0,0:0:0:0:
64,76,42668,2,0,P|116:64|168:76,1,108,2|8,1:2|0:0,0:0:0:0:
253,93,43168,1,2,1:2:0:0:
395,190,43668,6,0,P|411:236|372:297,1,108,0|2,1:0|0:0,0:0:0:0:
316,337,44168,2,0,P|376:335|425:366,2,108,4|2|0,1:2|0:0|0:0,0:0:0:0:
239,376,44918,1,10,0:0:0:0:
243,289,45168,2,0,L|270:183,1,108,0|0,1:0|0:0,0:0:0:0:
332,125,45668,1,2,0:0:0:0:
332,125,45918,1,0,1:0:0:0:
332,125,46168,6,0,P|379:154|444:152,2,108,0|2|2,1:0|0:0|0:0,0:0:0:0:
256,82,46918,1,10,0:0:0:0:
183,128,47168,2,0,P|136:157|71:155,1,108,0|8,1:0|0:0,0:0:0:0:
56,76,47668,2,0,L|53:2,2,54,0|0|8,0:0|1:0|0:0,0:0:0:0:
0,142,48168,5,0,1:0:0:0:
39,310,48668,2,0,P|100:321|149:297,1,108,2|10,0:0|0:0,0:0:0:0:
209,250,49168,1,0,1:0:0:0:
209,250,49418,1,2,1:2:0:0:
260,319,49668,1,10,0:0:0:0:
260,319,49918,1,2,0:0:0:0:
318,255,50168,6,0,P|368:236|419:248,1,108,0|10,1:0|0:0,0:0:0:0:
452,328,50668,2,0,L|458:212,1,108,2|10,1:2|0:0,0:0:0:0:
407,149,51168,1,2,1:2:0:0:
509,10,51668,2,0,P|453:25|391:1,1,108,0|8,1:0|0:0,0:0:0:0:
360,85,52168,6,0,P|362:145|331:194,2,108,4|10|0,1:2|0:0|1:0,0:0:0:0:
319,8,52918,1,10,0:0:0:0:
274,82,53168,2,0,P|218:67|156:91,1,108,2|8,1:2|0:0,0:0:0:0:
106,137,53668,1,2,1:2:0:0:
106,137,53918,1,8,0:0:0:0:
106,137,54168,6,0,P|85:90|101:30,2,108,2|8|2,1:2|0:0|1:2,0:0:0:0:
179,181,54918,1,10,0:0:0:0:
105,223,55168,2,0,P|85:270|100:326,1,108,0|8,1:0|0:0,0:0:0:0:
180,296,55668,2,0,L|236:262,2,54,0|2|8,1:0|0:0|0:0,0:0:0:0:
163,381,56168,1,2,1:2:0:0:
304,281,56668,6,0,P|290:225|248:193,1,108,2|10,1:2|0:0,0:0:0:0:
195,129,57168,2,0,P|209:73|251:41,1,108,2|10,1:2|0:0,0:0:0:0:
333,42,57668,2,0,P|373:76|384:128,1,108,2|10,1:2|0:0,0:0:0:0:
339,202,58168,1,2,1:2:0:0:
80,197,58918,5,10,0:0:0:0:
143,255,59168,1,0,1:0:0:0:
217,211,59418,1,10,0:0:0:0:
280,269,59668,2,0,P|333:260|389:289,1,108,0|0,1:0|0:0,0:0:0:0:
450,229,60168,6,0,P|475:193|484:118,1,108,4|0,1:2|1:0,0:0:0:0:
471,46,60668,1,0,1:0:0:0:
389,21,60918,1,0,1:0:0:0:
404,104,61168,1,0,1:0:0:0:
255,191,61668,1,0,1:0:0:0:
255,191,62168,6,0,P|222:181|176:195,1,59.4000018127442,4|0,1:2|0:0,0:0:0:0:
159,214,62418,2,0,P|128:216|101:207,1,59.4000018127442,8|0,0:0|0:0,0:0:0:0:
80,165,62668,2,0,P|75:102|100:45,1,118.800003625488,0|8,1:0|0:0,0:0:0:0:
187,76,63168,2,0,P|220:85|266:71,1,59.4000018127442,0|0,1:0|0:0,0:0:0:0:
283,53,63418,2,0,P|313:50|340:59,1,59.4000018127442,8|0,0:0|0:0,0:0:0:0:
362,102,63668,2,0,P|367:165|342:222,1,118.800003625488,0|8,1:0|0:0,0:0:0:0:
265,265,64168,5,0,1:0:0:0:
265,265,64293,1,0,0:0:0:0:
265,265,64418,2,0,P|231:275|205:301,1,59.4000018127442,8|8,0:0|0:0,0:0:0:0:
197,335,64668,2,0,P|144:316|75:342,1,118.800003625488,0|8,1:0|0:0,0:0:0:0:
16,266,65168,1,0,1:0:0:0:
58,180,65418,1,8,0:0:0:0:
152,194,65668,1,0,1:0:0:0:
281,333,66168,6,0,P|297:305|298:271,1,59.4000018127442,4|0,1:2|0:0,0:0:0:0:
276,236,66418,2,0,P|279:206|294:181,1,59.4000018127442,8|0,0:0|0:0,0:0:0:0:
341,185,66668,2,0,P|400:203|463:183,1,118.800003625488,0|8,1:0|0:0,0:0:0:0:
458,93,67168,2,0,P|430:77|396:76,1,59.4000018127442,0|0,1:0|0:0,0:0:0:0:
361,98,67418,2,0,P|331:94|306:79,1,59.4000018127442,8|0,0:0|0:0,0:0:0:0:
275,43,67668,2,0,P|219:27|153:46,1,118.800003625488,0|8,1:0|0:0,0:0:0:0:
98,112,68168,6,0,P|72:168|92:234,1,118.800003625488,0|8,1:0|0:0,0:0:0:0:
177,239,68668,2,0,P|203:183|183:117,1,118.800003625488,0|8,1:0|0:0,0:0:0:0:
161,41,69168,1,0,1:0:0:0:
443,5,69918,2,0,P|446:41|462:86,1,59.4000018127442,8|8,0:0|0:0,0:0:0:0:
477,105,70168,6,0,P|435:109|405:126,1,59.4000018127442,4|0,1:2|0:0,0:0:0:0:
380,143,70418,2,0,P|352:153|322:153,1,59.4000018127442,8|0,0:0|0:0,0:0:0:0:
278,134,70668,2,0,P|248:203|253:253,1,118.800003625488,0|8,1:0|0:0,0:0:0:0:
263,339,71168,2,0,P|305:335|335:318,1,59.4000018127442,0|0,1:0|0:0,0:0:0:0:
360,301,71418,2,0,P|387:290|417:290,1,59.4000018127442,8|0,0:0|0:0,0:0:0:0:
462,310,71668,2,0,P|492:241|487:191,1,118.800003625488,0|8,1:0|0:0,0:0:0:0:
418,135,72168,6,0,L|337:153,2,59.4000018127442,0|0|8,1:0|0:0|0:0,0:0:0:0:
433,89,72543,2,0,L|514:107,2,59.4000018127442,0|0|0,0:0|1:0|0:0,0:0:0:0:
420,42,72918,2,0,L|339:60,1,59.4000018127442,8|0,0:0|0:0,0:0:0:0:
314,46,73168,1,0,1:0:0:0:
238,103,73418,1,8,0:0:0:0:
159,49,73668,1,0,1:0:0:0:
63,213,74168,6,0,L|143:230,1,59.4000018127442,4|0,1:2|0:0,0:0:0:0:
166,209,74418,2,0,L|224:196,1,59.4000018127442,8|0,0:0|0:0,0:0:0:0:
260,226,74668,2,0,P|329:244|388:216,1,118.800003625488,0|8,1:0|0:0,0:0:0:0:
360,134,75168,1,0,1:0:0:0:
281,80,75418,1,8,0:0:0:0:
186,84,75668,2,0,P|186:141|144:204,1,118.800003625488,0|8,1:0|0:0,0:0:0:0:
113,278,76168,5,0,1:0:0:0:
60,198,76418,2,0,P|22:192|-19:205,2,59.4000018127442,8|8|0,0:0|0:0|1:0,0:0:0:0:
156,193,76918,1,8,0:0:0:0:
209,271,77168,2,0,B|248:280|288:269|288:269|323:229|386:220|435:258,1,237.600007250977,0|0,1:0|1:0,0:0:0:0:
476,181,77918,2,0,P|480:152|467:119,1,54,0|0,0:0|0:0,0:0:0:0:
441,98,78168,6,0,P|384:83|327:99,1,108,4|8,1:2|0:0,0:0:0:0:
252,112,78668,1,0,1:0:0:0:
207,186,78918,2,0,P|191:214|165:232,1,54,8|0,0:0|0:0,0:0:0:0:
148,263,79168,2,0,P|205:248|262:264,1,108,0|8,1:0|0:0,0:0:0:0:
333,287,79668,1,0,1:0:0:0:
416,265,79918,1,8,0:0:0:0:
461,191,80168,6,0,P|470:132|442:69,1,108,0|8,1:0|0:0,0:0:0:0:
437,2,80668,2,0,P|446:61|418:124,1,108,0|8,1:0|0:0,0:0:0:0:
359,154,81168,1,0,1:0:0:0:
226,42,81668,1,0,1:0:0:0:
164,102,81918,2,0,P|171:132|167:163,1,54,8|8,0:0|0:0,0:0:0:0:
157,196,82168,6,0,P|215:193|282:219,1,108,4|8,1:2|0:0,0:0:0:0:
329,262,82668,1,0,1:0:0:0:
313,347,82918,2,0,P|284:347|257:353,1,54,8|0,0:0|0:0,0:0:0:0:
223,376,83168,2,0,P|165:379|98:353,1,108,0|8,1:0|0:0,0:0:0:0:
54,305,83668,1,0,1:0:0:0:
54,218,83918,1,8,0:0:0:0:
121,164,84168,6,0,L|251:130,1,108,0|8,1:0|0:0,0:0:0:0:
311,143,84668,2,0,L|181:109,1,108,0|8,1:0|0:0,0:0:0:0:
137,63,85168,1,0,1:0:0:0:
301,13,85668,1,0,1:0:0:0:
383,38,85918,2,0,P|426:40|453:29,1,54,8|8,0:0|0:0,0:0:0:0:
477,23,86168,6,0,P|465:71|476:138,1,108,4|8,1:2|0:0,0:0:0:0:
512,205,86668,1,0,1:0:0:0:
475,283,86918,2,0,P|457:311|427:325,1,54,8|0,0:0|0:0,0:0:0:0:
398,335,87168,2,0,P|410:287|399:220,1,108,0|8,1:0|0:0,0:0:0:0:
358,155,87668,1,0,1:0:0:0:
404,81,87918,1,8,0:0:0:0:
346,16,88168,6,0,P|279:16|222:43,1,108,0|8,1:0|0:0,0:0:0:0:
155,34,88668,2,0,P|222:34|279:61,1,108,0|8,1:0|0:0,0:0:0:0:
268,134,89168,1,0,1:0:0:0:
255,306,89668,1,0,1:0:0:0:
339,286,89918,2,0,P|381:291|408:313,1,54,8|8,0:0|0:0,0:0:0:0:
424,325,90168,6,0,P|457:279|463:221,1,108,4|8,1:2|0:0,0:0:0:0:
451,144,90668,1,0,1:0:0:0:
370,113,90918,2,0,P|339:107|303:107,1,54,8|0,0:0|0:0,0:0:0:0:
276,121,91168,2,0,P|228:144|166:142,2,108,0|8|0,1:0|0:0|1:0,0:0:0:0:
288,35,91918,1,8,0:0:0:0:
202,22,92168,6,0,L|91:38,1,108,0|8,1:0|0:0,0:0:0:0:
14,68,92668,2,0,L|125:84,1,108,0|8,1:0|0:0,0:0:0:0:
204,106,93168,1,0,1:0:0:0:
213,127,93418,1,8,0:0:0:0:
173,203,93668,1,0,1:0:0:0:
183,223,93918,1,8,0:0:0:0:
188,305,94168,5,4,1:2:0:0:
188,305,94418,2,0,B|251:320|288:278|288:278|317:304|317:304|385:309,1,194.399994067383,2|8,0:0|0:0,0:0:0:0:
440,297,95168,2,0,P|465:254|461:195,1,97.1999970336915,0|2,1:0|0:0,0:0:0:0:
409,153,95668,2,0,P|366:178|307:174,1,97.1999970336915,2|2,0:0|0:0,0:0:0:0:
246,151,96168,1,0,1:0:0:0:
246,151,96918,5,8,0:0:0:0:
183,104,97168,2,0,P|140:79|81:83,2,97.1999970336915,0|2|0,1:0|0:0|0:0,0:0:0:0:
175,181,97918,1,2,0:0:0:0:
236,228,98168,5,0,1:0:0:0:
240,305,98418,2,0,B|253:344|279:357|279:357|348:334|353:383|418:359,1,194.399994067383,2|8,0:0|0:0,0:0:0:0:
480,373,99168,2,0,L|491:263,1,97.1999970336915,0|2,1:0|0:0,0:0:0:0:
434,221,99668,2,0,L|423:111,1,97.1999970336915,2|2,0:0|0:0,0:0:0:0:
410,47,100168,5,0,1:0:0:0:
336,22,100418,2,0,P|299:35|263:94,2,97.1999970336915,2|0|2,0:0|0:0|0:0,0:0:0:0:
342,102,101168,1,8,0:0:0:0:
221,200,101668,2,0,P|273:211|327:196,1,97.1999970336915,2|8,0:0|0:0,0:0:0:0:
386,170,102168,5,4,1:2:0:0:
462,185,102418,2,0,B|446:242|456:298|456:298|406:289|368:307,1,194.399994067383,2|2,0:0|0:0,0:0:0:0:
318,355,103168,1,0,1:0:0:0:
262,301,103418,2,0,B|213:287|169:326|169:326|137:288|79:301,1,194.399994067383,2|2,0:0|0:0,0:0:0:0:
8,318,104168,5,0,1:0:0:0:
2,240,104418,2,0,B|34:192|30:109|30:109|56:129|69:175,1,194.399994067383,2|2,0:0|0:0,0:0:0:0:
114,214,105168,1,0,1:0:0:0:
186,241,105418,2,0,P|243:229|280:195,2,97.1999970336915,2|0|2,0:0|1:0|0:0,0:0:0:0:
174,163,106168,1,0,1:0:0:0:
174,163,106918,5,2,0:0:0:0:
235,115,107168,2,0,P|290:109|343:140,1,97.1999970336915,0|2,1:0|0:0,0:0:0:0:
246,258,107918,5,2,0:0:0:0:
326,206,108168,2,0,P|381:190|452:221,1,118.800003625488,4|0,1:2|0:0,0:0:0:0:
467,299,108668,1,2,1:2:0:0:
395,361,108918,1,8,0:0:0:0:
304,330,109168,2,0,P|252:344|187:330,1,118.800003625488,8|0,0:0|1:0,0:0:0:0:
105,375,109668,1,0,1:0:0:0:
33,313,109918,1,0,0:0:0:0:
92,250,110168,6,0,P|39:231|2:188,2,108,6|8|2,1:2|0:0|1:2,0:0:0:0:
175,225,110918,1,8,0:0:0:0:
257,249,111168,2,0,P|310:230|347:187,1,108,2|8,1:2|0:0,0:0:0:0:
365,108,111668,1,2,1:2:0:0:
365,108,111918,1,8,0:0:0:0:
365,108,112168,6,0,P|412:137|477:135,2,108,2|8|2,0:0|0:0|0:0,0:0:0:0:
289,65,112918,1,10,0:0:0:0:
216,111,113168,2,0,P|169:140|104:138,1,108,0|10,1:0|0:0,0:0:0:0:
54,82,113668,2,0,L|51:8,2,54,0|8|10,1:0|0:0|0:0,0:0:0:0:
1,150,114168,5,4,1:2:0:0:
166,199,114668,2,0,P|218:213|274:197,1,108,2|10,1:2|0:0,0:0:0:0:
326,264,115168,1,0,1:0:0:0:
326,264,115418,1,10,0:0:0:0:
285,340,115668,1,0,1:0:0:0:
285,340,115918,1,10,0:0:0:0:
206,303,116168,6,0,P|154:289|102:303,1,108,0|10,1:0|0:0,0:0:0:0:
32,353,116668,2,0,L|15:236,1,108,0|10,1:0|0:0,0:0:0:0:
90,200,117168,1,0,1:0:0:0:
82,27,117668,2,0,P|138:42|200:18,1,108,10|10,0:0|0:0,0:0:0:0:
231,102,118168,6,0,P|229:162|260:211,2,108,4|10|0,1:2|0:0|1:0,0:0:0:0:
272,25,118918,1,10,0:0:0:0:
317,99,119168,2,0,P|373:84|435:108,1,108,0|10,1:0|0:0,0:0:0:0:
474,178,119668,1,2,1:2:0:0:
474,178,119918,1,10,0:0:0:0:
474,178,120168,6,0,P|418:193|356:169,2,108,0|10|2,1:0|0:0|1:2,0:0:0:0:
509,257,120918,1,8,0:0:0:0:
474,336,121168,2,0,P|418:321|356:345,1,108,2|8,1:2|0:0,0:0:0:0:
284,330,121668,2,0,L|218:360,2,54,0|8|10,1:0|0:0|0:0,0:0:0:0:
331,257,122168,1,4,1:2:0:0:
244,107,122668,6,0,P|187:92|136:109,1,108,0|10,1:0|0:0,0:0:0:0:
88,174,123168,2,0,P|145:189|196:172,1,108,0|10,1:0|0:0,0:0:0:0:
244,107,123668,2,0,P|295:93|346:108,1,108,0|10,1:0|0:0,0:0:0:0:
402,174,124168,1,0,1:0:0:0:
402,174,124918,5,10,0:0:0:0:
357,247,125168,1,0,1:0:0:0:
283,200,125418,1,8,0:0:0:0:
329,127,125668,2,0,P|279:114|219:140,1,108,2|0,1:2|0:0,0:0:0:0:
166,194,126168,6,0,L|190:84,1,108,4|8,1:2|0:0,0:0:0:0:
110,51,126668,1,8,0:0:0:0:
180,1,126918,1,8,0:0:0:0:
258,37,127168,1,8,0:0:0:0:
457,51,128168,6,0,P|424:41|378:55,1,59.4000018127442,4|0,1:2|0:0,0:0:0:0:
358,67,128418,2,0,P|327:69|300:60,1,59.4000018127442,8|0,0:0|0:0,0:0:0:0:
258,37,128668,2,0,P|222:78|215:163,1,118.800003625488,0|8,1:0|0:0,0:0:0:0:
228,233,129168,2,0,P|261:243|307:229,1,59.4000018127442,0|0,1:0|0:0,0:0:0:0:
327,217,129418,2,0,P|358:215|385:224,1,59.4000018127442,8|0,0:0|0:0,0:0:0:0:
427,247,129668,2,0,P|463:206|470:121,1,118.800003625488,0|8,1:0|0:0,0:0:0:0:
457,51,130168,6,0,P|420:45|377:57,1,59.4000018127442,0|0,1:0|0:0,0:0:0:0:
357,73,130418,2,0,P|320:67|277:79,1,59.4000018127442,8|8,0:0|0:0,0:0:0:0:
263,102,130668,2,0,P|193:88|125:114,1,118.800003625488,0|8,1:0|0:0,0:0:0:0:
89,174,131168,1,0,1:0:0:0:
108,267,131418,1,8,0:0:0:0:
194,305,131668,1,0,0:0:0:0:
382,203,132168,6,0,P|389:171|379:139,1,59.4000018127442,4|0,1:2|0:0,0:0:0:0:
346,114,132418,2,0,P|339:82|348:49,1,59.4000018127442,8|0,0:0|0:0,0:0:0:0:
372,16,132668,2,0,P|298:-1|240:20,1,118.800003625488,0|8,1:0|0:0,0:0:0:0:
218,96,133168,2,0,P|224:127|215:160,1,59.4000018127442,0|0,1:0|0:0,0:0:0:0:
182,186,133418,2,0,P|175:217|184:250,1,59.4000018127442,8|0,0:0|0:0,0:0:0:0:
208,284,133668,2,0,P|134:301|76:280,1,118.800003625488,0|8,1:0|0:0,0:0:0:0:
66,199,134168,6,0,P|75:136|131:87,1,118.800003625488,0|8,1:0|0:0,0:0:0:0:
166,18,134668,2,0,P|227:1|297:33,1,118.800003625488,0|8,1:0|2:0,0:0:0:0:
222,95,135168,1,0,1:0:0:0:
496,171,135918,2,0,P|488:142|486:112,1,59.4000018127442,8|8,0:0|0:0,0:0:0:0:
488,65,136168,6,0,P|451:73|413:59,1,59.4000018127442,4|0,1:2|0:0,0:0:0:0:
384,56,136418,2,0,P|354:51|326:59,1,59.4000018127442,8|0,0:0|0:0,0:0:0:0:
287,87,136668,2,0,P|215:100|155:86,1,118.800003625488,0|8,1:0|0:0,0:0:0:0:
82,56,137168,2,0,P|74:93|88:131,1,59.4000018127442,0|0,1:0|0:0,0:0:0:0:
91,160,137418,2,0,P|95:189|87:217,1,59.4000018127442,8|0,0:0|0:0,0:0:0:0:
60,257,137668,2,0,P|47:329|61:388,1,118.800003625488,0|8,1:0|0:0,0:0:0:0:
149,370,138168,6,0,L|230:388,2,59.4000018127442,0|0|8,1:0|0:0|0:0,0:0:0:0:
146,322,138543,2,0,L|88:309,2,59.4000018127442,0|0|0,0:0|1:0|0:0,0:0:0:0:
149,274,138918,2,0,L|230:292,1,59.4000018127442,8|0,0:0|0:0,0:0:0:0:
253,273,139168,1,0,1:0:0:0:
312,199,139418,1,8,0:0:0:0:
312,103,139668,1,0,1:0:0:0:
483,184,140168,6,0,P|472:219|473:249,1,59.4000018127442,4|0,1:2|0:0,0:0:0:0:
499,280,140418,2,0,P|510:315|509:345,1,59.4000018127442,8|0,0:0|0:0,0:0:0:0:
465,354,140668,2,0,P|403:343|336:360,1,118.800003625488,0|8,1:0|0:0,0:0:0:0:
257,328,141168,1,0,1:0:0:0:
232,236,141418,1,8,0:0:0:0:
264,146,141668,2,0,P|332:144|377:117,1,118.800003625488,0|8,1:0|0:0,0:0:0:0:
401,27,142168,5,0,1:0:0:0:
465,97,142418,2,0,P|508:107|536:128,2,59.4000018127442,8|8|0,0:0|0:0|1:0,0:0:0:0:
439,189,142918,1,8,0:0:0:0:
346,211,143168,2,0,B|305:261|344:320|344:320|305:261|240:276,1,237.600007250977,0|0,1:0|1:0,0:0:0:0:
153,310,143918,2,0,P|162:271|158:240,1,59.4000018127442,0|0,0:0|0:0,0:0:0:0:
157,213,144168,5,4,1:2:0:0:
243,135,144543,1,0,0:0:0:0:
278,120,144668,2,0,P|277:90|283:63,2,48.5999985168458,8|0|2,0:0|0:0|1:2,0:0:0:0:
302,195,145168,2,0,P|298:253|323:299,1,97.1999970336915,0|10,1:0|0:0,0:0:0:0:
460,198,145918,2,0,P|435:199|413:208,1,48.5999985168458,10|0,0:0|0:0,0:0:0:0:
383,232,146168,6,0,P|387:174|362:128,1,97.1999970336915,0|2,1:0|0:0,0:0:0:0:
303,101,146668,1,8,0:0:0:0:
225,100,146918,1,2,1:2:0:0:
160,143,147168,2,0,P|142:187|148:235,1,97.1999970336915,2|10,1:2|0:0,0:0:0:0:
214,376,147918,2,0,P|243:363|277:367,1,48.5999985168458,10|8,0:0|0:0,0:0:0:0:
297,370,148168,6,0,P|353:358|390:322,1,97.1999970336915,4|2,1:2|0:2,0:0:0:0:
400,299,148543,1,0,0:0:0:0:
435,286,148668,2,0,P|455:301|489:311,2,48.5999985168458,8|0|2,0:0|0:0|1:2,0:0:0:0:
475,219,149168,2,0,P|486:170|467:119,1,97.1999970336915,0|10,1:0|0:0,0:0:0:0:
362,15,149918,2,0,P|336:27|300:30,1,48.5999985168458,2|0,0:0|0:0,0:0:0:0:
277,30,150168,6,0,P|271:85|242:125,1,97.1999970336915,0|8,1:0|0:0,0:0:0:0:
249,119,150543,1,8,0:0:0:0:
249,119,150668,1,2,1:2:0:0:
218,193,150918,1,10,0:0:0:0:
286,230,151168,2,0,P|310:271|313:319,1,97.1999970336915,10|0,0:0|1:0,0:0:0:0:
158,307,151918,2,0,P|133:303|105:309,1,48.5999985168458,2|8,1:2|0:0,0:0:0:0:
74,321,152168,6,0,P|55:269|63:212,1,97.1999970336915,4|2,1:2|0:0,0:0:0:0:
80,196,152543,1,0,0:0:0:0:
106,167,152668,2,0,P|127:176|156:183,2,48.5999985168458,8|0|2,0:0|0:0|1:2,0:0:0:0:
94,89,153168,2,0,P|117:44|155:14,1,97.1999970336915,2|10,1:2|0:0,0:0:0:0:
308,29,153918,2,0,P|339:40|360:59,1,48.5999985168458,10|0,0:0|0:0,0:0:0:0:
358,88,154168,6,0,P|292:102|259:92,1,97.1999970336915,0|2,1:0|0:0,0:0:0:0:
187,107,154668,1,8,0:0:0:0:
132,162,154918,1,2,1:2:0:0:
106,235,155168,2,0,P|58:230|11:252,2,97.1999970336915,0|10|0,1:0|0:0|1:0,0:0:0:0:
174,292,155918,1,10,0:0:0:0:
174,292,156043,1,8,0:0:0:0:
174,292,156168,6,0,P|222:297|269:275,1,97.1999970336915,4|2,1:2|0:0,0:0:0:0:
291,204,156668,1,10,0:0:0:0:
340,143,156918,1,10,0:0:0:0:
415,122,157168,2,0,P|432:176|430:232,1,97.1999970336915,2|10,0:0|0:0,0:0:0:0:
371,264,157668,2,0,P|354:318|356:374,1,97.1999970336915,2|10,1:2|0:0,0:0:0:0:
427,384,158168,6,0,P|456:313|458:242,1,145.799995550537,2|0,1:2|1:0,0:0:0:0:
432,216,158668,1,10,0:0:0:0:
378,159,158918,1,10,0:0:0:0:
379,81,159168,2,0,P|435:86|472:73,1,97.1999970336915,2|10,1:2|0:0,0:0:0:0:
510,4,159668,2,0,L|499:117,1,97.1999970336915,2|2,1:2|0:0,0:0:0:0:
509,186,160168,5,4,1:2:0:0:
70,352,176168,6,0,P|130:364|184:353,1,102.599997260284,4|0,1:2|0:0,0:0:0:0:
238,311,176668,2,0,P|178:323|124:312,1,102.599997260284,0|0,1:0|0:0,0:0:0:0:
93,247,177168,2,0,L|82:141,1,102.599997260284,0|0,1:0|0:0,0:0:0:0:
63,65,177668,2,0,L|52:167,1,102.599997260284,0|0,1:0|0:0,0:0:0:0:
8,236,178168,1,0,1:0:0:0:
477,280,179918,5,0,0:0:0:0:
439,352,180168,2,0,P|392:370|333:351,1,102.599997260284,4|0,1:2|0:0,0:0:0:0:
340,275,180668,2,0,P|372:283|390:296,1,51.2999986301422,0|0,1:0|0:0,0:0:0:0:
19,19,183168,5,2,1:2:0:0:
43,101,183418,1,2,0:0:0:0:
70,182,183668,1,0,1:0:0:0:
161,328,184168,6,0,P|139:265|153:220,1,108,4|10,1:2|0:0,0:0:0:0:
196,155,184668,2,0,P|174:218|188:263,1,108,0|10,1:0|0:0,0:0:0:0:
262,292,185168,2,0,P|248:317|238:347,2,54,0|0|10,1:0|1:0|0:0,0:0:0:0:
301,310,185543,1,0,0:0:0:0:
344,313,185668,2,0,P|393:281|404:218,1,108,0|10,1:0|0:0,0:0:0:0:
366,158,186168,2,0,B|432:145|432:145|481:167,1,108,0|10,1:0|0:0,0:0:0:0:
213,108,187918,6,0,L|231:47,1,54,10|8,0:0|0:0,0:0:0:0:
246,16,188168,2,0,L|266:134,1,108,4|10,1:2|0:0,0:0:0:0:
496,366,191168,5,0,1:0:0:0:
439,300,191418,1,2,0:0:0:0:
409,381,191668,1,0,0:0:0:0:
475,209,192168,6,0,P|440:202|395:209,1,59.4000018127442,4|0,1:2|0:0,0:0:0:0:
372,222,192418,2,0,P|342:222|313:216,1,59.4000018127442,8|0,0:0|0:0,0:0:0:0:
275,187,192668,2,0,P|299:121|300:66,1,118.800003625488,0|8,1:0|0:0,0:0:0:0:
209,43,193168,2,0,P|174:50|129:43,1,59.4000018127442,0|0,1:0|1:0,0:0:0:0:
106,30,193418,2,0,P|76:29|47:35,1,59.4000018127442,8|0,0:0|0:0,0:0:0:0:
9,65,193668,2,0,P|33:131|34:186,1,118.800003625488,8|8,0:0|0:0,0:0:0:0:
26,221,194043,1,0,1:0:0:0:
26,221,195168,6,0,P|63:225|110:220,1,59.4000018127442,4|0,1:0|0:0,0:0:0:0:
131,213,195418,2,0,P|167:203|203:179,1,59.4000018127442,0|8,1:0|0:0,0:0:0:0:
222,162,195668,1,0,1:0:0:0:
243,351,196168,6,0,P|212:347|172:353,1,59.4000018127442,4|0,1:2|0:0,0:0:0:0:
139,366,196418,2,0,P|109:368|80:364,1,59.4000018127442,8|0,0:0|0:0,0:0:0:0:
33,353,196668,2,0,P|25:290|46:228,1,118.800003625488,0|8,1:0|0:0,0:0:0:0:
113,176,197168,2,0,P|144:172|184:178,1,59.4000018127442,0|0,1:0|0:0,0:0:0:0:
217,191,197418,2,0,P|246:193|275:189,1,59.4000018127442,8|0,0:0|0:0,0:0:0:0:
323,178,197668,2,0,P|331:115|310:53,1,118.800003625488,0|8,1:0|0:0,0:0:0:0:
235,13,198168,6,0,P|175:-2|113:28,1,118.800003625488,0|8,1:0|0:0,0:0:0:0:
133,113,198668,2,0,P|148:172|117:234,1,118.800003625488,0|8,1:0|0:0,0:0:0:0:
52,165,199168,1,0,1:0:0:0:
337,170,199918,2,0,P|378:174|407:164,1,59.4000018127442,8|8,0:0|0:0,0:0:0:0:
439,151,200168,6,0,P|433:183|445:217,1,59.4000018127442,4|0,1:2|0:0,0:0:0:0:
465,248,200418,2,0,P|471:280|459:314,1,59.4000018127442,8|0,0:0|0:0,0:0:0:0:
435,343,200668,2,0,P|374:332|318:344,1,118.800003625488,0|8,1:0|0:0,0:0:0:0:
226,364,201168,2,0,P|220:332|232:298,1,59.4000018127442,0|0,1:0|0:0,0:0:0:0:
252,267,201418,2,0,P|258:235|246:201,1,59.4000018127442,8|0,0:0|0:0,0:0:0:0:
222,172,201668,2,0,P|161:183|105:171,1,118.800003625488,0|8,1:0|0:0,0:0:0:0:
56,90,202168,6,0,P|21:98|-13:90,2,59.4000018127442,0|0|8,1:0|1:0|0:0,0:0:0:0:
95,62,202543,2,0,L|97:-5,2,59.4000018127442,8|0|0,0:0|1:0|0:0,0:0:0:0:
127,97,202918,2,0,P|162:105|196:97,1,59.4000018127442,8|0,0:0|0:0,0:0:0:0:
241,82,203168,1,0,1:0:0:0:
358,100,203418,1,8,0:0:0:0:
403,209,203668,1,0,1:0:0:0:
247,318,204168,6,0,P|209:323|175:317,1,59.4000018127442,4|0,1:2|0:0,0:0:0:0:
145,299,204418,2,0,P|115:296|86:301,1,59.4000018127442,8|0,0:0|0:0,0:0:0:0:
43,322,204668,2,0,P|23:258|41:197,1,118.800003625488,0|8,1:0|0:0,0:0:0:0:
95,135,205168,1,0,1:0:0:0:
188,154,205418,1,8,0:0:0:0:
279,127,205668,2,0,P|299:191|281:252,1,118.800003625488,0|8,1:0|0:0,0:0:0:0:
218,305,206168,5,0,1:0:0:0:
126,278,206418,2,0,P|88:283|58:300,2,59.4000018127442,8|8|0,0:0|0:0|1:0,0:0:0:0:
147,185,206918,2,0,P|185:190|215:207,2,59.4000018127442,8|0|0,0:0|0:0|1:0,0:0:0:0:
52,195,207418,2,0,P|57:157|122:94,1,118.800003625488,8|0,0:0|1:0,0:0:0:0:
200,71,207918,1,8,0:0:0:0:
273,95,208168,6,0,L|378:112,1,97.1999970336915,4|10,1:2|0:0,0:0:0:0:
370,188,208668,2,0,L|265:205,1,97.1999970336915,0|10,1:0|0:0,0:0:0:0:
197,216,209168,2,0,L|92:233,1,97.1999970336915,0|10,1:0|0:0,0:0:0:0:
100,309,209668,2,0,L|205:326,1,97.1999970336915,0|10,1:0|0:0,0:0:0:0:
266,358,210168,6,0,P|297:378|320:383,2,48.5999985168458,0|2|10,1:0|0:0|0:0,0:0:0:0:
260,280,210668,2,0,P|291:260|314:255,2,48.5999985168458,2|0|10,1:2|0:0|0:0,0:0:0:0:
195,324,211168,5,6,1:3:0:0:
152,248,211418,1,6,1:3:0:0:
110,172,211668,1,6,1:3:0:0:
242,61,212168,6,0,P|185:46|128:70,1,108,4|8,0:0|0:0,0:0:0:0:
193,129,212668,1,0,1:0:0:0:
275,153,212918,2,0,P|309:153|339:144,1,54,8|0,0:0|0:0,0:0:0:0:
368,131,213168,2,0,P|425:116|482:140,1,108,0|8,1:0|0:0,0:0:0:0:
449,214,213668,1,0,1:0:0:0:
363,229,213918,1,8,0:0:0:0:
303,291,214168,6,0,P|247:307|191:280,1,108,0|8,1:0|0:0,0:0:0:0:
121,258,214668,2,0,P|177:274|233:247,1,108,0|8,1:0|0:0,0:0:0:0:
249,175,215168,1,0,1:0:0:0:
151,32,215668,1,0,1:0:0:0:
71,65,215918,2,0,P|78:95|74:126,1,54,8|8,0:0|0:0,0:0:0:0:
59,157,216168,6,0,P|115:146|186:155,1,108,4|8,1:2|0:0,0:0:0:0:
249,175,216668,1,0,1:0:0:0:
275,257,216918,2,0,P|280:279|277:316,1,54,8|0,0:0|0:0,0:0:0:0:
274,354,217168,2,0,P|330:365|401:356,1,108,0|8,1:0|0:0,0:0:0:0:
459,326,217668,1,0,1:0:0:0:
499,250,217918,1,8,0:0:0:0:
480,165,218168,6,0,L|358:139,1,108,0|8,1:0|0:0,0:0:0:0:
287,138,218668,2,0,L|409:112,1,108,0|8,1:0|0:0,0:0:0:0:
474,86,219168,1,0,1:0:0:0:
320,6,219668,1,0,1:0:0:0:
299,89,219918,2,0,P|297:132|308:158,1,54,8|8,0:0|0:0,0:0:0:0:
316,182,220168,6,0,P|268:170|201:181,1,108,4|8,1:2|0:0,0:0:0:0:
163,249,220668,1,0,1:0:0:0:
163,335,220918,1,8,0:0:0:0:
242,369,221168,2,0,P|290:381|357:370,1,108,0|8,1:0|0:0,0:0:0:0:
428,344,221668,1,0,1:0:0:0:
414,258,221918,1,8,0:0:0:0:
473,195,222168,6,0,L|460:76,1,108,0|8,1:0|0:0,0:0:0:0:
434,5,222668,2,0,L|421:124,1,108,0|8,1:0|0:0,0:0:0:0:
364,176,223168,1,0,1:0:0:0:
326,344,223668,1,0,1:0:0:0:
243,324,223918,2,0,P|202:313|168:322,1,54,8|8,0:0|0:0,0:0:0:0:
152,332,224168,6,0,P|165:277|148:221,1,108,4|8,1:2|0:0,0:0:0:0:
79,182,224668,1,0,1:0:0:0:
55,99,224918,1,8,0:0:0:0:
76,15,225168,2,0,P|131:2|187:19,1,108,0|8,1:0|0:0,0:0:0:0:
250,111,225668,1,0,1:0:0:0:
365,80,225918,1,8,0:0:0:0:
436,130,226168,6,0,P|447:191|427:249,1,108,0|8,1:0|0:0,0:0:0:0:
392,309,226668,2,0,P|403:248|383:190,1,108,0|8,1:0|0:0,0:0:0:0:
318,160,227168,1,0,1:0:0:0:
296,156,227418,1,8,0:0:0:0:
235,94,227668,1,0,1:0:0:0:
257,89,227918,1,8,0:0:0:0:
318,28,228168,6,0,L|448:51,1,108,4|10,1:2|0:0,0:0:0:0:
435,132,228668,2,0,L|328:150,1,108,2|10,1:2|0:0,0:0:0:0:
245,174,229168,2,0,L|115:197,1,108,2|10,1:2|0:0,0:0:0:0:
128,278,229668,2,0,L|235:296,1,108,2|10,1:2|0:0,0:0:0:0:
306,343,230168,6,0,B|326:295|326:295|326:239,1,108,2|10,1:2|0:0,0:0:0:0:
363,161,230668,2,0,B|411:181|411:181|467:181,1,108,2|10,1:2|0:0,0:0:0:0:
496,99,231168,1,2,1:2:0:0:
452,24,231418,1,10,0:0:0:0:
365,22,231668,2,0,B|309:22|309:22|261:42,1,108,2|10,1:2|0:0,0:0:0:0:
206,109,232168,6,0,L|214:222,1,108,4|10,1:2|0:0,0:0:0:0:
192,300,232668,2,0,L|299:292,1,108,2|10,1:2|0:0,0:0:0:0:
385,301,233168,2,0,L|377:188,1,108,2|10,1:2|0:0,0:0:0:0:
399,110,233668,2,0,L|291:117,1,108,0|8,1:0|0:3,0:0:0:0:
221,168,234168,5,2,1:2:0:0:
163,232,234418,1,2,0:0:0:0:
241,267,234668,1,0,1:0:0:0:
299,203,234918,1,2,0:0:0:0:
291,117,235168,5,2,0:1:0:0:
275,102,235418,1,2,0:1:0:0:
259,86,235668,1,2,0:1:0:0:
