osu file format v14

[General]
AudioFilename: audio.mp3
AudioLeadIn: 0
PreviewTime: -1
Countdown: 0
SampleSet: Soft
StackLeniency: 0.5
Mode: 0
LetterboxInBreaks: 0
WidescreenStoryboard: 1

[Editor]
DistanceSpacing: 1.2
BeatDivisor: 4
GridSize: 4
TimelineZoom: 1.9

[Metadata]
Title:Good Luck Lilac
TitleUnicode:グッドラック ライラック
Artist:GATALIS
ArtistUnicode:GATALIS
Creator:kinematik
Version:Extreme Lilac
Source:Animegataris
Tags:animegataris グッドラック ライラック good luck lilac gatalis
BeatmapID:1963831
BeatmapSetID:940294

[Difficulty]
HPDrainRate:4.8
CircleSize:3.4
OverallDifficulty:6
ApproachRate:9.2
SliderMultiplier:1.5
SliderTickRate:1

[Events]
//Background and Video events
0,0,"maxresdefault.jpg",0,0
//Break Periods
//Storyboard Layer 0 (Background)
//Storyboard Layer 1 (Fail)
//Storyboard Layer 2 (Pass)
//Storyboard Layer 3 (Foreground)
//Storyboard Sound Samples

[TimingPoints]
1600,312.5,4,2,0,100,1,0
2849,-100,4,2,0,100,0,0
9411,-200,4,2,0,100,0,0
10349,-100,4,2,0,100,0,0
17849,-133.333333333333,4,2,0,100,0,0
20349,-111.111111111111,4,2,0,100,0,0
21442,-100,4,2,0,100,0,0
22849,-133.333333333333,4,2,0,100,0,0
23942,-100,4,2,0,100,0,0
27224,-75.187969924812,4,2,0,100,0,0
27536,-60.2409638554217,4,2,0,100,0,0
27849,-133.333333333333,4,2,0,100,0,0
30349,-142.857142857143,4,2,0,100,0,0
35349,-117.647058823529,4,2,0,100,0,0
35974,-100,4,2,0,100,0,0
36442,-100,4,2,0,100,0,0
37849,-200,4,2,0,100,0,0
39724,-100,4,2,0,100,0,0
58317,-133.333333333333,4,2,0,100,0,0
60349,-100,4,2,0,100,0,0
86911,-200,4,2,0,100,0,0

[HitObjects]
348,192,2380,5,0,0:0:0:0:
367,189,2458,1,0,0:0:0:0:
390,178,2536,2,0,P|426:152|428:80,1,112.5
408,64,2849,6,0,P|350:52|311:60,1,75
218,109,3161,2,0,P|157:130|135:126,1,75
82,215,3474,2,0,P|86:268|111:294,1,75
222,200,3786,2,0,P|267:229|285:258,1,75
357,321,4099,6,0,P|392:278|400:234,1,75
388,151,4411,2,0,P|362:104|325:77,1,75
120,140,4724,1,0,0:0:0:0:
308,208,4880,1,0,0:0:0:0:
232,24,5036,1,0,0:0:0:0:
168,260,5349,6,0,P|216:280|248:256,1,75
336,216,5661,2,0,P|336:172|316:136,1,75
252,58,5974,2,0,P|285:33|328:31,1,75
388,132,6286,2,0,P|406:182|403:217,1,75
288,227,6599,6,0,P|243:207|190:207,1,75
117,256,6911,2,0,P|86:212|70:169,1,75
160,60,7224,1,0,0:0:0:0:
256,240,7380,1,0,0:0:0:0:
320,36,7536,1,0,0:0:0:0:
424,84,7849,6,0,P|444:116|448:160,1,75,4|0,0:0|0:0,0:0:0:0:
472,260,8161,2,0,P|436:288|396:300,1,75
332,112,8474,5,0,0:0:0:0:
256,308,8630,1,0,0:0:0:0:
136,60,8786,1,4,0:0:0:0:
68,360,8942,1,4,0:0:0:0:
381,62,9255,5,0,0:0:0:0:
363,64,9333,1,0,0:0:0:0:
345,68,9411,2,0,B|303:101|239:75|202:113,1,150
92,232,10349,6,0,P|136:280|216:272,1,150,4|0,0:0|0:0,0:0:0:0:
352,200,10817,1,0,0:0:0:0:
352,200,10974,2,0,P|312:128|240:88,1,150
80,320,11442,6,0,P|168:284|196:224,1,150
184,152,11911,2,0,P|224:120|264:108,1,75
336,60,12224,1,0,0:0:0:0:
396,248,12380,1,0,0:0:0:0:
484,24,12536,1,0,0:0:0:0:
288,352,12849,5,4,0:0:0:0:
108,132,13317,1,0,0:0:0:0:
108,132,13474,2,0,P|156:72|240:72,1,150
404,228,13942,1,0,0:0:0:0:
168,132,14255,1,0,0:0:0:0:
168,132,14411,2,0,P|172:76|208:48,1,75
296,24,14724,1,0,0:0:0:0:
360,220,14880,1,0,0:0:0:0:
492,20,15036,1,0,0:0:0:0:
220,224,15349,6,0,P|200:152|256:84,1,150,4|0,0:0|0:0,0:0:0:0:
392,96,15817,2,0,P|412:196|380:240,1,150
296,204,16442,2,0,B|236:204|192:252|136:252,1,150
416,176,16911,2,0,P|420:232|408:268,1,75
324,344,17224,1,0,0:0:0:0:
184,168,17536,1,0,0:0:0:0:
308,72,17849,6,0,P|260:40|192:40,1,112.500004291535,4|0,0:0|0:0,0:0:0:0:
108,96,18317,2,0,B|80:156|100:168|76:220,1,112.500004291535
168,336,18942,6,0,P|232:344|292:332,1,112.500004291535
384,288,19411,1,0,0:0:0:0:
244,84,19567,1,0,0:0:0:0:
152,304,19724,1,0,0:0:0:0:
456,48,20036,1,4,0:0:0:0:
436,232,20349,6,0,B|356:224|324:156|242:146,1,202.499993820191,4|0,0:0|0:0,0:0:0:0:
203,64,20974,2,0,P|135:41|63:50,1,134.999995880127
72,152,21442,2,0,P|78:233|114:301,1,150
236,140,21911,1,0,0:0:0:0:
380,324,22067,1,0,0:0:0:0:
364,88,22224,1,0,0:0:0:0:
208,352,22536,1,0,0:0:0:0:
460,172,22849,2,0,B|428:144|416:112|372:120|314:59,1,168.750006437302,4|0,0:0|0:0,0:0:0:0:
304,196,23474,2,0,P|241:232|186:217,1,112.500004291535
112,176,23942,6,0,B|156:132|156:132|184:136|184:136|232:88,1,150
308,52,24411,2,0,P|364:64|392:96,1,75
452,168,24724,1,0,0:0:0:0:
348,348,24880,1,0,0:0:0:0:
340,112,25036,1,0,0:0:0:0:
232,352,25349,6,0,P|148:360|88:324,1,150,4|0,0:0|0:0,0:0:0:0:
176,216,25817,2,0,B|192:148|228:144|228:144|260:84,1,150
336,56,26442,2,0,B|396:64|432:120|424:176,1,150
392,284,26911,2,0,P|316:324|260:324,1,112.5
252,312,27224,2,0,P|316:220|320:164,1,149.62499383564
328,144,27536,2,0,P|208:96|128:88,1,186.7500027071
112,88,27849,6,0,P|80:136|88:200,1,112.500004291535,4|0,0:0|0:0,0:0:0:0:
160,288,28317,2,0,P|228:280|264:248,1,112.500004291535
416,160,28942,2,0,P|368:108|312:88,1,112.500004291535
276,328,29411,1,0,0:0:0:0:
172,116,29567,1,0,0:0:0:0:
104,372,29724,1,0,0:0:0:0:
464,64,30036,1,4,0:0:0:0:
336,52,30349,6,0,P|296:56|232:80,1,104.999996795654,4|0,0:0|0:0,0:0:0:0:
184,168,30974,2,0,P|200:220|240:256,1,104.999996795654
320,316,31442,2,0,B|388:240|328:144|400:68,1,262.499991989136,4|0,0:0|0:0,0:0:0:0:
456,160,32380,5,0,0:0:0:0:
256,224,32536,1,0,0:0:0:0:
301,26,32693,1,0,0:0:0:0:
356,224,32849,5,4,0:0:0:0:
184,316,33161,1,0,0:0:0:0:
52,176,33474,1,0,0:0:0:0:
188,60,33942,6,0,B|296:64|320:164|432:172,1,262.499991989136,4|0,0:0|0:0,0:0:0:0:
496,228,34880,1,0,0:0:0:0:
392,328,35036,1,0,0:0:0:0:
280,168,35192,1,0,0:0:0:0:
216,332,35349,2,0,P|140:340|72:324,1,127.50000243187,4|0,0:0|0:0,0:0:0:0:
108,224,35974,2,0,P|136:184|128:132,1,75
188,52,36442,6,0,P|272:60|320:124,1,150,4|0,0:0|0:0,0:0:0:0:
356,216,36911,1,0,0:0:0:0:
188,296,37224,1,0,0:0:0:0:
44,164,37536,1,0,0:0:0:0:
192,48,37849,2,0,B|316:76|296:224|424:248,1,300,4|0,0:0|0:0,0:0:0:0:
348,336,39567,5,0,0:0:0:0:
348,336,39724,2,0,P|280:328|252:312,1,75
192,276,40036,2,0,P|160:224|160:184,1,75
240,60,40349,5,4,0:0:0:0:
336,240,40505,1,0,0:0:0:0:
360,44,40661,5,4,0:0:0:0:
224,268,40817,1,0,0:0:0:0:
188,116,40975,5,4,0:0:0:0:
396,192,41130,1,0,0:0:0:0:
308,40,41286,5,4,0:0:0:0:
248,280,41443,1,0,0:0:0:0:
152,104,41600,5,4,0:0:0:0:
364,252,41755,1,0,0:0:0:0:
360,36,41912,5,4,0:0:0:0:
316,312,42067,1,0,0:0:0:0:
192,76,42224,2,0,L|168:36,7,37.5,4|0|0|0|0|0|0|0,0:0|0:0|0:0|0:0|0:0|0:0|0:0|0:0,0:0:0:0:
200,164,42849,6,0,P|260:168|292:152,1,75,4|0,0:0|0:0,0:0:0:0:
352,72,43161,2,0,P|408:108|420:140,1,75
496,224,43474,1,0,0:0:0:0:
312,264,43630,1,0,0:0:0:0:
384,64,43786,5,0,0:0:0:0:
456,328,43942,1,0,0:0:0:0:
456,328,44099,6,0,P|372:360|304:348,1,150,4|0,0:0|0:0,0:0:0:0:
244,296,44567,2,0,B|184:264|152:316|88:300,1,150
48,192,45192,1,0,0:0:0:0:
164,48,45349,6,0,P|248:48|316:84,1,150,4|0,0:0|0:0,0:0:0:0:
420,136,45817,2,0,B|312:192|316:288|196:340,1,300
164,48,46599,2,0,P|248:48|316:84,1,150,4|0,0:0|0:0,0:0:0:0:
420,136,47067,2,0,B|312:192|316:288|196:340,1,300
84,328,47849,6,0,P|64:264|68:224,1,75,4|0,0:0|0:0,0:0:0:0:
184,332,48161,2,0,P|212:284|216:248,1,75
84,328,48474,5,0,0:0:0:0:
136,40,48630,1,0,0:0:0:0:
184,328,48786,5,0,0:0:0:0:
136,40,48942,1,0,0:0:0:0:
76,168,49099,6,0,P|144:204|232:176,1,150,4|0,0:0|0:0,0:0:0:0:
332,128,49567,2,0,B|352:188|408:184|436:248,1,150
368,344,50192,5,0,0:0:0:0:
288,144,50349,1,4,0:0:0:0:
224,348,50505,1,0,0:0:0:0:
288,144,50661,1,0,0:0:0:0:
456,264,50817,2,0,B|384:256|332:368|244:360,1,225
92,200,51599,5,4,0:0:0:0:
320,120,51755,1,0,0:0:0:0:
216,320,51911,5,0,0:0:0:0:
124,148,52067,2,0,B|184:72|264:136|336:64,1,225
436,128,52849,6,0,P|412:192|384:216,1,75,4|0,0:0|0:0,0:0:0:0:
288,128,53161,2,0,P|244:136|208:164,1,75
72,236,53474,1,0,0:0:0:0:
256,296,53630,1,0,0:0:0:0:
136,132,53786,1,0,0:0:0:0:
144,332,53942,1,0,0:0:0:0:
240,168,54099,6,0,P|284:136|332:128,1,75,4|0,0:0|0:0,0:0:0:0:
448,148,54411,2,0,P|436:208|416:240,1,75
356,336,54724,1,0,0:0:0:0:
240,144,54880,1,0,0:0:0:0:
224,344,55036,1,0,0:0:0:0:
400,192,55192,1,0,0:0:0:0:
320,56,55349,6,0,P|264:52|220:64,1,75,4|0,0:0|0:0,0:0:0:0:
148,112,55661,2,0,P|128:160|128:216,1,75
228,188,55974,2,0,P|272:208|308:248,1,75
400,316,56286,2,0,P|436:260|440:224,1,75
452,104,56599,6,0,P|400:80|348:72,1,75,4|0,0:0|0:0,0:0:0:0:
264,44,56911,2,0,P|220:56|188:84,1,75
56,232,57224,1,4,0:0:0:0:
240,92,57432,1,0,0:0:0:0:
456,184,57640,1,0,0:0:0:0:
436,384,57850,5,4,0:0:0:0:
304,0,58161,1,0,0:0:0:0:
304,0,58317,2,0,B|216:8|144:52,1,168.750006437302
0,344,59099,5,4,0:0:0:0:
472,0,59411,1,0,0:0:0:0:
472,0,59567,2,0,P|508:80|508:172,1,168.750006437302
456,252,60349,6,0,P|408:292|364:296,1,75,4|0,0:0|0:0,0:0:0:0:
320,200,60661,1,0,0:0:0:0:
320,200,60817,2,0,P|224:208|176:240,1,150
44,168,61286,5,0,0:0:0:0:
144,56,61442,2,0,P|232:48|324:52,1,150,4|0,0:0|0:0,0:0:0:0:
376,48,61911,2,0,P|420:68|436:100,1,75
460,168,62224,5,4,0:0:0:0:
452,176,62302,1,0,0:0:0:0:
440,184,62380,1,0,0:0:0:0:
428,192,62458,1,0,0:0:0:0:
416,200,62536,1,4,0:0:0:0:
400,208,62614,1,0,0:0:0:0:
380,216,62692,1,0,0:0:0:0:
360,224,62771,1,0,0:0:0:0:
336,232,62849,6,0,P|276:244|240:244,1,75,4|0,0:0|0:0,0:0:0:0:
128,176,63161,2,0,P|184:152|232:148,1,75
400,136,63474,1,0,0:0:0:0:
144,232,63630,1,0,0:0:0:0:
248,56,63786,1,0,0:0:0:0:
296,288,63942,1,0,0:0:0:0:
152,68,64099,2,0,P|80:104|56:172,1,150,4|0,0:0|0:0,0:0:0:0:
80,284,64567,2,0,B|140:256|180:296|248:268,1,150
336,244,65192,5,0,0:0:0:0:
512,384,65349,1,4,0:0:0:0:
208,0,65661,1,0,0:0:0:0:
208,0,65817,2,0,P|116:68|88:176,1,225
52,384,66599,5,4,0:0:0:0:
460,0,66911,1,0,0:0:0:0:
464,4,67067,2,0,P|496:120|452:240,1,225
152,268,67849,2,0,P|200:312|236:324,1,75,4|0,0:0|0:0,0:0:0:0:
260,204,68161,2,0,P|292:152|332:136,1,75
448,72,68474,5,0,0:0:0:0:
312,292,68630,1,0,0:0:0:0:
248,56,68786,1,0,0:0:0:0:
464,200,68942,1,0,0:0:0:0:
128,160,69099,1,4,0:0:0:0:
380,80,69411,1,0,0:0:0:0:
380,80,69567,2,0,P|304:56|264:64,1,112.5
268,92,69880,2,0,P|220:152|152:152,1,150
68,56,70349,5,4,0:0:0:0:
200,336,70505,1,0,0:0:0:0:
196,68,70661,5,0,0:0:0:0:
92,268,70817,2,0,B|140:356|200:312|236:256|308:264,1,225
432,52,71599,5,4,0:0:0:0:
308,296,71755,1,0,0:0:0:0:
276,52,71911,5,0,0:0:0:0:
464,240,72067,1,0,0:0:0:0:
392,40,72225,6,0,L|408:4,2,37.5,4|0|0,0:0|0:0|0:0,0:0:0:0:
272,348,72536,1,0,0:0:0:0:
272,348,72692,1,0,0:0:0:0:
144,264,72849,6,0,P|136:208|148:164,1,75
264,188,73161,2,0,P|320:152|336:120,1,75
208,76,73474,2,0,P|144:96|116:120,1,75
60,208,73786,1,0,0:0:0:0:
60,208,73942,6,0,B|160:252|208:176|312:228,1,225
416,252,74724,1,0,0:0:0:0:
112,328,75036,1,0,0:0:0:0:
312,364,75349,5,4,0:0:0:0:
64,204,75661,1,0,0:0:0:0:
256,0,75818,1,4,0:0:0:0:
152,384,76130,1,0,0:0:0:0:
420,16,76599,2,0,B|464:112|416:176|468:256,1,225,4|0,0:0|0:0,0:0:0:0:
456,312,77224,6,0,P|376:332|352:320,1,112.5
328,296,77536,2,0,P|248:264|220:272,1,112.5
128,316,77849,5,0,0:0:0:0:
344,212,78005,1,0,0:0:0:0:
128,132,78161,1,0,0:0:0:0:
328,40,78317,1,0,0:0:0:0:
184,228,78630,5,0,0:0:0:0:
256,0,78786,1,0,0:0:0:0:
412,84,78942,1,0,0:0:0:0:
368,0,79255,5,4,0:0:0:0:
368,0,79411,1,4,0:0:0:0:
148,56,79724,2,0,L|132:8,3,37.5,4|0|0|0,0:0|0:0|0:0|0:0,0:0:0:0:
168,320,80036,2,0,L|152:364,3,37.5,4|0|0|0,0:0|0:0|0:0|0:0,0:0:0:0:
316,40,80349,5,4,0:0:0:0:
224,320,80505,1,0,0:0:0:0:
128,72,80661,5,4,0:0:0:0:
388,188,80817,1,0,0:0:0:0:
344,28,80974,5,4,0:0:0:0:
172,256,81130,1,0,0:0:0:0:
220,32,81286,5,4,0:0:0:0:
316,304,81442,1,0,0:0:0:0:
412,44,81599,5,4,0:0:0:0:
416,256,81755,1,0,0:0:0:0:
312,44,81911,5,4,0:0:0:0:
316,272,82067,1,0,0:0:0:0:
216,44,82224,5,4,0:0:0:0:
220,284,82380,1,0,0:0:0:0:
108,44,82536,5,4,0:0:0:0:
112,300,82692,1,0,0:0:0:0:
250,37,82850,2,0,B|283:61|298:118,1,75,4|0,0:0|0:0,0:0:0:0:
336,336,83162,5,4,0:0:0:0:
96,188,83318,1,0,0:0:0:0:
336,48,83474,5,4,0:0:0:0:
252,284,83631,1,0,0:0:0:0:
268,64,83787,5,4,0:0:0:0:
348,304,83943,1,0,0:0:0:0:
288,16,84100,5,4,0:0:0:0:
252,384,84256,1,0,0:0:0:0:
224,16,84412,5,4,0:0:0:0:
252,384,84568,1,0,0:0:0:0:
288,0,84725,5,4,0:0:0:0:
252,384,84881,1,0,0:0:0:0:
224,0,85037,5,4,0:0:0:0:
252,384,85193,1,0,0:0:0:0:
368,32,85349,5,4,0:0:0:0:
300,272,85505,1,0,0:0:0:0:
248,104,85661,1,0,0:0:0:0:
436,164,85817,1,0,0:0:0:0:
256,344,85974,1,4,0:0:0:0:
168,32,86130,1,0,0:0:0:0:
456,144,86286,1,4,0:0:0:0:
112,232,86442,1,4,0:0:0:0:
400,228,86755,5,0,0:0:0:0:
384,256,86833,1,0,0:0:0:0:
364,272,86911,2,0,B|304:312|208:264|144:304,1,225,4|0,0:0|0:0,0:0:0:0:
256,192,88474,12,0,91911,0:0:0:0:
