osu file format v14

[General]
AudioFilename: audio.mp3
AudioLeadIn: 0
PreviewTime: 40289
Countdown: 0
SampleSet: Soft
StackLeniency: 0.7
Mode: 0
LetterboxInBreaks: 0
WidescreenStoryboard: 1

[Editor]
Bookmarks: 56696,64196
DistanceSpacing: 1.3
BeatDivisor: 4
GridSize: 32
TimelineZoom: 3.300004

[Metadata]
Title:Good Luck Lilac
TitleUnicode:グッドラック ライラック
Artist:GATALIS
ArtistUnicode:GATALIS
Creator:b00
Version:Shurelia's Hard
Source:アニメガタリズ
Tags:Anime, Gataris, b00, cute, ShogunMoon, Zisa, Hakura, Hightec, Clarence, Shurelia, Minoa Asagaya, Kaede Hondo, Arisu Kamiigusa, Sayaka Senbongi, Miko Koenji, Hisako Tojo
BeatmapID:1487396
BeatmapSetID:690752

[Difficulty]
HPDrainRate:5
CircleSize:4
OverallDifficulty:5
ApproachRate:7.9
SliderMultiplier:1.5
SliderTickRate:1

[Events]
//Background and Video events
0,0,"Animegataris_Eyecatch_01.png",0,0
//Break Periods
//Storyboard Layer 0 (Background)
//Storyboard Layer 1 (Fail)
//Storyboard Layer 2 (Pass)
//Storyboard Layer 3 (Foreground)
//Storyboard Sound Samples

[TimingPoints]
-804,312.5,4,2,0,60,1,0
7008,-200,4,2,0,60,0,0
7946,-100,4,2,0,60,0,0
8180,-100,4,2,0,5,0,0
8258,-100,4,2,0,60,0,0
8805,-100,4,2,0,5,0,0
8883,-100,4,2,0,60,0,0
10680,-100,4,2,0,5,0,0
10758,-100,4,2,0,60,0,0
11305,-100,4,2,0,5,0,0
11383,-100,4,2,0,60,0,0
14274,-100,4,2,0,5,0,0
14352,-100,4,2,0,60,0,0
16774,-100,4,2,0,5,0,0
16852,-100,4,2,0,60,0,0
17867,-100,4,2,0,5,0,0
17946,-100,4,2,0,60,0,0
18180,-100,4,2,0,5,0,0
18258,-100,4,2,0,60,0,0
19274,-100,4,2,0,5,0,0
19352,-100,4,2,0,60,0,0
26774,-100,4,2,0,5,0,0
26852,-100,4,2,0,60,0,0
27867,-100,4,2,0,5,0,0
27946,-133.333333333333,4,2,0,60,0,0
29274,-133.333333333333,4,2,0,5,0,0
29352,-133.333333333333,4,2,0,60,0,0
30680,-133.333333333333,4,2,0,5,0,0
30758,-133.333333333333,4,2,0,60,0,0
31774,-133.333333333333,4,2,0,5,0,0
31852,-133.333333333333,4,2,0,60,0,0
32946,-100,4,2,0,60,0,0
33180,-100,4,2,0,5,0,0
33258,-100,4,2,0,60,0,0
35680,-100,4,2,0,5,0,0
35758,-100,4,2,0,60,0,0
40446,-83.3333333333333,4,2,0,60,0,1
41930,-83.3333333333333,4,2,0,5,0,1
42008,-83.3333333333333,4,2,0,60,0,1
44430,-83.3333333333333,4,2,0,5,0,1
44508,-83.3333333333333,4,2,0,60,0,1
46930,-83.3333333333333,4,2,0,5,0,1
47008,-83.3333333333333,4,2,0,60,0,1
50680,-83.3333333333333,4,2,0,5,0,1
50758,-83.3333333333333,4,2,0,60,0,1
51930,-83.3333333333333,4,2,0,5,0,1
52008,-83.3333333333333,4,2,0,60,0,1
60289,-83.3333333333333,4,2,0,60,0,0
60446,-83.3333333333333,4,2,0,60,0,1
63180,-83.3333333333333,4,2,0,5,0,1
63258,-83.3333333333333,4,2,0,60,0,1
69508,-83.3333333333333,4,2,0,40,0,1
69664,-83.3333333333333,4,2,0,60,0,1
70680,-83.3333333333333,4,2,0,5,0,0
70758,-83.3333333333333,4,2,0,60,0,0
76774,-83.3333333333333,4,2,0,5,0,1
76852,-83.3333333333333,4,2,0,60,0,1
77789,-83.3333333333333,4,2,0,60,0,0
77946,-83.3333333333333,4,2,0,60,0,1
84039,-200,4,2,0,60,0,0
84352,-200,4,2,0,20,0,0
86071,-100,4,2,0,20,0,0

[Colours]
Combo1 : 220,228,48
Combo2 : 233,124,163
Combo3 : 170,85,255
Combo4 : 46,194,187

[HitObjects]
425,54,446,6,0,P|457:120|446:192,1,150,2|2,0:0|0:0,0:0:0:0:
356,313,1071,2,0,P|289:345|217:334,1,150,0|0,0:0|0:0,0:0:0:0:
107,231,1696,2,0,P|74:164|85:92,1,150,0|2,0:0|0:0,0:0:0:0:
222,29,2321,1,2,0:0:0:0:
222,29,2633,1,0,0:0:0:0:
85,92,2946,6,0,P|74:164|107:231,1,150,2|2,0:0|0:0,0:0:0:0:
217,334,3571,2,0,P|289:345|356:313,1,150,0|0,0:0|0:0,0:0:0:0:
446,192,4196,2,0,P|457:120|425:54,1,150,0|2,0:0|0:0,0:0:0:0:
276,31,4821,1,2,0:0:0:0:
276,31,5133,1,2,0:0:0:0:
123,127,5446,6,0,P|127:164|138:199,1,75,0|0,1:0|0:0,0:0:0:0:
170,267,5758,1,2,0:3:0:0:
249,346,5914,1,0,1:0:0:0:
248,346,6227,2,0,P|285:341|320:330,1,75,2|0,3:0|0:0,0:0:0:0:
400,231,6539,1,0,1:0:0:0:
491,155,7008,6,0,B|455:175|393:126|345:162,1,150,2|2,0:0|0:0,0:0:0:0:
202,148,7946,6,0,P|271:173|345:161,1,150,8|0,3:0|1:0,0:0:0:0:
365,89,8414,1,4,0:3:0:0:
294,62,8571,2,0,L|219:62,1,75,8|0,3:0|0:0,0:0:0:0:
146,88,8883,1,0,1:0:0:0:
81,126,9039,2,0,L|74:200,1,75,8|0,3:0|0:0,0:0:0:0:
65,275,9352,1,4,3:0:0:0:
122,323,9508,6,0,P|159:320|195:329,1,75,0|8,1:0|3:0,0:0:0:0:
265,356,9821,1,8,3:0:0:0:
321,277,9977,1,2,0:0:0:0:
415,249,10133,1,0,1:0:0:0:
415,249,10446,6,0,B|432:204|392:143|426:102,1,150,4|0,3:0|1:0,0:0:0:0:
477,49,10914,1,4,0:3:0:0:
403,32,11071,2,0,P|366:27|330:38,1,75,8|0,0:3|0:0,0:0:0:0:
292,102,11383,1,0,1:0:0:0:
325,169,11539,6,0,P|336:204|330:240,1,75,8|0,3:0|0:0,0:0:0:0:
313,314,11852,1,8,3:0:0:0:
246,278,12008,2,0,P|241:241|253:205,1,75,0|4,1:0|3:0,0:0:0:0:
214,116,12321,1,4,3:0:0:0:
127,165,12477,1,2,0:0:0:0:
160,256,12633,1,0,1:0:0:0:
160,256,12789,1,2,0:0:0:0:
88,351,12946,6,0,B|91:303|91:303|68:247|68:247|68:205,1,150,8|0,0:3|1:0,0:0:0:0:
60,133,13414,2,0,L|43:59,2,75,4|0|8,3:0|0:0|3:0,0:0:0:0:
127,165,13883,1,0,1:0:0:0:
185,117,14039,2,0,B|257:100|257:100|329:126,1,150,8|0,3:0|0:0,0:0:0:0:
403,234,14508,6,0,L|420:308,1,75,0|0,1:0|0:0,0:0:0:0:
285,259,14821,2,0,L|268:185,1,75,4|0,3:0|0:0,0:0:0:0:
172,287,15133,2,0,L|188:360,1,75,0|0,1:0|0:0,0:0:0:0:
35,294,15446,6,0,B|0:148,1,150,4|0,3:0|1:0,0:0:0:0:
17,75,15914,2,0,L|162:37,1,150,8|4,3:0|3:0,0:0:0:0:
236,23,16383,1,0,1:0:0:0:
285,75,16539,2,0,P|320:86|357:82,1,75,8|0,3:0|0:0,0:0:0:0:
507,73,16852,5,8,3:0:0:0:
426,18,17008,1,0,1:0:0:0:
357,81,17164,1,8,3:0:0:0:
437,135,17321,1,4,0:3:0:0:
253,158,17633,1,0,1:0:0:0:
313,259,17946,6,0,B|356:283|409:233|459:260,1,150,2|0,0:0|1:0,0:0:0:0:
488,328,18414,1,4,3:0:0:0:
414,348,18571,2,0,P|378:356|341:350,1,75,8|0,3:0|0:0,0:0:0:0:
270,328,18883,1,0,1:0:0:0:
237,260,19039,6,0,P|243:223|266:194,1,75,4|0,3:0|0:0,0:0:0:0:
326,148,19352,1,4,3:0:0:0:
368,86,19508,2,0,P|333:95|297:86,1,75,0|8,1:0|3:0,0:0:0:0:
209,43,19821,1,8,3:0:0:0:
112,57,19977,1,2,0:0:0:0:
40,123,20133,1,0,1:0:0:0:
40,123,20446,6,0,P|60:194|39:265,1,150,4|0,3:0|1:0,0:0:0:0:
39,340,20914,1,4,3:0:0:0:
113,354,21071,2,0,L|187:343,1,75,8|0,3:0|0:0,0:0:0:0:
254,309,21383,1,0,1:0:0:0:
322,339,21539,6,0,L|396:349,1,75,8|0,3:0|0:0,0:0:0:0:
471,354,21852,1,8,3:0:0:0:
437,287,22008,2,0,P|430:251|433:214,1,75,0|8,1:0|3:0,0:0:0:0:
469,121,22321,1,8,3:0:0:0:
372,111,22477,1,2,0:0:0:0:
323,195,22633,1,0,1:0:0:0:
323,195,22789,1,2,0:0:0:0:
215,125,22946,6,0,B|144:141|144:141|67:127,1,150,8|0,3:0|1:0,0:0:0:0:
145,32,23414,2,0,L|219:16,2,75,4|2|4,3:0|0:0|3:0,0:0:0:0:
73,54,23883,1,0,1:0:0:0:
68,127,24039,2,0,B|84:198|84:198|70:275,1,150,4|0,3:0|0:0,0:0:0:0:
197,317,24508,6,0,L|123:326,1,75,0|2,1:0|0:0,0:0:0:0:
337,373,24821,2,0,L|262:364,1,75,8|8,3:0|3:0,0:0:0:0:
457,299,25133,2,0,L|382:307,1,75,0|8,1:0|3:0,0:0:0:0:
197,316,25446,6,0,B|178:241|178:241|192:170,1,150,4|0,3:0|1:0,0:0:0:0:
274,239,25914,2,0,B|288:168|288:168|269:93,1,150,8|8,0:3|3:0,0:0:0:0:
193,93,26383,1,0,1:0:0:0:
241,16,26539,2,0,P|278:13|314:23,1,75,4|0,3:0|0:0,0:0:0:0:
384,80,26852,5,8,3:0:0:0:
422,161,27008,1,0,1:0:0:0:
399,255,27164,1,8,3:0:0:0:
399,255,27242,1,8,3:0:0:0:
399,254,27321,2,0,P|378:286|351:311,1,75,10|8,3:0|3:0,0:0:0:0:
256,348,27633,1,0,1:0:0:0:
176,305,27789,1,0,0:0:0:0:
94,345,27946,6,0,B|69:290|115:234|84:179,1,168.750006437302,2|0,0:0|0:0,0:0:0:0:
38,117,28571,2,0,P|90:136|146:132,1,112.500004291535,0|0,1:0|0:0,0:0:0:0:
304,87,29039,2,0,P|251:67|195:71,1,112.500004291535,2|0,0:0|0:0,0:0:0:0:
146,132,29508,6,0,P|168:147|196:151,1,56.2500021457673,0|0,1:0|0:0,0:0:0:0:
354,106,29821,2,0,P|331:90|303:86,1,56.2500021457673,2|0,0:0|0:0,0:0:0:0:
274,159,30133,5,0,1:0:0:0:
274,237,30289,1,2,0:0:0:0:
274,316,30446,6,0,P|219:329|165:317,1,112.500004291535,0|2,1:0|0:0,0:0:0:0:
274,159,31071,2,0,P|328:147|382:160,1,112.500004291535,0|0,1:0|0:0,0:0:0:0:
443,222,31539,2,0,P|429:167|441:113,1,112.500004291535,0|2,1:0|0:0,0:0:0:0:
419,39,32008,6,0,P|447:41|475:35,1,56.2500021457673,2|2,0:0|0:0,0:0:0:0:
326,3,32321,2,0,P|298:0|271:7,1,56.2500021457673,0|2,1:0|0:0,0:0:0:0:
193,72,32633,1,0,0:0:0:0:
193,72,32711,1,0,0:0:0:0:
193,72,32789,1,0,0:0:0:0:
97,16,32946,6,0,L|85:165,1,150,4|0,0:0|1:0,0:0:0:0:
127,309,33571,1,8,0:3:0:0:
93,241,33727,1,4,0:3:0:0:
191,357,34039,6,0,P|264:340|335:359,1,150,2|8,0:0|0:3,0:0:0:0:
408,377,34508,2,0,P|405:340|388:307,1,75,0|0,1:0|0:0,0:0:0:0:
307,191,34821,2,0,P|309:228|326:261,1,75,4|0,0:3|0:0,0:0:0:0:
418,237,35133,2,0,P|415:199|398:166,1,75,0|0,1:0|0:0,0:0:0:0:
476,111,35446,6,0,P|404:128|336:99,1,150,8|0,0:3|1:0,0:0:0:0:
196,46,36071,2,0,P|189:82|197:119,2,75,0|8|0,0:0|3:0|1:0,0:0:0:0:
268,186,36696,6,0,P|198:161|128:183,1,150,0|0,0:0|1:0,0:0:0:0:
84,244,37164,1,8,3:0:0:0:
121,309,37321,2,0,P|157:315|193:303,1,75,4|8,3:0|3:0,0:0:0:0:
260,270,37633,1,0,1:0:0:0:
325,305,37789,1,4,3:0:0:0:
268,186,37946,6,0,L|258:112,1,75,6|0,0:0|0:0,0:0:0:0:
174,10,38258,2,0,L|164:84,1,75,8|4,3:0|3:0,0:0:0:0:
104,231,38571,2,0,L|94:157,1,75,8|4,3:0|3:0,0:0:0:0:
10,55,38883,2,0,L|0:129,1,75,8|4,3:0|3:0,0:0:0:0:
25,288,39196,6,0,B|98:272|98:272|162:310,1,150,4|8,0:0|0:3,0:0:0:0:
218,360,39664,2,0,L|367:348,1,150,8|4,0:3|0:3,0:0:0:0:
440,328,40133,2,0,L|496:371,2,37.5,4|4|4,0:3|0:3|0:3,0:0:0:0:
437,290,40367,1,4,0:3:0:0:
437,244,40446,6,0,B|436:190|436:190|447:132|447:132|444:65,1,179.999994506836,4|0,0:0|1:0,0:0:0:0:
368,22,40914,1,0,0:0:0:0:
287,61,41071,2,0,B|248:52|248:52|206:26,2,89.9999972534181,4|4|0,0:3|0:3|1:0,0:0:0:0:
361,111,41539,1,0,0:0:0:0:
253,161,41696,6,0,B|128:125|128:125|78:127,1,179.999994506836,4|0,3:0|1:0,0:0:0:0:
0,173,42164,1,8,3:0:0:0:
24,260,42321,2,0,L|59:342,1,89.9999972534181,0|4,0:0|0:3,0:0:0:0:
140,300,42633,2,0,L|104:217,1,89.9999972534181,0|8,1:0|0:3,0:0:0:0:
225,309,42946,6,0,B|286:327|351:289|351:289|319:325,2,179.999994506836,4|0|4,3:0|1:0|3:0,0:0:0:0:
136,296,43727,1,4,3:0:0:0:
59,342,43883,1,0,1:0:0:0:
186,215,44196,6,0,B|125:197|60:235|60:235|91:198,2,179.999994506836,4|0|0,0:0|1:0|0:0,0:0:0:0:
272,240,44977,1,4,3:0:0:0:
347,191,45133,1,0,1:0:0:0:
210,40,45446,6,0,P|284:88|372:80,1,179.999994506836,4|0,0:0|1:0,0:0:0:0:
453,41,45914,1,0,0:0:0:0:
501,116,46071,2,0,P|491:160|498:204,2,89.9999972534181,8|8|0,3:0|3:0|1:0,0:0:0:0:
417,149,46539,1,0,0:0:0:0:
415,265,46696,6,0,B|369:299|296:263|238:279,1,179.999994506836,4|0,0:3|1:0,0:0:0:0:
167,334,47164,1,8,0:3:0:0:
80,311,47321,2,0,P|75:267|56:226,1,89.9999972534181,0|4,0:0|0:3,0:0:0:0:
16,148,47633,2,0,P|20:103|39:62,1,89.9999972534181,0|8,1:0|0:3,0:0:0:0:
197,92,47946,6,0,P|156:111|112:116,1,89.9999972534181,4|4,0:3|0:3,0:0:0:0:
268,28,48258,2,0,P|287:68|291:113,1,89.9999972534181,0|8,1:0|0:3,0:0:0:0:
224,176,48571,1,0,0:0:0:0:
160,236,48727,1,8,0:3:0:0:
238,278,48883,1,0,1:0:0:0:
238,278,49196,6,0,P|281:287|326:282,1,89.9999972534181,4|8,0:0|3:0,0:0:0:0:
428,187,49508,2,0,P|383:182|340:192,1,89.9999972534181,0|8,1:0|3:0,0:0:0:0:
326,282,49821,1,4,0:3:0:0:
308,370,49977,2,0,L|262:366,2,44.999998626709,4|4|4,0:3|0:3|1:3,0:0:0:0:
401,346,50289,1,8,0:3:0:0:
452,272,50446,6,0,P|432:185|465:103,1,179.999994506836,4|0,0:0|1:0,0:0:0:0:
399,41,50914,1,0,0:0:0:0:
308,36,51071,2,0,L|218:41,1,89.9999972534181,4|8,3:0|3:0,0:0:0:0:
132,72,51383,1,0,1:0:0:0:
76,0,51539,2,0,P|92:87|59:170,1,179.999994506836,0|0,0:0|0:0,0:0:0:0:
119,239,52008,6,0,P|163:248|208:240,1,89.9999972534181,0|4,1:0|0:3,0:0:0:0:
323,155,52321,2,0,P|279:146|236:156,1,89.9999972534181,8|0,0:3|0:0,0:0:0:0:
382,219,52633,2,0,P|426:227|471:219,1,89.9999972534181,0|0,1:0|0:0,0:0:0:0:
416,48,52946,6,0,L|423:137,2,89.9999972534181,8|0|0,3:0|0:0|1:0,0:0:0:0:
328,64,53414,1,8,0:3:0:0:
322,155,53571,2,0,P|303:195|297:239,1,89.9999972534181,8|4,0:3|0:3,0:0:0:0:
338,384,53883,2,0,P|358:344|364:300,1,89.9999972534181,0|0,1:0|0:0,0:0:0:0:
240,306,54196,6,2,B|176:330|108:294|62:320,1,179.999994506836,8|0,3:0|1:0,0:0:0:0:
40,140,54821,2,0,B|20:72|20:72|35:9,2,134.999995880127,4|8|0,0:3|0:3|0:0,0:0:0:0:
136,68,55446,6,0,L|225:66,1,89.9999972534181,4|0,0:0|0:0,0:0:0:0:
316,60,55758,1,0,1:3:0:0:
316,60,55914,1,0,0:0:0:0:
364,150,56071,2,0,L|274:148,1,89.9999972534181,8|0,0:3|0:0,0:0:0:0:
184,142,56383,1,8,1:3:0:0:
184,142,56539,1,0,0:0:0:0:
150,237,56696,6,0,L|239:235,1,89.9999972534181,4|0,0:0|0:0,0:0:0:0:
330,229,57008,1,8,1:3:0:0:
330,229,57164,1,0,0:0:0:0:
378,319,57321,2,0,L|288:317,1,89.9999972534181,8|4,3:0|3:0,0:0:0:0:
198,311,57633,1,0,1:0:0:0:
198,311,57789,1,0,0:0:0:0:
120,238,57946,6,0,B|96:202|96:202|84:156,1,89.9999972534181,4|0,0:0|0:0,0:0:0:0:
103,68,58258,1,0,1:0:0:0:
185,106,58414,2,0,B|230:94|230:94|266:70,1,89.9999972534181,4|0,3:0|0:0,0:0:0:0:
342,21,58727,1,8,3:0:0:0:
417,69,58883,2,0,L|413:158,1,89.9999972534181,0|8,1:0|3:0,0:0:0:0:
410,292,59196,6,0,L|412:336,3,44.999998626709,8|8|8|8,3:0|3:0|3:0|3:0,0:0:0:0:
338,314,59508,2,0,L|340:358,3,44.999998626709,8|8|8|8,3:0|3:0|3:0|3:0,0:0:0:0:
271,277,59821,2,0,L|273:232,3,44.999998626709,4|4|4|4,3:0|3:0|3:0|3:0,0:0:0:0:
199,255,60133,2,0,L|201:210,3,44.999998626709,4|4|4|4,3:0|3:0|3:0|3:0,0:0:0:0:
161,318,60446,6,0,B|107:299|43:311|43:311|22:253,1,179.999994506836,4|0,0:0|1:0,0:0:0:0:
100,204,60914,1,0,0:0:0:0:
57,120,61071,2,0,P|40:80|39:35,2,89.9999972534181,8|8|0,3:0|3:0|1:0,0:0:0:0:
129,58,61539,1,0,0:0:0:0:
225,152,61696,6,0,P|211:68|128:57,1,179.999994506836,4|0,3:0|1:0,3:0:0:0:
58,121,62164,1,4,3:0:0:0:
100,204,62321,2,0,P|116:245|111:289,1,89.9999972534181,0|8,0:0|3:0,0:0:0:0:
76,372,62633,2,0,P|120:376|161:360,1,89.9999972534181,0|0,1:0|0:0,0:0:0:0:
271,384,62946,6,0,P|198:338|201:252,2,179.999994506836,4|0|4,3:0|1:0|3:0,0:0:0:0:
360,372,63727,1,4,3:0:0:0:
432,320,63883,1,0,1:0:0:0:
244,172,64196,6,0,P|157:169|112:242,2,179.999994506836,4|0|8,0:0|1:0|3:0,0:0:0:0:
296,248,64977,1,4,3:0:0:0:
384,236,65133,1,0,1:0:0:0:
204,251,65446,6,0,B|142:121|142:121|166:94,1,179.999994506836,8|0,3:0|1:0,0:0:0:0:
246,42,65914,1,0,0:0:0:0:
335,31,66071,2,0,L|418:67,2,89.9999972534181,4|4|0,3:0|3:0|1:0,0:0:0:0:
297,112,66539,1,0,0:0:0:0:
410,178,66696,2,0,B|413:239|413:239|384:283|384:283|386:349,1,179.999994506836,8|0,3:0|1:0,0:0:0:0:
301,319,67164,1,8,3:0:0:0:
220,359,67321,2,0,P|176:351|139:325,2,89.9999972534181,0|8|0,0:0|3:0|1:0,0:0:0:0:
210,269,67789,1,8,3:0:0:0:
112,153,67946,6,0,P|108:198|124:240,1,89.9999972534181,4|4,3:0|3:0,0:0:0:0:
275,134,68258,2,0,P|290:175|286:220,1,89.9999972534181,0|4,1:0|3:0,0:0:0:0:
210,269,68571,1,8,3:0:0:0:
123,239,68727,1,8,3:0:0:0:
39,206,68883,1,0,1:0:0:0:
143,29,69196,6,0,L|54:26,1,89.9999972534181,8|8,3:0|3:0,0:0:0:0:
230,56,69508,2,0,L|319:52,1,89.9999972534181,0|8,1:0|3:0,0:0:0:0:
408,90,69821,2,0,L|452:82,3,44.999998626709,4|4|4|4,3:0|3:0|3:0|3:0,0:0:0:0:
405,168,70133,2,0,L|360:160,3,44.999998626709,4|0|8|0,3:0|0:0|3:0|0:0,0:0:0:0:
485,158,70446,6,0,B|471:205|471:205|487:265|487:265|461:328,1,179.999994506836,4|0,0:0|1:0,0:0:0:0:
193,367,71071,2,0,P|238:372|280:359,1,89.9999972534181,8|8,3:0|3:0,0:0:0:0:
360,313,71383,1,0,1:0:0:0:
226,287,71539,6,0,B|174:270|94:296|94:296|127:263,1,179.999994506836,0|0,0:0|0:0,0:0:0:0:
192,200,72008,2,0,L|190:110,1,89.9999972534181,0|8,1:0|3:0,0:0:0:0:
103,83,72321,2,0,L|104:172,1,89.9999972534181,4|8,3:0|3:0,0:0:0:0:
273,143,72633,2,0,L|274:53,1,89.9999972534181,0|0,1:0|0:0,0:0:0:0:
444,179,72946,6,0,B|397:194|397:194|357:189,1,89.9999972534181,4|0,0:0|0:0,0:0:0:0:
273,143,73258,1,0,1:0:0:0:
304,258,73414,2,0,B|351:273|351:273|390:268,1,89.9999972534181,4|0,3:0|0:0,0:0:0:0:
450,347,73727,1,8,3:0:0:0:
450,347,74196,6,0,B|388:377|331:340|272:364,1,179.999994506836,4|0,0:0|1:0,0:0:0:0:
93,381,74821,2,0,B|111:321|72:281|72:281|93:249|82:211,1,179.999994506836,8|0,3:0|1:0,0:0:0:0:
123,35,75446,2,0,P|167:27|211:33,1,89.9999972534181,4|4,0:0|3:0,0:0:0:0:
280,91,75758,1,8,1:3:0:0:
286,180,75914,2,0,P|241:188|197:182,1,89.9999972534181,8|8,0:3|0:3,0:0:0:0:
280,91,76227,2,0,L|324:86,2,44.999998626709,8|8|0,0:3|0:3|1:0,0:0:0:0:
405,33,76539,6,0,P|424:74|416:118,1,89.9999972534181,4|0,0:0|0:0,0:0:0:0:
371,195,76852,1,8,3:0:0:0:
286,180,77008,1,0,1:0:0:0:
286,180,77321,2,0,L|288:224,2,44.999998626709,8|4|8,3:0|3:0|3:0,0:0:0:0:
354,308,77633,1,4,0:0:0:0:
354,308,77789,1,0,0:0:0:0:
201,272,77946,6,0,P|157:272|114:285,1,89.9999972534181,8|0,3:0|0:0,0:0:0:0:
43,341,78258,2,0,P|30:298|30:253,1,89.9999972534181,0|0,1:0|0:0,0:0:0:0:
97,192,78571,2,0,P|97:147|84:104,1,89.9999972534181,8|8,3:0|3:0,0:0:0:0:
14,47,78883,2,0,L|98:17,1,89.9999972534181,0|4,1:0|3:0,0:0:0:0:
179,57,79196,2,0,L|263:86,1,89.9999972534181,4|8,3:0|3:0,0:0:0:0:
351,105,79508,2,0,L|435:75,1,89.9999972534181,0|8,1:0|3:0,0:0:0:0:
285,167,79821,2,0,B|294:245|338:246|338:246|380:234|412:251,1,179.999994506836,8|0,3:0|1:0,0:0:0:0:
367,328,80446,6,0,P|394:293|411:252,1,89.9999972534181,8|0,3:0|0:0,0:0:0:0:
412,162,80758,2,0,P|384:126|367:85,1,89.9999972534181,0|8,1:0|3:0,0:0:0:0:
313,12,81071,2,0,P|277:39|236:56,1,89.9999972534181,8|4,3:0|3:0,0:0:0:0:
149,31,81383,2,0,P|107:47|72:75,1,89.9999972534181,0|8,1:0|3:0,0:0:0:0:
38,159,81696,2,0,L|57:246,1,89.9999972534181,8|4,3:0|3:0,0:0:0:0:
89,330,82008,2,0,L|174:357,1,89.9999972534181,0|8,1:0|3:0,0:0:0:0:
288,380,82321,2,0,B|198:336|198:336|185:257,1,179.999994506836,4|8,3:0|3:0,0:0:0:0:
133,167,82946,6,0,P|175:154|220:157,1,89.9999972534181,8|8,3:0|3:0,0:0:0:0:
285,219,83258,1,0,1:0:0:0:
357,271,83414,2,0,P|373:230|366:186,1,89.9999972534181,4|0,3:0|0:0,0:0:0:0:
298,127,83727,1,8,3:0:0:0:
285,219,83883,1,8,3:0:0:0:
220,157,84039,1,0,1:0:0:0:
219,156,84352,6,0,L|198:154,1,18.75,2|2,0:0|0:0,0:0:0:0:
141,159,84508,2,0,B|114:160|114:160|108:182|108:182|89:174|89:174|84:196|84:196|62:190|62:190|56:212|56:212|38:204|38:204|35:224|35:224|17:216|17:216|0:238,1,225,2|0,0:0|0:0,0:0:0:0:
256,192,86071,12,0,89196,0:0:0:0:
