osu file format v14

[General]
AudioFilename: audio.mp3
AudioLeadIn: 0
PreviewTime: 40289
Countdown: 0
SampleSet: Soft
StackLeniency: 0.4
Mode: 0
LetterboxInBreaks: 0
WidescreenStoryboard: 0

[Editor]
DistanceSpacing: 1.1
BeatDivisor: 4
GridSize: 32
TimelineZoom: 2.700005

[Metadata]
Title:Good Luck Lilac
TitleUnicode:グッドラック ライラック
Artist:GATALIS
ArtistUnicode:GATALIS
Creator:b00
Version:Shogun's Easy
Source:アニメガタリズ
Tags:Anime, Gataris, b00, cute, ShogunMoon, Zisa, Hakura, Hightec, Clarence, Shurelia, Minoa Asagaya, Kaede Hondo, Arisu Kamiigusa, Sayaka Senbongi, Miko Koenji, Hisako Tojo
BeatmapID:1461931
BeatmapSetID:690752

[Difficulty]
HPDrainRate:2
CircleSize:2.8
OverallDifficulty:2
ApproachRate:3
SliderMultiplier:0.8
SliderTickRate:1

[Events]
//Background and Video events
0,0,"Animegataris_Eyecatch_01.png",0,0
//Break Periods
//Storyboard Layer 0 (Background)
//Storyboard Layer 1 (Fail)
//Storyboard Layer 2 (Pass)
//Storyboard Layer 3 (Foreground)
//Storyboard Sound Samples

[TimingPoints]
-804,312.5,4,2,0,60,1,0
40446,-100,4,2,0,70,0,1
59196,-100,4,2,0,70,0,0
60446,-100,4,2,0,70,0,1
70446,-100,4,2,0,60,0,0
77946,-100,4,2,0,70,0,1
82946,-100,4,2,0,60,0,0
89196,-100,4,2,0,5,0,0

[Colours]
Combo1 : 220,228,48
Combo2 : 233,124,163
Combo3 : 181,128,244
Combo4 : 46,194,187

[HitObjects]
34,153,446,6,0,B|143:115|128:191|236:149,1,200,2|2,0:0|0:0,0:0:0:0:
288,87,1539,2,0,P|315:157|219:238,1,200,2|2,0:0|0:0,0:0:0:0:
228,151,2633,1,0,0:0:0:0:
288,87,2946,6,0,P|371:64|441:143,1,200,2|2,0:0|0:0,0:0:0:0:
353,152,4039,2,0,P|338:231|321:362,1,200,2|2,0:0|0:0,0:0:0:0:
235,366,5133,1,0,0:0:0:0:
151,337,5446,6,0,P|102:306|34:318,1,120,0|0,1:0|1:0,0:0:0:0:
4,233,6227,1,2,3:0:0:0:
36,151,6539,2,0,P|59:97|111:61,1,120,0|0,1:0|0:0,0:0:0:0:
283,30,7633,1,0,0:0:0:0:
298,116,7946,6,0,P|291:197|265:276,1,160,8|8,3:0|3:0,0:0:0:0:
199,329,8883,1,0,1:0:0:0:
279,364,9196,2,0,L|407:356,2,120,0|8|0,0:0|3:0|1:0,0:0:0:0:
199,329,10446,6,0,L|22:319,1,160,4|8,3:0|0:3,0:0:0:0:
14,235,11383,1,0,1:0:0:0:
35,149,11696,2,0,P|52:87|105:40,2,120,0|4|0,0:0|3:0|1:0,0:0:0:0:
103,203,12946,6,0,L|231:195,1,120,8|4,0:3|3:0,0:0:0:0:
287,135,13727,2,0,L|382:142,1,80,8|8,3:0|3:0,0:0:0:0:
457,236,14508,2,0,P|451:284|440:320,2,80,0|4|0,1:0|3:0|1:0,0:0:0:0:
470,148,15446,6,0,P|448:80|404:40,1,120,4|8,3:0|3:0,0:0:0:0:
327,31,16227,1,4,3:0:0:0:
245,64,16539,2,0,P|190:90|118:70,1,120,8|0,3:0|1:0,0:0:0:0:
49,53,17321,1,4,0:3:0:0:
6,129,17633,1,0,1:0:0:0:
64,194,17946,6,0,B|88:273|31:267|63:363,1,160,2|8,0:0|3:0,0:0:0:0:
144,371,18883,1,0,1:0:0:0:
225,338,19196,2,0,P|283:329|335:371,2,120,0|8|0,0:0|3:0|1:0,0:0:0:0:
144,371,20446,6,0,B|134:292|134:292|151:209,1,160,4|8,3:0|3:0,0:0:0:0:
215,154,21383,1,0,1:0:0:0:
293,193,21696,2,0,P|345:205|409:180,2,120,0|8|0,0:0|3:0|1:0,0:0:0:0:
215,154,22946,6,0,L|86:147,1,120,8|4,3:0|3:0,0:0:0:0:
72,62,23727,2,0,L|166:56,1,80,4|4,3:0|3:0,0:0:0:0:
281,29,24508,2,0,L|372:34,2,80,0|8|0,1:0|3:0|1:0,0:0:0:0:
228,100,25446,6,0,P|196:148|190:222,1,120,4|8,3:0|0:3,0:0:0:0:
239,280,26227,1,8,3:0:0:0:
294,347,26539,2,0,P|234:337|167:353,1,120,4|0,3:0|1:0,0:0:0:0:
89,364,27321,1,10,3:0:0:0:
28,300,27633,1,0,1:0:0:0:
57,216,27946,6,0,B|64:157|64:157|44:120|44:120|51:54,1,160,2|0,0:0|1:0,0:0:0:0:
177,33,29039,2,0,P|227:39|281:96,1,120,2|0,0:0|1:0,0:0:0:0:
320,161,29821,1,2,0:0:0:0:
329,248,30133,1,0,1:0:0:0:
283,323,30446,6,0,L|192:317,1,80,0|2,1:0|0:0,0:0:0:0:
120,347,31071,1,0,1:0:0:0:
50,234,31539,2,0,P|54:174|87:116,1,120,0|0,1:0|0:0,0:0:0:0:
153,70,32321,1,0,1:0:0:0:
240,75,32633,1,0,0:0:0:0:
306,132,32946,6,0,P|385:151|456:116,1,160,4|8,0:0|0:3,0:0:0:0:
489,245,34039,2,0,L|476:372,1,120,2|0,0:0|1:0,0:0:0:0:
389,378,34821,1,4,0:3:0:0:
305,349,35133,1,0,1:0:0:0:
220,325,35446,6,0,B|156:311|164:344|97:329,1,120,8|4,0:3|3:0,0:0:0:0:
43,264,36227,2,0,L|37:179,1,80,8|4,3:0|0:3,0:0:0:0:
87,111,36852,1,8,3:0:0:0:
157,58,37164,2,0,P|215:61|262:108,1,120,8|0,3:0|1:0,0:0:0:0:
312,171,37946,6,0,L|407:163,1,80,6|8,0:0|3:0,0:0:0:0:
432,242,38571,2,0,L|345:250,1,80,8|8,3:0|3:0,0:0:0:0:
289,311,39196,2,0,L|128:297,1,160,4|4,0:0|0:3,0:0:0:0:
87,220,40133,1,4,0:3:0:0:
139,149,40446,6,0,P|169:122|216:106,1,80,4|0,0:0|1:0,0:0:0:0:
293,99,41071,2,0,L|387:110,1,80,4|0,0:3|1:0,0:0:0:0:
450,149,41696,2,0,P|478:194|465:260,2,120,4|8|0,3:0|3:0|1:0,0:0:0:0:
372,108,42946,1,4,3:0:0:0:
287,82,43258,6,0,B|205:56|215:113|124:82,1,160,0|0,1:0|1:0,0:0:0:0:
52,124,44196,2,0,P|25:170|37:243,2,120,8|8|0,3:0|3:0|1:0,0:0:0:0:
108,191,45446,6,0,P|125:235|128:279,1,80,4|0,0:0|1:0,0:0:0:0:
147,353,46071,2,0,P|190:343|233:348,1,80,8|0,3:0|1:0,0:0:0:0:
312,358,46696,2,0,P|361:367|434:338,2,120,4|8|0,0:3|0:3|1:0,0:0:0:0:
225,346,47946,1,4,0:3:0:0:
182,268,48258,6,0,P|176:191|215:121,1,160,0|0,1:0|1:0,0:0:0:0:
291,76,49196,1,4,0:0:0:0:
367,118,49508,2,0,P|405:186|400:265,1,160,0|4,1:0|1:3,0:0:0:0:
334,325,50446,6,0,L|240:317,1,80,8|0,0:3|1:0,0:0:0:0:
182,268,51071,2,0,L|58:278,1,120,4|0,3:0|0:0,0:0:0:0:
17,153,52008,2,0,P|21:115|41:61,1,80,0|8,1:0|0:3,0:0:0:0:
108,28,52633,1,0,1:0:0:0:
188,63,52946,6,0,P|274:94|373:57,1,200,8|4,3:0|0:3,0:0:0:0:
456,33,54039,2,0,B|478:93|444:89|462:153,1,120,0|0,0:0|1:0,0:0:0:0:
493,233,54821,1,4,0:3:0:0:
470,318,55133,1,0,1:0:0:0:
399,371,55446,6,0,P|352:346|277:361,2,120,4|0|8,0:0|0:0|1:3,0:0:0:0:
470,318,56696,2,0,P|482:257|519:194,2,120,8|0|0,0:3|0:0|1:0,0:0:0:0:
394,273,57946,2,0,P|383:214|355:154,2,120,4|4|0,0:0|3:0|1:0,0:0:0:0:
316,315,59196,6,0,L|234:308,1,80,8|8,3:0|3:0,0:0:0:0:
148,305,59821,1,4,3:0:0:0:
96,233,60133,1,4,3:0:0:0:
90,145,60446,6,0,P|112:118|167:102,1,80,4|0,0:0|1:0,0:0:0:0:
240,113,61071,2,0,L|234:201,1,80,8|0,3:0|1:0,0:0:0:0:
302,248,61696,2,0,P|363:267|426:239,2,120,4|4|0,3:0|3:0|1:0,0:0:0:0:
234,192,62946,1,4,3:0:0:0:
177,125,63258,6,0,B|95:99|105:156|14:125,1,160,0|0,1:0|1:0,0:0:0:0:
63,50,64196,2,0,P|135:32|194:43,2,120,4|8|0,3:0|3:0|1:0,0:0:0:0:
20,127,65446,6,0,L|25:212,1,80,8|8,3:0|3:0,0:0:0:0:
93,262,66071,2,0,P|136:252|179:257,1,80,4|0,3:0|1:0,0:0:0:0:
245,302,66696,2,0,L|372:291,2,120,8|8|0,3:0|3:0|1:0,0:0:0:0:
171,255,67946,1,4,3:0:0:0:
165,167,68258,6,0,P|191:99|270:70,1,160,0|0,1:0|1:0,0:0:0:0:
353,90,69196,1,8,3:0:0:0:
426,138,69508,2,0,L|417:312,1,160,0|4,1:0|3:0,0:0:0:0:
332,323,70446,6,0,L|327:232,1,80,4|0,0:0|1:0,0:0:0:0:
263,183,71071,1,8,3:0:0:0:
193,128,71383,2,0,P|118:121|63:186,1,160,0|0,1:0|1:0,0:0:0:0:
49,266,72321,1,4,3:0:0:0:
106,332,72633,1,0,1:0:0:0:
190,357,72946,6,0,L|328:364,2,120,4|4|0,0:0|3:0|1:0,0:0:0:0:
187,268,74196,2,0,L|282:273,1,80,4|0,0:0|1:0,0:0:0:0:
347,236,74821,2,0,L|434:231,1,80,8|0,3:0|1:0,0:0:0:0:
489,169,75446,6,0,P|476:108|430:70,1,120,4|8,3:0|0:3,0:0:0:0:
349,47,76227,1,8,0:3:0:0:
264,72,76539,2,0,B|201:95|205:57|141:73,1,120,4|0,3:0|1:0,0:0:0:0:
93,142,77321,1,8,3:0:0:0:
120,225,77633,1,4,0:0:0:0:
192,274,77946,6,0,P|201:306|211:366,2,80,8|0|8,3:0|1:0|3:0,0:0:0:0:
120,225,78883,1,0,1:0:0:0:
93,142,79196,2,0,P|99:102|110:64,2,80,4|0|8,3:0|1:0|3:0,0:0:0:0:
120,225,80133,1,0,1:0:0:0:
199,185,80446,6,0,P|242:171|290:165,2,80,8|0|8,3:0|1:0|3:0,0:0:0:0:
192,274,81383,1,0,1:0:0:0:
247,342,81696,2,0,P|287:360|332:364,2,80,8|0|4,3:0|1:0|3:0,0:0:0:0:
305,276,82633,1,8,3:0:0:0:
354,203,82946,6,0,P|347:138|307:89,1,120,8|4,3:0|3:0,0:0:0:0:
247,38,83727,1,8,3:0:0:0:
160,50,84039,1,0,1:0:0:0:
74,150,84508,6,0,B|40:240|106:234|69:335|69:335|99:321|128:324,1,240,2|0,0:0|0:0,0:0:0:0:
256,192,86227,12,0,89196,0:0:0:0:
