osu file format v14

[General]
AudioFilename: audio.mp3
AudioLeadIn: 0
PreviewTime: 40289
Countdown: 0
SampleSet: Soft
StackLeniency: 0.7
Mode: 0
LetterboxInBreaks: 0
WidescreenStoryboard: 1

[Editor]
DistanceSpacing: 1
BeatDivisor: 4
GridSize: 8
TimelineZoom: 3.000004

[Metadata]
Title:Good Luck Lilac
TitleUnicode:グッドラック ライラック
Artist:GATALIS
ArtistUnicode:GATALIS
Creator:b00
Version:Hakura's Insane
Source:アニメガタリズ
Tags:Anime, Gataris, b00, cute, ShogunMoon, Zisa, Hakura, Hightec, Clarence, Shurelia, Minoa Asagaya, Kaede Hondo, Arisu Kamiigusa, Sayaka Senbongi, Miko Koenji, Hisako Tojo
BeatmapID:1478625
BeatmapSetID:690752

[Difficulty]
HPDrainRate:6
CircleSize:4
OverallDifficulty:8
ApproachRate:9
SliderMultiplier:1.7
SliderTickRate:1

[Events]
//Background and Video events
0,0,"Animegataris_Eyecatch_01.png",0,0
//Break Periods
//Storyboard Layer 0 (Background)
//Storyboard Layer 1 (Fail)
//Storyboard Layer 2 (Pass)
//Storyboard Layer 3 (Foreground)
//Storyboard Sound Samples

[TimingPoints]
-804,312.5,4,2,0,70,1,0
7008,-200,4,2,0,70,0,0
7946,-100,4,2,0,70,0,0
9977,-66.6666666666667,4,2,0,70,0,0
10446,-100,4,2,0,70,0,0
12477,-66.6666666666667,4,2,0,70,0,0
12946,-100,4,2,0,70,0,0
19977,-66.6666666666667,4,2,0,70,0,0
20446,-100,4,2,0,70,0,0
22477,-66.6666666666667,4,2,0,70,0,0
22946,-100,4,2,0,70,0,0
27946,-133.333333333333,4,2,0,70,0,0
32946,-100,4,2,0,70,0,0
40446,-100,4,2,0,70,0,1
41696,-100,4,2,0,70,0,0
45446,-100,4,2,0,70,0,1
46696,-100,4,2,0,70,0,0
49821,-100,4,2,0,70,0,1
50446,-100,4,2,0,70,0,0
55446,-100,4,2,0,70,0,1
56071,-100,4,2,0,70,0,0
56696,-100,4,2,0,70,0,1
57321,-100,4,2,0,70,0,0
57946,-100,4,2,0,70,0,1
59196,-100,4,2,0,70,0,0
60446,-100,4,2,0,70,0,1
61696,-100,4,2,0,70,0,0
65446,-100,4,2,0,70,0,1
66696,-100,4,2,0,70,0,0
69821,-100,4,2,0,70,0,1
70446,-100,4,2,0,70,0,0
72946,-100,4,2,0,70,0,1
73727,-100,4,2,0,70,0,0
74196,-100,4,2,0,70,0,1
74508,-100,4,2,0,70,0,0
76539,-100,4,2,0,70,0,1
77164,-100,4,2,0,70,0,0
77946,-100,4,2,0,70,0,1
78258,-100,4,2,0,70,0,0
79196,-100,4,2,0,70,0,1
79508,-100,4,2,0,70,0,0
80446,-100,4,2,0,70,0,1
80758,-100,4,2,0,70,0,0
81696,-100,4,2,0,70,0,1
82008,-100,4,2,0,70,0,0
86071,-100,4,2,0,30,0,0

[Colours]
Combo1 : 220,228,48
Combo2 : 233,124,163
Combo3 : 170,85,255
Combo4 : 46,194,187

[HitObjects]
398,62,446,5,2,0:0:0:0:
405,99,602,1,2,0:0:0:0:
413,136,758,1,2,0:0:0:0:
324,77,914,1,2,0:0:0:0:
339,151,1227,1,2,0:0:0:0:
472,47,1539,5,2,0:0:0:0:
487,121,1852,1,2,0:0:0:0:
494,158,2008,1,2,0:0:0:0:
502,195,2164,1,0,0:0:0:0:
509,232,2321,1,2,0:0:0:0:
265,136,2946,5,2,0:0:0:0:
258,173,3102,1,2,0:0:0:0:
250,210,3258,1,2,0:0:0:0:
339,151,3414,1,2,0:0:0:0:
324,225,3727,1,2,0:0:0:0:
191,121,4039,5,2,0:0:0:0:
176,195,4352,1,2,0:0:0:0:
169,232,4508,1,2,0:0:0:0:
161,269,4664,1,2,0:0:0:0:
154,306,4821,1,2,0:0:0:0:
87,62,5133,2,0,L|75:123,3,42.5,0|0|0|0,0:0|0:0|0:0|0:0,0:0:0:0:
87,62,5446,5,0,1:0:0:0:
65,173,5602,1,0,0:0:0:0:
198,84,5758,1,2,0:3:0:0:
176,195,5914,2,0,L|158:296,1,85,0|0,1:0|0:0,0:0:0:0:
284,159,6227,1,2,3:0:0:0:
306,48,6383,1,0,0:0:0:0:
395,181,6539,1,0,1:0:0:0:
237,309,7008,6,0,B|236:258|276:237|276:237|256:197|288:149,1,170,0|0,0:0|0:0,0:0:0:0:
237,309,7946,6,0,P|164:263|70:299,1,170,8|0,3:0|1:0,0:0:0:0:
148,369,8414,1,4,0:3:0:0:
10,334,8571,2,0,P|-6:281|20:233,1,85,8|0,3:0|0:0,0:0:0:0:
66,196,8883,1,0,1:0:0:0:
87,282,9039,6,0,P|167:263|237:309,1,170,8|4,3:0|3:0,0:0:0:0:
294,379,9508,1,0,1:0:0:0:
307,253,9664,1,8,3:0:0:0:
364,323,9821,1,8,3:0:0:0:
377,197,9977,6,0,P|418:177|442:130,1,63.7500024318696,2|0,0:0|0:0,0:0:0:0:
377,197,10133,2,0,P|445:119|379:34,1,191.250007295609,0|0,1:0|0:0,0:0:0:0:
357,112,10446,6,0,B|294:108|294:108|258:136|258:136|191:132,1,170,4|0,3:0|1:0,0:0:0:0:
111,125,10914,1,4,0:3:0:0:
141,287,11071,2,0,P|154:238|144:199,1,85,8|0,0:3|0:0,0:0:0:0:
111,125,11383,1,0,1:0:0:0:
196,132,11539,6,0,B|257:135|257:135|293:107|293:107|356:111,1,170,8|8,3:0|3:0,0:0:0:0:
448,119,12008,1,0,1:0:0:0:
350,204,12164,1,4,3:0:0:0:
441,211,12321,1,4,3:0:0:0:
343,296,12477,6,0,P|306:269|253:270,1,63.7500024318696,2|0,0:0|0:0,0:0:0:0:
343,296,12633,2,0,P|242:272|198:370,1,191.250007295609,0|0,1:0|0:0,0:0:0:0:
279,349,12946,6,0,L|234:146,1,170,8|0,0:3|1:0,0:0:0:0:
224,99,13414,2,0,L|245:196,1,85,4|0,3:0|0:0,0:0:0:0:
279,349,13727,2,0,L|258:252,1,85,8|0,3:0|1:0,0:0:0:0:
18,277,14039,6,0,L|221:232,1,170,8|0,3:0|0:0,0:0:0:0:
315,203,14508,2,0,B|356:180|356:180|393:181,1,85,0|0,1:0|0:0,0:0:0:0:
435,319,14821,2,0,B|394:294|394:294|376:261,1,85,4|0,3:0|0:0,0:0:0:0:
479,158,15133,2,0,B|478:205|478:205|447:252,1,85,0|0,1:0|0:0,0:0:0:0:
416,95,15446,6,0,L|263:95,1,127.5,4|0,3:0|0:0,0:0:0:0:
260,95,15758,1,0,1:0:0:0:
113,95,15914,2,0,L|170:95,1,42.5,8|0,3:0|0:0,0:0:0:0:
171,126,16227,2,0,L|129:126,1,42.5,4|0,3:0|0:0,0:0:0:0:
6,223,16539,6,0,L|159:223,1,127.5,8|0,3:0|0:0,0:0:0:0:
162,223,16851,1,8,3:0:0:0:
142,318,17008,1,0,1:0:0:0:
257,243,17164,1,8,3:0:0:0:
237,338,17321,2,0,L|279:338,1,42.5,4|0,0:3|0:0,0:0:0:0:
264,369,17633,2,0,L|222:369,1,42.5,0|0,1:0|0:0,0:0:0:0:
416,312,17946,6,0,L|427:123,1,170,2|0,0:0|1:0,0:0:0:0:
434,49,18414,1,4,3:0:0:0:
269,81,18571,2,0,P|311:98|361:86,1,85,8|0,3:0|0:0,0:0:0:0:
434,49,18883,1,0,1:0:0:0:
425,142,19039,6,0,L|416:312,1,170,4|4,3:0|3:0,0:0:0:0:
320,304,19508,1,0,1:0:0:0:
328,208,19664,1,8,3:0:0:0:
224,296,19821,1,8,3:0:0:0:
232,200,19977,6,0,P|213:158|167:132,1,63.7500024318696,2|0,0:0|0:0,0:0:0:0:
232,200,20133,2,0,P|156:128|69:191,1,191.250007295609,0|0,1:0|0:0,0:0:0:0:
150,214,20446,6,0,B|194:87|194:87|236:72,1,170,4|0,3:0|1:0,0:0:0:0:
320,53,20914,1,4,3:0:0:0:
480,2,21071,2,0,L|393:30,1,85,8|0,3:0|0:0,0:0:0:0:
320,53,21383,1,0,1:0:0:0:
227,75,21539,6,0,B|194:87|194:87|150:214,1,170,8|8,3:0|3:0,0:0:0:0:
120,308,22008,1,0,1:0:0:0:
244,244,22164,1,8,3:0:0:0:
214,338,22321,1,8,3:0:0:0:
338,274,22477,6,0,P|379:255|405:209,1,63.7500024318696,2|0,0:0|0:0,0:0:0:0:
338,274,22633,2,0,P|409:198|346:111,1,191.250007295609,0|0,1:0|0:0,0:0:0:0:
325,191,22946,6,0,P|249:147|163:197,1,170,8|0,3:0|1:0,0:0:0:0:
105,215,23414,2,0,P|145:202|177:175,1,85,4|2,3:0|0:0,0:0:0:0:
325,191,23727,2,0,P|256:148|224:148,1,85,4|0,3:0|1:0,0:0:0:0:
33,283,24039,6,0,P|102:313|186:264,1,170,4|0,3:0|0:0,0:0:0:0:
330,293,24508,2,0,P|261:250|229:250,1,85,0|2,1:0|0:0,0:0:0:0:
109,313,24821,2,0,P|180:274|196:247,1,85,8|8,3:0|3:0,0:0:0:0:
200,105,25133,2,0,P|197:186|213:213,1,85,0|8,1:0|3:0,0:0:0:0:
44,105,25446,6,0,L|197:105,1,127.5,4|0,3:0|0:0,0:0:0:0:
200,105,25758,1,0,1:0:0:0:
347,105,25914,2,0,L|290:105,1,42.5,8|0,0:3|0:0,0:0:0:0:
289,136,26227,2,0,L|331:136,1,42.5,8|0,3:0|0:0,0:0:0:0:
454,233,26539,6,0,L|301:233,1,127.5,4|0,3:0|0:0,0:0:0:0:
298,233,26851,1,8,3:0:0:0:
318,328,27008,1,0,1:0:0:0:
203,253,27164,1,8,3:0:0:0:
203,253,27242,1,8,3:0:0:0:
203,253,27321,5,10,3:0:0:0:
318,328,27477,1,8,3:0:0:0:
278,138,27633,1,0,1:0:0:0:
393,213,27789,1,0,0:0:0:0:
197,167,27946,6,0,B|147:162|147:162|118:176|118:176|46:170,1,127.500004863739,2|0,0:0|0:0,0:0:0:0:
105,96,28414,1,0,0:0:0:0:
315,167,28571,2,0,B|365:162|365:162|394:176|394:176|466:170,1,127.500004863739,0|0,1:0|0:0,0:0:0:0:
256,233,29039,6,0,L|255:368,1,127.500004863739,2|0,0:0|0:0,0:0:0:0:
160,227,29508,2,0,L|161:138,1,63.7500024318696,0|0,1:0|0:0,0:0:0:0:
352,227,29821,2,0,L|351:138,1,63.7500024318696,2|0,0:0|0:0,0:0:0:0:
256,298,30133,1,0,1:0:0:0:
256,86,30289,1,2,0:0:0:0:
351,163,30446,6,0,L|352:227,1,63.7500024318696,0|0,1:0|0:0,0:0:0:0:
160,163,30758,2,0,L|160:227,1,63.7500024318696,2|0,0:0|0:0,0:0:0:0:
255,360,31071,2,0,L|255:232,1,127.500004863739,0|0,1:0|0:0,0:0:0:0:
255,24,31539,6,0,L|255:151,1,127.500004863739,0|0,1:0|0:0,0:0:0:0:
350,99,32008,2,0,L|350:162,1,63.7500024318696,0|0,0:0|0:0,0:0:0:0:
159,99,32321,2,0,L|158:162,1,63.7500024318696,0|2,1:0|0:0,0:0:0:0:
255,232,32633,1,0,0:0:0:0:
286,232,32711,1,0,0:0:0:0:
317,232,32789,1,0,0:0:0:0:
348,233,32867,1,0,0:0:0:0:
379,234,32946,6,0,P|393:281|377:322,1,85,4|0,0:0|0:0,0:0:0:0:
427,167,33258,2,0,P|460:131|504:124,1,85,0|0,1:0|0:0,0:0:0:0:
350,162,33571,1,8,0:3:0:0:
379,234,33727,2,0,P|393:281|377:322,1,85,4|0,0:3|1:0,0:0:0:0:
272,195,34039,6,0,P|261:154|275:114,1,85,2|0,0:0|0:0,0:0:0:0:
352,72,34352,1,8,0:3:0:0:
275,114,34508,2,0,P|261:154|272:195,1,85,0|0,1:0|0:0,0:0:0:0:
379,234,34821,2,0,P|393:273|382:314,1,85,4|0,0:3|0:0,0:0:0:0:
226,289,35133,2,0,P|265:275|306:286,1,85,0|0,1:0|0:0,0:0:0:0:
153,364,35446,6,0,L|143:173,1,170,8|0,0:3|1:0,0:0:0:0:
139,109,35914,2,0,L|144:207,1,85,4|0,3:0|0:0,0:0:0:0:
148,279,36227,1,8,3:0:0:0:
72,241,36383,1,0,1:0:0:0:
219,231,36539,6,0,B|264:237|264:237|317:226,1,85,4|0,0:3|0:0,0:0:0:0:
488,192,36852,2,0,B|443:186|443:186|390:197,1,85,8|0,3:0|1:0,0:0:0:0:
382,299,37164,1,8,3:0:0:0:
324,123,37321,1,4,3:0:0:0:
302,228,37477,1,8,3:0:0:0:
404,194,37633,1,0,1:0:0:0:
222,157,37789,1,4,3:0:0:0:
185,339,37946,6,0,L|174:240,1,85,6|0,0:0|0:0,0:0:0:0:
327,339,38258,2,0,L|338:240,1,85,8|4,3:0|3:0,0:0:0:0:
98,292,38571,2,0,L|87:193,1,85,8|4,3:0|3:0,0:0:0:0:
414,292,38883,2,0,L|425:193,1,85,8|4,3:0|3:0,0:0:0:0:
256,0,39196,6,0,L|256:64,3,42.5,4|8|8|8,0:0|0:3|0:3|0:3,0:0:0:0:
256,112,39508,2,0,L|256:176,3,42.5,8|8|8|8,0:3|0:3|0:3|0:3,0:0:0:0:
256,224,39821,6,0,L|256:288,3,42.5,4|4|4|4,0:3|0:3|0:3|0:3,0:0:0:0:
256,280,40133,1,4,0:3:0:0:
256,294,40211,1,4,0:3:0:0:
256,308,40289,1,4,0:3:0:0:
256,322,40367,1,4,0:3:0:0:
256,336,40446,6,0,L|353:317,1,85,4|0,0:0|0:0,0:0:0:0:
401,220,40758,1,0,1:0:0:0:
431,370,40914,1,0,0:0:0:0:
423,203,41071,1,4,0:3:0:0:
453,353,41227,1,4,0:3:0:0:
445,186,41383,1,0,1:0:0:0:
475,336,41539,1,0,0:0:0:0:
379,237,41696,6,0,B|317:230|317:230|282:259|282:259|210:251,1,170,4|0,3:0|1:0,0:0:0:0:
123,235,42164,2,0,P|122:186|154:145,1,85,8|0,3:0|0:0,0:0:0:0:
35,306,42477,2,0,P|36:355|4:396,1,85,4|0,0:3|1:0,0:0:0:0:
33,213,42789,1,8,0:3:0:0:
124,319,42946,6,0,L|244:329,1,85,4|0,3:0|0:0,0:0:0:0:
377,342,43258,1,0,1:0:0:0:
124,319,43414,2,0,L|310:335,1,170,4|4,3:0|3:0,0:0:0:0:
465,350,43883,2,0,P|478:310|469:269,1,85,0|0,1:0|0:0,0:0:0:0:
345,252,44196,6,0,L|225:242,1,85,8|0,3:0|0:0,0:0:0:0:
92,229,44508,1,0,1:0:0:0:
345,252,44664,2,0,L|159:236,1,170,8|4,3:0|3:0,0:0:0:0:
4,221,45133,2,0,P|-9:181|0:140,1,85,0|0,1:0|0:0,0:0:0:0:
117,0,45446,6,0,L|136:97,1,85,4|0,0:0|0:0,0:0:0:0:
233,145,45758,1,0,1:0:0:0:
83,175,45914,1,8,3:0:0:0:
250,167,46071,1,8,3:0:0:0:
100,197,46227,1,8,3:0:0:0:
267,189,46383,1,0,1:0:0:0:
117,219,46539,1,0,0:0:0:0:
216,123,46696,6,0,L|388:103,1,170,4|0,0:3|1:0,0:0:0:0:
467,45,47164,2,0,P|486:91|478:137,1,85,8|0,0:3|0:0,0:0:0:0:
428,278,47477,2,0,P|409:232|417:186,1,85,4|0,0:3|1:0,0:0:0:0:
384,103,47789,1,8,0:3:0:0:
289,116,47946,5,4,0:3:0:0:
302,211,48102,1,4,0:3:0:0:
207,224,48258,1,0,1:0:0:0:
220,319,48414,2,0,P|129:278|114:199,1,170,8|8,0:3|0:3,0:0:0:0:
79,141,48883,2,0,P|107:182|106:237,1,85,0|0,1:0|0:0,0:0:0:0:
220,129,49196,5,4,0:0:0:0:
207,224,49352,1,8,3:0:0:0:
302,237,49508,1,0,1:0:0:0:
289,332,49664,1,8,3:0:0:0:
397,250,49821,1,4,0:3:0:0:
397,250,49899,1,4,0:3:0:0:
397,250,49977,1,4,0:3:0:0:
384,345,50133,1,4,1:3:0:0:
289,332,50289,1,8,0:3:0:0:
479,358,50446,6,0,L|503:169,1,170,8|0,0:3|1:0,0:0:0:0:
469,100,50914,1,4,3:0:0:0:
411,172,51071,1,4,3:0:0:0:
377,85,51227,2,0,P|338:65|271:82,1,85,8|0,3:0|1:0,0:0:0:0:
238,136,51539,6,0,L|216:304,1,170,0|0,0:0|0:0,0:0:0:0:
128,337,52008,2,0,P|129:278|144:247,1,85,0|4,1:0|0:3,0:0:0:0:
302,277,52321,2,0,P|304:319|290:359,1,85,8|0,0:3|0:0,0:0:0:0:
227,220,52633,2,0,L|238:136,1,85,0|0,1:0|0:0,0:0:0:0:
256,44,52946,5,8,3:0:0:0:
326,106,53102,1,0,0:0:0:0:
238,135,53258,1,0,1:0:0:0:
168,73,53414,1,8,0:3:0:0:
150,164,53571,1,8,0:3:0:0:
132,255,53727,2,0,L|112:345,1,85,4|0,0:3|1:0,0:0:0:0:
219,218,54039,6,0,B|281:211|281:211|316:240|316:240|388:232,1,170,0|0,0:0|0:0,0:0:0:0:
470,270,54508,2,0,P|481:219|466:186,1,85,0|8,1:0|0:3,0:0:0:0:
391,130,54821,2,0,P|335:95|235:99,2,127.5,4|8|0,0:3|0:3|0:0,0:0:0:0:
377,233,55446,6,0,L|370:333,1,85,4|0,0:0|0:0,0:0:0:0:
349,215,55758,1,0,1:3:0:0:
343,299,55914,1,0,0:0:0:0:
321,197,56071,2,0,L|314:297,1,85,8|0,0:3|0:0,0:0:0:0:
293,179,56383,1,8,1:3:0:0:
287,263,56539,1,0,0:0:0:0:
135,233,56696,6,0,L|142:333,1,85,8|0,0:3|0:0,0:0:0:0:
163,215,57008,1,8,1:3:0:0:
168,299,57164,1,0,0:0:0:0:
191,197,57321,2,0,L|198:297,1,85,8|4,3:0|3:0,0:0:0:0:
219,179,57633,1,0,1:0:0:0:
225,263,57789,1,0,0:0:0:0:
141,316,57946,6,0,L|135:231,1,85,4|0,0:0|0:0,0:0:0:0:
129,134,58258,1,0,1:0:0:0:
112,333,58414,2,0,L|106:248,1,85,4|0,3:0|0:0,0:0:0:0:
100,151,58726,1,8,3:0:0:0:
18,204,58883,1,0,1:0:0:0:
106,248,59039,1,8,3:0:0:0:
188,195,59196,5,8,3:0:0:0:
194,292,59352,2,0,L|180:366,2,42.5,8|8|8,3:0|3:0|3:0,0:0:0:0:
276,239,59664,2,0,L|289:164,2,42.5,8|8|4,3:0|3:0|3:0,0:0:0:0:
282,336,59977,6,0,L|268:410,2,42.5,4|4|4,3:0|3:0|3:0,0:0:0:0:
354,336,60289,1,4,3:0:0:0:
385,337,60367,1,4,3:0:0:0:
416,338,60446,5,4,0:0:0:0:
425,222,60602,1,0,0:0:0:0:
392,322,60758,1,0,1:0:0:0:
401,206,60914,1,8,3:0:0:0:
368,306,61071,1,8,3:0:0:0:
377,190,61227,1,8,3:0:0:0:
344,290,61383,1,0,1:0:0:0:
353,174,61539,1,0,0:0:0:0:
320,274,61696,6,0,P|258:246|148:306,1,170,4|0,3:0|1:0,0:0:0:0:
72,320,62164,2,0,P|64:276|75:237,1,85,4|0,3:0|0:0,0:0:0:0:
154,111,62477,2,0,P|162:155|151:194,1,85,8|0,3:0|1:0,0:0:0:0:
70,147,62789,1,0,0:0:0:0:
239,68,62946,6,0,L|249:188,1,85,4|0,3:0|0:0,0:0:0:0:
262,321,63258,1,0,1:0:0:0:
239,68,63414,2,0,L|255:254,1,170,8|4,3:0|3:0,0:0:0:0:
262,321,63883,2,0,P|302:334|343:325,1,85,0|0,1:0|0:0,0:0:0:0:
170,327,64196,6,0,L|160:207,1,85,4|0,3:0|0:0,0:0:0:0:
147,74,64508,1,0,1:0:0:0:
170,327,64664,2,0,L|154:141,1,170,8|4,3:0|3:0,0:0:0:0:
147,74,65133,2,0,P|107:61|66:70,1,85,0|0,1:0|0:0,0:0:0:0:
223,108,65446,6,0,L|324:96,1,85,8|0,3:0|0:0,0:0:0:0:
506,73,65758,2,0,L|405:85,1,85,8|0,3:0|0:0,0:0:0:0:
313,130,66071,1,4,3:0:0:0:
428,114,66227,1,4,3:0:0:0:
318,162,66383,1,0,1:0:0:0:
433,146,66539,1,0,0:0:0:0:
324,192,66696,6,0,L|140:215,1,170,8|0,3:0|1:0,0:0:0:0:
66,185,67164,2,0,P|64:227|85:274,1,85,8|0,3:0|0:0,0:0:0:0:
182,384,67477,2,0,P|184:342|163:295,1,85,8|0,3:0|1:0,0:0:0:0:
43,355,67789,1,8,3:0:0:0:
79,266,67946,5,4,3:0:0:0:
168,302,68102,1,4,3:0:0:0:
204,213,68258,1,0,1:0:0:0:
293,249,68414,2,0,P|366:285|455:243,1,170,4|8,3:0|3:0,0:0:0:0:
464,175,68883,2,0,P|463:217|444:255,1,85,0|0,1:0|0:0,0:0:0:0:
468,82,69196,5,8,3:0:0:0:
379,118,69352,1,8,3:0:0:0:
343,29,69508,1,0,1:0:0:0:
254,65,69664,1,8,3:0:0:0:
290,154,69821,1,4,3:0:0:0:
351,36,69977,1,4,3:0:0:0:
351,36,70055,1,4,3:0:0:0:
351,36,70133,1,4,3:0:0:0:
254,65,70289,1,8,3:0:0:0:
379,118,70446,6,0,L|370:302,1,170,4|0,0:0|1:0,0:0:0:0:
367,384,70914,1,8,3:0:0:0:
452,338,71071,1,8,3:0:0:0:
370,287,71228,1,8,3:0:0:0:
285,333,71383,1,0,1:0:0:0:
287,236,71539,6,0,B|225:229|225:229|190:258|190:258|118:250,1,170,0|0,0:0|0:0,0:0:0:0:
43,240,72008,2,0,L|128:251,1,85,0|8,1:0|3:0,0:0:0:0:
217,112,72321,2,0,L|165:179,1,85,4|8,3:0|3:0,0:0:0:0:
239,325,72633,2,0,L|206:246,1,85,0|0,1:0|0:0,0:0:0:0:
87,169,72946,5,4,0:0:0:0:
278,182,73258,1,0,1:0:0:0:
278,182,73414,1,4,3:0:0:0:
57,168,73727,1,8,3:0:0:0:
308,183,74196,6,0,P|378:142|458:196,1,170,4|0,0:0|1:0,0:0:0:0:
381,228,74664,1,0,0:0:0:0:
230,229,74821,2,0,P|219:176|236:134,1,85,8|8,3:0|3:0,0:0:0:0:
381,228,75133,2,0,P|392:281|375:323,1,85,0|8,1:0|3:0,0:0:0:0:
308,183,75446,5,4,3:0:0:0:
309,280,75602,1,4,3:0:0:0:
149,285,75758,1,8,1:3:0:0:
148,188,75914,2,0,L|148:90,1,85,8|8,0:3|0:3,0:0:0:0:
294,203,76227,1,8,0:3:0:0:
295,300,76383,1,0,1:0:0:0:
133,303,76539,6,0,L|67:303,1,42.5,4|0,3:0|0:0,0:0:0:0:
71,322,76852,2,0,L|113:322,1,42.5,8|0,3:0|0:0,0:0:0:0:
51,341,77008,2,0,L|93:341,1,42.5,0|0,1:0|0:0,0:0:0:0:
228,250,77321,5,8,3:0:0:0:
228,250,77399,1,4,3:0:0:0:
228,250,77477,1,8,3:0:0:0:
228,250,77555,1,4,3:0:0:0:
228,250,77633,1,4,0:0:0:0:
95,100,77946,6,0,L|88:204,1,85,8|0,3:0|0:0,0:0:0:0:
116,203,78258,2,0,L|122:119,1,85,0|0,1:0|0:0,0:0:0:0:
149,138,78571,2,0,L|142:242,1,85,8|8,3:0|3:0,0:0:0:0:
170,241,78883,2,0,L|176:157,1,85,0|4,1:0|3:0,0:0:0:0:
284,13,79196,6,0,L|277:117,1,85,4|8,3:0|3:0,0:0:0:0:
305,116,79508,2,0,L|311:32,1,85,0|8,1:0|3:0,0:0:0:0:
338,51,79821,2,0,L|331:155,1,85,8|8,3:0|3:0,0:0:0:0:
359,154,80133,2,0,L|365:70,1,85,0|0,1:0|0:0,0:0:0:0:
180,132,80446,6,0,L|173:236,1,85,8|0,3:0|0:0,0:0:0:0:
234,384,80758,2,0,L|241:280,1,85,0|8,1:0|3:0,0:0:0:0:
80,287,81071,2,0,L|184:294,1,85,8|4,3:0|3:0,0:0:0:0:
332,233,81383,2,0,L|228:226,1,85,0|8,1:0|3:0,0:0:0:0:
347,72,81696,6,0,L|340:176,1,85,8|4,3:0|3:0,0:0:0:0:
401,324,82008,2,0,L|408:220,1,85,0|8,1:0|3:0,0:0:0:0:
247,227,82321,2,0,L|351:234,1,85,4|0,3:0|0:0,0:0:0:0:
499,173,82633,2,0,L|395:166,1,85,8|8,3:0|3:0,0:0:0:0:
401,324,82946,5,8,3:0:0:0:
341,156,83102,1,8,3:0:0:0:
233,384,83258,1,0,1:0:0:0:
173,216,83414,2,0,L|138:132,1,85,4|0,3:0|0:0,0:0:0:0:
287,270,83727,1,8,3:0:0:0:
119,330,83883,1,8,3:0:0:0:
227,102,84039,1,0,1:0:0:0:
256,192,84508,12,2,85446,0:0:0:0:
256,168,86071,6,0,L|256:248,3,42.5,0|0|0|0,0:0|0:0|0:0|0:0,0:0:0:0:
256,192,86383,12,0,89196,0:0:0:0:
