osu file format v14

[General]
AudioFilename: audio.mp3
AudioLeadIn: 0
PreviewTime: 40289
Countdown: 0
SampleSet: Soft
StackLeniency: 0.4
Mode: 0
LetterboxInBreaks: 0
WidescreenStoryboard: 1

[Editor]
DistanceSpacing: 1
BeatDivisor: 4
GridSize: 32
TimelineZoom: 3.400004

[Metadata]
Title:Good Luck Lilac
TitleUnicode:グッドラック ライラック
Artist:GATALIS
ArtistUnicode:GATALIS
Creator:b00
Version:Animation Frustration
Source:アニメガタリズ
Tags:Anime, Gataris, b00, cute, ShogunMoon, Zisa, Hakura, Hightec, Clarence, Shurelia, Minoa Asagaya, Kaede Hondo, Arisu Kamiigusa, Sayaka Senbongi, Miko Koenji, Hisako Tojo
BeatmapID:1461813
BeatmapSetID:690752

[Difficulty]
HPDrainRate:6
CircleSize:4
OverallDifficulty:8.2
ApproachRate:9.2
SliderMultiplier:1.76
SliderTickRate:1

[Events]
//Background and Video events
0,0,"Animegataris_Eyecatch_01.png",0,0
//Break Periods
//Storyboard Layer 0 (Background)
//Storyboard Layer 1 (Fail)
//Storyboard Layer 2 (Pass)
//Storyboard Layer 3 (Foreground)
//Storyboard Sound Samples

[TimingPoints]
-804,312.5,4,2,0,60,1,0
446,-166.666666666667,4,2,0,60,0,0
2321,-250,4,2,0,60,0,0
2946,-166.666666666667,4,2,0,60,0,0
4821,-250,4,2,0,60,0,0
5237,-142.857142857143,4,2,0,60,0,0
5446,-142.857142857143,4,2,0,60,0,0
7946,-100,4,2,0,60,0,0
8180,-100,4,2,0,5,0,0
8258,-100,4,2,0,60,0,0
8805,-100,4,2,0,5,0,0
8883,-100,4,2,0,60,0,0
9977,-71.4285714285714,4,2,0,60,0,0
10446,-100,4,2,0,60,0,0
10758,-100,4,2,0,60,0,0
11383,-100,4,2,0,60,0,0
12477,-71.4285714285714,4,2,0,60,0,0
12946,-100,4,2,0,60,0,0
13180,-100,4,2,0,5,0,0
13258,-100,4,2,0,60,0,0
14274,-100,4,2,0,5,0,0
14352,-100,4,2,0,60,0,0
15055,-100,4,2,0,5,0,0
15133,-100,4,2,0,60,0,0
15289,-100,4,2,0,5,0,0
15367,-100,4,2,0,60,0,0
16774,-100,4,2,0,5,0,0
16852,-100,4,2,0,60,0,0
17633,-62.5,4,2,0,60,0,0
17867,-62.5,4,2,0,5,0,0
17946,-90.9090909090909,4,2,0,60,0,0
18180,-90.9090909090909,4,2,0,5,0,0
18258,-100,4,2,0,60,0,0
18805,-100,4,2,0,5,0,0
18883,-100,4,2,0,60,0,0
19352,-100,4,2,0,60,0,0
19977,-71.4285714285714,4,2,0,60,0,0
20446,-83.3333333333333,4,2,0,60,0,0
20680,-83.3333333333333,4,2,0,5,0,0
20758,-83.3333333333333,4,2,0,60,0,0
22477,-71.4285714285714,4,2,0,60,0,0
23258,-83.3333333333333,4,2,0,60,0,0
24508,-100,4,2,0,60,0,0
25133,-83.3333333333333,4,2,0,60,0,0
25367,-83.3333333333333,4,2,0,5,0,0
25446,-83.3333333333333,4,2,0,60,0,0
26774,-83.3333333333333,4,2,0,5,0,0
26852,-83.3333333333333,4,2,0,60,0,0
27633,-71.4285714285714,4,2,0,60,0,0
27946,-125,4,2,0,60,0,0
29039,-76.9230769230769,4,2,0,60,0,0
29274,-76.9230769230769,4,2,0,5,0,0
29352,-125,4,2,0,60,0,0
30446,-71.4285714285714,4,2,0,60,0,0
30680,-71.4285714285714,4,2,0,5,0,0
30758,-125,4,2,0,60,0,0
31539,-71.4285714285714,4,2,0,60,0,0
31852,-125,4,2,0,60,0,0
32633,-100,4,2,0,60,0,0
32946,-71.4285714285714,4,2,0,60,0,0
33180,-71.4285714285714,4,2,0,5,0,0
33258,-100,4,2,0,60,0,0
34039,-71.4285714285714,4,2,0,60,0,0
34274,-71.4285714285714,4,2,0,5,0,0
34352,-71.4285714285714,4,2,0,60,0,0
34508,-100,4,2,0,60,0,0
35680,-100,4,2,0,5,0,0
35758,-100,4,2,0,60,0,0
40446,-66.6666666666667,4,2,0,60,0,1
40680,-66.6666666666667,4,2,0,5,0,1
40758,-66.6666666666667,4,2,0,60,0,1
41696,-71.4285714285714,4,2,0,60,0,1
41930,-71.4285714285714,4,2,0,5,0,1
42008,-71.4285714285714,4,2,0,60,0,1
44508,-71.4285714285714,4,2,0,60,0,1
47008,-71.4285714285714,4,2,0,60,0,1
50446,-100,4,2,0,60,0,1
50680,-100,4,2,0,5,0,1
50758,-100,4,2,0,60,0,1
50914,-71.4285714285714,4,2,0,60,0,1
52008,-71.4285714285714,4,2,0,60,0,1
54430,-71.4285714285714,4,2,0,5,0,1
54508,-71.4285714285714,4,2,0,60,0,1
55680,-71.4285714285714,4,2,0,5,0,1
55758,-71.4285714285714,4,2,0,60,0,1
56305,-71.4285714285714,4,2,0,5,0,1
56383,-71.4285714285714,4,2,0,60,0,1
56930,-71.4285714285714,4,2,0,5,0,1
57008,-71.4285714285714,4,2,0,60,0,1
57555,-71.4285714285714,4,2,0,5,0,1
57633,-71.4285714285714,4,2,0,60,0,1
58414,-83.3333333333333,4,2,0,60,0,1
59196,-83.3333333333333,4,2,0,60,0,0
60446,-83.3333333333333,4,2,0,60,0,1
63258,-83.3333333333333,4,2,0,60,0,1
65680,-83.3333333333333,4,2,0,5,0,1
65758,-83.3333333333333,4,2,0,60,0,1
66930,-83.3333333333333,4,2,0,5,0,1
67008,-83.3333333333333,4,2,0,60,0,1
69508,-83.3333333333333,4,2,0,40,0,1
69664,-83.3333333333333,4,2,0,60,0,1
70446,-83.3333333333333,4,2,0,60,0,0
70680,-83.3333333333333,4,2,0,5,0,0
70758,-83.3333333333333,4,2,0,60,0,0
71930,-83.3333333333333,4,2,0,5,0,0
72008,-83.3333333333333,4,2,0,60,0,0
72321,-76.9230769230769,4,2,0,60,0,0
74117,-76.9230769230769,4,2,0,5,0,0
74196,-76.9230769230769,4,2,0,60,0,0
76774,-76.9230769230769,4,2,0,5,0,0
76852,-76.9230769230769,4,2,0,60,0,0
77242,-76.9230769230769,4,2,0,5,0,0
77321,-76.9230769230769,4,2,0,60,0,0
77946,-100,4,2,0,60,0,1
80055,-100,4,2,0,5,0,1
80133,-100,4,2,0,60,0,1
80680,-100,4,2,0,5,0,1
80758,-100,4,2,0,60,0,1
82555,-100,4,2,0,5,0,1
82633,-100,4,2,0,60,0,1
82946,-100,4,2,0,60,0,0
86149,-125,4,2,0,60,0,0

[Colours]
Combo1 : 220,228,48
Combo2 : 233,124,163
Combo3 : 181,128,244
Combo4 : 46,194,187

[HitObjects]
232,129,446,6,0,P|234:101|225:63,2,52.7999983886719,2|2|2,0:0|0:0|0:0,0:0:0:0:
184,271,914,2,0,P|180:245|188:220,1,52.7999983886719,2|0,0:0|0:0,0:0:0:0:
284,209,1227,2,0,P|310:212|332:225,1,52.7999983886719,2|0,0:0|0:0,0:0:0:0:
391,326,1539,1,2,0:0:0:0:
391,326,1852,5,2,0:0:0:0:
388,176,2008,1,2,0:0:0:0:
391,326,2164,1,0,0:0:0:0:
388,176,2321,6,0,L|387:97,1,70.4,2|0,0:0|0:0,0:0:0:0:
387,105,2946,6,0,P|415:108|440:96,2,52.7999983886719,2|2|2,0:0|0:0|0:0,0:0:0:0:
299,55,3414,2,0,P|305:29|303:0,1,52.7999983886719,2|0,0:0|0:0,0:0:0:0:
308,150,3727,2,0,P|311:187|322:209,1,52.7999983886719,2|0,0:0|0:0,0:0:0:0:
387,279,4039,1,2,0:0:0:0:
387,279,4352,5,2,0:0:0:0:
196,307,4508,1,2,0:0:0:0:
387,279,4664,1,2,0:0:0:0:
196,307,4821,2,0,L|120:313,1,70.4,2|0,0:0|0:0,0:0:0:0:
37,325,5237,6,0,L|33:302,3,20.5333327067057,0|0|0|0,0:0|0:0|0:0|0:0,0:0:0:0:
22,231,5446,5,0,1:0:0:0:
217,169,5602,1,0,0:0:0:0:
22,231,5758,1,2,0:3:0:0:
104,118,5914,1,0,1:0:0:0:
154,278,6071,1,0,0:0:0:0:
104,118,6227,1,2,3:0:0:0:
130,202,6383,1,0,0:0:0:0:
205,57,6539,1,0,1:0:0:0:
205,57,6852,5,2,0:0:0:0:
229,56,6930,1,2,0:0:0:0:
253,55,7008,1,0,0:0:0:0:
253,55,7633,5,0,0:0:0:0:
253,55,7946,6,0,P|301:108|290:182,1,132,8|0,3:0|0:0,0:0:0:0:
284,195,8258,1,0,1:0:0:0:
390,134,8414,1,4,0:3:0:0:
344,267,8571,2,0,P|280:295|211:248,1,132,8|0,3:0|0:0,0:0:0:0:
205,243,8883,1,0,1:0:0:0:
281,373,9039,6,0,L|169:362,1,88,8|0,3:0|0:0,0:0:0:0:
70,323,9352,1,4,3:0:0:0:
136,207,9508,1,0,1:0:0:0:
70,323,9664,1,8,3:0:0:0:
19,167,9821,1,8,3:0:0:0:
136,207,9977,6,0,P|173:202|208:209,1,61.5999981201172,2|0,0:0|0:0,0:0:0:0:
205,209,10133,2,0,P|216:146|175:109,1,123.199996240234,0|2,1:0|0:0,0:0:0:0:
25,38,10446,2,0,L|174:32,1,132,4|0,3:0|0:0,0:0:0:0:
192,32,10758,1,0,1:0:0:0:
136,207,10914,1,4,0:3:0:0:
341,118,11071,2,0,L|186:108,1,132,8|0,0:3|0:0,0:0:0:0:
176,109,11383,1,0,1:0:0:0:
243,188,11539,6,0,L|343:196,1,88,8|0,3:0|0:0,0:0:0:0:
512,212,11852,1,8,3:0:0:0:
359,290,12008,1,0,1:0:0:0:
433,183,12164,1,4,3:0:0:0:
441,358,12321,1,4,3:0:0:0:
298,291,12477,6,0,P|335:286|370:293,1,61.5999981201172,2|0,0:0|0:0,0:0:0:0:
367,293,12633,2,0,P|373:229|330:195,1,123.199996240234,0|2,1:0|0:0,0:0:0:0:
214,257,12946,6,0,P|146:265|93:224,1,132,8|0,0:3|0:0,0:0:0:0:
84,195,13258,1,0,1:0:0:0:
95,362,13414,2,0,P|107:305|158:279,1,88,4|0,3:0|0:0,0:0:0:0:
267,213,13727,2,0,P|293:249|288:316,1,88,8|0,3:0|1:0,0:0:0:0:
267,213,14039,6,0,B|264:177|264:177|250:136|250:136|266:63,1,132,8|0,3:0|0:0,0:0:0:0:
272,56,14352,1,0,0:0:0:0:
368,141,14508,1,0,1:0:0:0:
146,140,14664,1,0,0:0:0:0:
368,141,14821,2,0,P|428:163|456:230,1,132,4|0,3:0|0:0,0:0:0:0:
370,228,15133,2,0,L|367:121,1,88,0|0,1:0|0:0,0:0:0:0:
365,113,15367,1,2,0:0:0:0:
363,86,15446,6,0,L|251:83,1,88,4|0,3:0|0:0,0:0:0:0:
173,137,15758,1,0,1:0:0:0:
80,92,15914,2,0,P|36:57|33:12,1,88,8|0,3:0|0:0,0:0:0:0:
80,92,16227,2,0,P|90:143|75:186,1,88,4|0,3:0|1:0,0:0:0:0:
23,243,16539,6,0,P|87:261|161:217,1,132,8|0,3:0|0:0,0:0:0:0:
80,176,16852,1,8,3:0:0:0:
78,345,17008,1,0,1:0:0:0:
80,176,17164,1,8,3:0:0:0:
78,345,17321,2,0,P|120:354|192:329,1,88,4|0,0:3|0:0,0:0:0:0:
78,345,17633,6,0,B|121:362|166:344|166:344|209:281|131:225,1,211.2,0|0,1:0|0:0,0:0:0:0:
23,243,17946,6,0,P|42:172|117:141,1,145.200004431152,2|0,0:0|0:0,0:0:0:0:
135,139,18258,1,0,1:0:0:0:
258,240,18414,1,4,3:0:0:0:
365,180,18571,2,0,P|430:200|492:156,1,132,8|0,3:0|0:0,0:0:0:0:
507,147,18883,1,0,1:0:0:0:
366,263,19039,6,0,P|352:223|365:181,1,88,4|0,3:0|0:0,0:0:0:0:
386,156,19352,1,4,3:0:0:0:
323,28,19508,1,0,1:0:0:0:
154,55,19664,1,8,3:0:0:0:
323,28,19821,1,8,3:0:0:0:
107,125,19977,6,0,P|111:162|126:194,1,61.5999981201172,2|0,0:0|0:0,0:0:0:0:
125,191,20133,2,0,P|64:212|20:178,1,123.199996240234,0|2,1:0|0:0,0:0:0:0:
183,307,20446,6,0,P|259:284|271:195,1,158.399995166016,4|0,3:0|0:0,0:0:0:0:
275,185,20758,1,0,1:0:0:0:
323,332,20914,1,4,3:0:0:0:
355,142,21071,2,0,P|316:111|214:122,1,158.399995166016,8|0,3:0|0:0,0:0:0:0:
185,139,21383,1,0,1:0:0:0:
183,307,21539,6,0,P|208:250|169:180,1,105.599996777344,8|0,3:0|0:0,0:0:0:0:
129,47,21852,1,8,3:0:0:0:
125,191,22008,1,0,1:0:0:0:
213,122,22164,1,8,3:0:0:0:
278,254,22321,1,8,3:0:0:0:
415,180,22477,6,0,P|420:149|420:119,1,61.5999981201172,2|0,0:0|0:0,0:0:0:0:
417,112,22633,2,0,P|481:109|513:155,1,123.199996240234,0|2,1:0|0:0,0:0:0:0:
330,13,22946,6,0,P|267:3|210:58,1,123.199996240234,8|0,3:0|0:0,0:0:0:0:
233,179,23258,1,0,1:0:0:0:
337,115,23414,2,0,P|342:50|319:-6,1,105.599996777344,4|2,3:0|0:0,0:0:0:0:
119,100,23727,2,0,P|113:151|161:209,1,105.599996777344,4|0,3:0|1:0,0:0:0:0:
411,213,24039,6,0,P|309:241|227:161,1,211.199993554688,4|0,3:0|0:0,0:0:0:0:
231,340,24508,2,0,P|308:326|364:373,1,132,0|2,1:0|0:0,0:0:0:0:
372,377,24821,1,8,3:0:0:0:
209,268,24977,1,8,3:0:0:0:
96,335,25133,2,0,B|68:353|68:353|60:227,1,158.399995166016,0|8,1:0|3:0,0:0:0:0:
9,158,25446,6,0,P|59:142|109:158,1,105.599996777344,4|0,3:0|0:0,0:0:0:0:
209,268,25758,1,0,1:0:0:0:
336,113,25914,2,0,P|358:169|327:227,1,105.599996777344,8|0,0:3|0:0,0:0:0:0:
277,320,26227,1,8,3:0:0:0:
233,187,26383,1,0,1:0:0:0:
347,339,26539,6,0,P|415:356|492:277,1,158.399995166016,4|0,3:0|0:0,0:0:0:0:
497,277,26852,1,8,3:0:0:0:
277,320,27008,1,0,1:0:0:0:
242,194,27164,1,8,3:0:0:0:
242,194,27242,1,8,3:0:0:0:
242,194,27321,1,10,3:0:0:0:
133,101,27477,1,8,3:0:0:0:
336,113,27633,6,0,P|401:125|447:198,1,123.199996240234,0|4,1:0|0:3,0:0:0:0:
209,262,27946,6,0,P|142:287|68:236,1,140.8,4|0,3:0|0:0,0:0:0:0:
148,203,28414,1,0,3:0:0:0:
233,187,28571,2,0,P|264:181|321:203,1,70.4,0|0,1:0|0:0,0:0:0:0:
358,249,28883,1,0,3:0:0:0:
220,354,29039,6,0,B|222:296|222:296|207:246|207:246|236:179,1,171.599992144776,4|0,3:0|0:0,0:0:0:0:
246,164,29352,1,0,0:0:0:0:
358,249,29508,2,0,P|318:260|262:244,1,70.4,0|0,1:0|0:0,0:0:0:0:
139,225,29821,2,0,P|95:214|44:239,1,70.4,0|0,3:0|0:0,0:0:0:0:
24,289,30133,1,0,1:0:0:0:
101,314,30289,1,0,3:0:0:0:
232,186,30446,6,0,P|172:123|70:132,1,184.799994360352,0|0,1:0|0:0,0:0:0:0:
47,139,30758,2,0,L|49:233,1,70.4,0|0,3:0|0:0,0:0:0:0:
201,329,31071,2,0,L|207:254,1,70.4,0|0,1:0|0:0,0:0:0:0:
226,75,31383,1,0,3:0:0:0:
405,119,31539,6,0,B|352:135|352:135|252:130,1,123.199996240234,0|0,1:0|0:0,0:0:0:0:
155,155,31852,2,0,P|143:121|173:73,2,70.4,0|0|0,3:0|0:0|0:0,0:0:0:0:
312,255,32321,1,0,1:0:0:0:
226,75,32477,1,8,3:0:0:0:
171,255,32633,5,4,3:0:0:0:
206,258,32711,1,4,3:0:0:0:
241,256,32789,1,4,3:0:0:0:
276,256,32867,1,4,3:0:0:0:
312,255,32946,6,0,P|362:193|303:79,1,184.799994360352,4|0,0:0|0:0,0:0:0:0:
311,73,33258,2,0,P|261:64|207:91,1,88,0|0,1:0|0:0,0:0:0:0:
120,247,33571,1,8,0:3:0:0:
250,345,33727,2,0,P|301:346|350:313,1,88,4|0,0:3|1:0,0:0:0:0:
414,214,34039,6,0,B|425:120|425:120|385:22,1,184.799994360352,2|0,0:0|0:0,0:0:0:0:
351,17,34352,1,8,0:3:0:0:
282,152,34508,2,0,L|285:261,1,88,0|0,1:0|0:0,0:0:0:0:
200,100,34821,2,0,L|197:12,1,88,4|0,0:3|0:0,0:0:0:0:
117,159,35133,2,0,L|119:246,1,88,0|0,1:0|0:0,0:0:0:0:
128,379,35446,6,0,P|180:335|270:367,1,132,8|0,0:3|0:0,0:0:0:0:
263,367,35758,1,0,1:0:0:0:
119,246,35914,2,0,P|79:263|35:259,1,88,4|0,3:0|0:0,0:0:0:0:
63,106,36227,1,8,3:0:0:0:
197,206,36383,1,0,1:0:0:0:
35,259,36539,6,0,P|28:212|62:150,1,88,4|0,0:3|0:0,0:0:0:0:
197,206,36852,2,0,P|237:222|279:213,1,88,8|0,3:0|1:0,0:0:0:0:
393,139,37164,5,8,3:0:0:0:
244,91,37321,1,4,3:0:0:0:
347,304,37477,1,8,3:0:0:0:
244,91,37633,1,0,1:0:0:0:
242,305,37789,1,4,3:0:0:0:
67,92,37946,6,0,L|163:102,1,88,6|0,0:0|0:0,0:0:0:0:
320,118,38258,1,8,3:0:0:0:
147,259,38414,1,4,3:0:0:0:
201,27,38571,1,8,3:0:0:0:
281,241,38727,1,4,3:0:0:0:
81,186,38883,1,8,3:0:0:0:
244,91,39039,1,4,3:0:0:0:
181,336,39196,5,4,0:0:0:0:
172,336,39274,1,8,0:3:0:0:
163,336,39352,1,8,0:3:0:0:
154,335,39430,1,8,0:3:0:0:
145,335,39508,1,8,0:3:0:0:
136,335,39586,1,8,0:3:0:0:
127,335,39664,1,8,0:3:0:0:
118,335,39742,1,8,0:3:0:0:
82,330,39821,5,4,0:3:0:0:
51,312,39899,1,4,0:3:0:0:
36,275,39977,1,4,0:3:0:0:
46,236,40055,1,4,0:3:0:0:
84,214,40133,1,4,0:3:0:0:
127,217,40211,1,4,0:3:0:0:
168,241,40289,1,4,0:3:0:0:
187,285,40367,1,4,0:3:0:0:
183,335,40446,6,0,B|238:275|179:196|179:196|166:248,1,198.000007553101,4|0,0:0|0:0,0:0:0:0:
155,254,40758,1,0,1:0:0:0:
97,106,40914,1,0,0:0:0:0:
245,123,41071,1,4,0:3:0:0:
84,214,41227,5,4,0:3:0:0:
176,50,41383,1,0,1:0:0:0:
181,199,41539,1,0,0:0:0:0:
0,48,41696,6,0,B|108:-2|91:86|184:47,1,184.799994360352,4|0,3:0|0:0,0:0:0:0:
203,35,42008,1,0,1:0:0:0:
349,87,42164,2,0,P|305:127|220:101,1,123.199996240234,8|0,3:0|0:0,0:0:0:0:
349,87,42477,2,0,P|408:90|448:170,1,123.199996240234,4|0,0:3|1:0,0:0:0:0:
453,281,42789,1,8,0:3:0:0:
244,122,42946,6,0,P|241:61|279:15,1,123.199996240234,4|0,3:0|0:0,0:0:0:0:
324,205,43258,1,0,1:0:0:0:
134,306,43414,2,0,P|61:316|9:282,2,123.199996240234,4|4|4,3:0|3:0|3:0,0:0:0:0:
99,68,43883,2,0,L|87:191,1,123.199996240234,0|0,1:0|0:0,0:0:0:0:
318,315,44196,6,0,P|345:263|303:189,1,123.199996240234,8|0,3:0|0:0,0:0:0:0:
182,137,44508,1,0,1:0:0:0:
134,306,44664,2,0,B|318:316|318:316|260:256,1,246.399992480469,8|4,3:0|3:0,0:0:0:0:
56,225,45133,2,0,P|78:280|133:305,1,123.199996240234,0|0,1:0|0:0,0:0:0:0:
182,137,45446,6,0,B|183:90|183:90|194:57|194:57|192:0,1,123.199996240234,4|0,0:0|0:0,0:0:0:0:
274,271,45758,1,8,3:0:0:0:
56,225,45914,1,0,1:0:0:0:
182,137,46071,1,8,3:0:0:0:
133,305,46227,1,8,3:0:0:0:
61,116,46383,1,0,1:0:0:0:
274,271,46539,1,0,0:0:0:0:
416,152,46696,6,0,B|373:150|373:150|333:139|333:139|275:147,1,123.199996240234,4|0,0:3|0:0,0:0:0:0:
287,28,47008,1,0,1:0:0:0:
145,177,47164,2,0,P|203:199|278:152,1,123.199996240234,8|0,0:3|0:0,0:0:0:0:
374,64,47477,2,0,P|442:62|490:136,1,123.199996240234,4|0,0:3|1:0,0:0:0:0:
344,182,47789,1,8,0:3:0:0:
201,72,47946,5,4,0:3:0:0:
30,82,48102,1,4,0:3:0:0:
201,72,48258,1,0,1:0:0:0:
30,82,48414,2,0,B|18:136|18:136|44:198,1,123.199996240234,8|0,0:3|0:0,0:0:0:0:
126,341,48727,1,8,0:3:0:0:
274,271,48883,2,0,P|339:282|401:235,1,123.199996240234,0|0,1:0|0:0,0:0:0:0:
271,61,49196,5,4,0:0:0:0:
274,271,49352,1,8,3:0:0:0:
271,61,49508,1,0,1:0:0:0:
274,271,49664,2,0,P|213:283|141:243,1,123.199996240234,8|4,3:0|0:3,0:0:0:0:
38,90,49977,1,4,0:3:0:0:
38,90,50055,1,4,0:3:0:0:
38,90,50133,1,4,1:3:0:0:
193,38,50289,1,8,0:3:0:0:
369,164,50446,6,0,P|311:198|249:166,1,132,8|0,0:3|0:0,0:0:0:0:
229,155,50758,1,0,1:0:0:0:
445,152,50914,1,4,3:0:0:0:
439,300,51071,1,4,3:0:0:0:
314,197,51227,2,0,L|307:54,1,123.199996240234,8|0,3:0|1:0,0:0:0:0:
439,300,51539,6,0,P|378:273|311:311,1,123.199996240234,0|8,0:0|3:0,0:0:0:0:
199,276,51852,1,0,0:0:0:0:
144,176,52008,2,0,P|92:140|37:152,1,123.199996240234,0|4,1:0|0:3,0:0:0:0:
109,343,52321,2,0,P|162:331|200:275,1,123.199996240234,8|0,0:3|0:0,0:0:0:0:
306,87,52633,2,0,P|352:113|371:181,1,123.199996240234,0|0,1:0|0:0,0:0:0:0:
354,343,52946,5,8,3:0:0:0:
219,169,53102,1,0,0:0:0:0:
372,178,53258,1,0,1:0:0:0:
199,275,53414,1,8,0:3:0:0:
306,87,53571,5,8,0:3:0:0:
314,264,53727,2,0,P|254:288|181:262,1,123.199996240234,4|0,0:3|1:0,0:0:0:0:
84,186,54039,1,0,0:0:0:0:
228,187,54196,6,0,B|264:254|211:317|211:317|188:241,1,184.799994360352,8|0,3:0|0:0,0:0:0:0:
308,283,54508,2,0,P|254:255|198:274,1,123.199996240234,0|8,1:0|0:3,0:0:0:0:
65,330,54821,6,0,P|33:262|70:202,1,123.199996240234,4|8,0:3|3:0,0:0:0:0:
148,147,55055,2,0,P|160:179|154:216,1,61.5999981201172,8|0,0:3|1:0,0:0:0:0:
65,330,55289,1,8,3:0:0:0:
68,90,55446,6,0,P|147:48|240:111,1,184.799994360352,4|0,0:0|0:0,0:0:0:0:
148,147,55758,1,0,1:3:0:0:
32,17,55914,1,0,0:0:0:0:
316,47,56071,6,0,P|312:135|237:185,1,184.799994360352,8|0,0:3|0:0,0:0:0:0:
226,86,56383,1,8,1:3:0:0:
397,51,56539,1,0,0:0:0:0:
260,342,56696,6,0,P|209:268|260:168,1,184.799994360352,8|0,0:3|0:0,0:0:0:0:
307,253,57008,1,8,1:3:0:0:
188,384,57164,1,0,0:0:0:0:
78,182,57321,6,0,P|158:143|249:209,1,184.799994360352,8|0,3:0|0:0,0:0:0:0:
157,243,57633,1,0,1:0:0:0:
46,81,57789,1,0,0:0:0:0:
349,89,57946,6,0,B|226:86,1,123.199996240234,4|0,0:0|0:0,0:0:0:0:
46,81,58258,1,0,1:0:0:0:
157,243,58414,2,0,P|179:196|161:148,1,105.599996777344,4|0,3:0|0:0,0:0:0:0:
46,81,58727,1,0,1:0:0:0:
40,299,58883,1,8,3:0:0:0:
46,81,59039,1,8,3:0:0:0:
122,294,59196,6,0,B|245:286,1,105.599996777344,8|8,3:0|3:0,0:0:0:0:
322,265,59430,1,8,3:0:0:0:
329,234,59508,6,0,P|340:177|306:122,1,105.599996777344,8|8,3:0|3:0,0:0:0:0:
231,80,59742,1,8,3:0:0:0:
196,74,59821,6,0,L|86:93,1,105.599996777344,4|4,3:0|3:0,0:0:0:0:
22,159,60055,1,4,3:0:0:0:
18,194,60133,6,0,L|22:263,1,52.7999983886719,4|4,3:0|3:0,0:0:0:0:
122,294,60289,1,4,3:0:0:0:
127,257,60367,1,4,3:0:0:0:
133,220,60446,5,4,0:0:0:0:
24,348,60602,1,0,0:0:0:0:
224,317,60758,1,0,1:0:0:0:
18,194,60914,5,8,3:0:0:0:
128,370,61071,1,8,3:0:0:0:
191,180,61227,1,8,3:0:0:0:
21,274,61383,5,0,1:0:0:0:
261,253,61539,1,0,0:0:0:0:
89,87,61696,6,0,P|73:135|98:189,1,105.599996777344,4|0,3:0|0:0,0:0:0:0:
204,345,62008,1,0,1:0:0:0:
190,178,62164,2,0,P|128:165|73:217,1,105.599996777344,4|0,3:0|0:0,0:0:0:0:
24,348,62477,1,8,3:0:0:0:
193,277,62633,2,0,P|208:220|157:155,1,105.599996777344,0|0,1:0|0:0,0:0:0:0:
91,91,62946,6,0,P|142:67|213:98,1,105.599996777344,4|0,3:0|0:0,0:0:0:0:
303,210,63258,1,0,1:0:0:0:
193,277,63414,2,0,P|134:289|72:251,2,105.599996777344,8|4|4,3:0|3:0|3:0,0:0:0:0:
261,144,63883,2,0,P|218:87|155:76,1,105.599996777344,0|0,1:0|0:0,0:0:0:0:
0,182,64196,6,0,P|62:199|121:164,1,105.599996777344,4|0,3:0|0:0,0:0:0:0:
187,75,64508,1,0,1:0:0:0:
384,154,64664,2,0,P|406:203|363:272,1,105.599996777344,8|8,3:0|3:0,0:0:0:0:
268,343,64977,1,4,3:0:0:0:
277,208,65133,1,0,1:0:0:0:
373,343,65289,1,0,0:0:0:0:
193,277,65446,6,0,P|132:254|45:307,1,158.399995166016,8|0,3:0|0:0,0:0:0:0:
17,305,65758,2,0,P|4:254|41:176,1,105.599996777344,8|0,3:0|0:0,0:0:0:0:
113,80,66071,5,4,3:0:0:0:
125,254,66227,1,4,3:0:0:0:
304,236,66383,1,0,1:0:0:0:
276,67,66539,1,0,0:0:0:0:
261,325,66696,6,0,P|344:326|399:244,1,158.399995166016,8|0,3:0|0:0,0:0:0:0:
304,236,67008,1,0,1:0:0:0:
200,374,67164,2,0,P|179:319|213:256,1,105.599996777344,8|0,3:0|0:0,0:0:0:0:
291,141,67477,2,0,P|317:186|290:249,1,105.599996777344,8|0,3:0|1:0,0:0:0:0:
192,276,67789,5,8,3:0:0:0:
171,130,67946,1,4,3:0:0:0:
319,187,68102,1,4,3:0:0:0:
192,276,68258,1,0,1:0:0:0:
171,130,68414,2,0,P|218:114|275:138,2,105.599996777344,4|8|8,3:0|3:0|3:0,0:0:0:0:
17,204,68883,2,0,P|-3:149|27:96,1,105.599996777344,0|0,1:0|0:0,0:0:0:0:
152,50,69196,5,8,3:0:0:0:
140,219,69352,1,8,3:0:0:0:
152,50,69508,5,0,1:0:0:0:
140,219,69664,1,8,3:0:0:0:
268,132,69821,6,0,P|278:53|241:11,1,105.599996777344,4|4,3:0|3:0,0:0:0:0:
152,50,70055,1,4,3:0:0:0:
135,68,70133,2,0,P|132:100|146:126,1,52.7999983886719,4|0,3:0|0:0,0:0:0:0:
268,132,70289,1,8,3:0:0:0:
135,68,70446,6,0,P|66:53|0:121,1,158.399995166016,4|0,0:0|0:0,0:0:0:0:
3,106,70758,2,0,P|51:94|86:35,1,105.599996777344,0|0,1:0|0:0,0:0:0:0:
87,203,71071,5,8,3:0:0:0:
212,270,71227,1,8,3:0:0:0:
206,130,71383,1,0,1:0:0:0:
87,203,71539,1,0,0:0:0:0:
130,346,71696,6,0,P|197:375|283:328,1,158.399995166016,8|0,3:0|0:0,0:0:0:0:
272,344,72008,2,0,P|223:338|176:382,1,105.599996777344,0|0,1:0|0:0,0:0:0:0:
162,223,72321,6,0,P|169:158|225:125,1,114.399994763184,4|8,3:0|3:0,0:0:0:0:
366,191,72633,2,0,P|310:217|249:206,1,114.399994763184,0|0,1:0|0:0,0:0:0:0:
70,42,72946,6,0,L|197:53,1,114.399994763184,4|0,0:0|0:0,0:0:0:0:
368,69,73258,1,0,1:0:0:0:
162,223,73414,1,4,3:0:0:0:
162,223,73727,1,8,3:0:0:0:
272,344,73883,2,0,P|308:296|252:209,1,171.599992144776,0|0,1:0|0:0,0:0:0:0:
165,143,74196,6,0,P|170:69|257:24,1,171.599992144776,4|0,0:0|0:0,0:0:0:0:
357,101,74508,2,0,P|308:124|228:98,1,114.399994763184,0|0,1:0|0:0,0:0:0:0:
70,79,74821,5,8,3:0:0:0:
90,302,74977,1,8,3:0:0:0:
165,143,75133,1,0,1:0:0:0:
0,181,75289,1,8,3:0:0:0:
203,319,75446,5,4,3:0:0:0:
0,262,75602,1,4,3:0:0:0:
224,189,75758,1,8,1:3:0:0:
293,366,75914,2,0,L|289:233,1,114.399994763184,8|8,0:3|0:3,0:0:0:0:
98,310,76227,5,8,0:3:0:0:
98,310,76305,1,8,0:3:0:0:
98,310,76383,1,0,1:0:0:0:
361,319,76539,6,0,P|388:250|319:164,1,171.599992144776,4|0,3:0|0:0,0:0:0:0:
290,252,76852,1,8,3:0:0:0:
492,355,77008,2,0,B|510:268|510:268|485:174,1,171.599992144776,0|0,1:0|0:0,0:0:0:0:
441,92,77321,5,8,3:0:0:0:
410,74,77399,1,4,3:0:0:0:
377,64,77477,1,8,3:0:0:0:
343,68,77555,1,4,3:0:0:0:
311,82,77633,2,0,P|265:116|269:207,1,114.399994763184,4|0,0:0|0:0,0:0:0:0:
319,328,77946,5,8,3:0:0:0:
120,145,78102,1,0,0:0:0:0:
87,304,78258,1,0,1:0:0:0:
349,167,78414,1,0,0:0:0:0:
223,340,78571,5,8,3:0:0:0:
209,98,78727,2,0,P|245:134|245:200,1,88,8|0,3:0|1:0,0:0:0:0:
87,304,79039,6,0,P|66:263|88:199,1,88,4|4,3:0|3:0,0:0:0:0:
125,73,79352,1,8,3:0:0:0:
181,245,79508,1,0,1:0:0:0:
8,138,79664,1,8,3:0:0:0:
252,169,79821,6,0,P|298:222|280:298,1,132,8|0,3:0|0:0,0:0:0:0:
292,279,80133,2,0,P|274:229|298:189,1,88,0|0,1:0|0:0,0:0:0:0:
424,178,80446,6,0,P|460:233|433:303,1,132,8|0,3:0|0:0,0:0:0:0:
377,243,80758,1,0,1:0:0:0:
506,172,80914,2,0,P|464:161|416:187,1,88,8|8,3:0|3:0,0:0:0:0:
292,279,81227,1,4,3:0:0:0:
338,125,81383,1,0,1:0:0:0:
157,238,81539,1,8,3:0:0:0:
157,238,81617,1,8,3:0:0:0:
157,238,81696,5,8,3:0:0:0:
160,71,81852,1,4,3:0:0:0:
256,165,82008,1,0,1:0:0:0:
61,165,82164,1,8,3:0:0:0:
160,71,82321,6,0,P|223:41|301:82,1,132,4|0,3:0|0:0,0:0:0:0:
279,58,82633,2,0,P|236:67|200:44,1,88,8|8,3:0|3:0,0:0:0:0:
388,28,82946,5,8,3:0:0:0:
389,207,83102,1,8,3:0:0:0:
512,78,83258,5,0,1:0:0:0:
256,165,83414,1,4,3:0:0:0:
256,165,83727,1,8,3:0:0:0:
392,332,83883,1,8,3:0:0:0:
109,252,84039,1,0,1:0:0:0:
400,138,84352,5,2,0:0:0:0:
395,166,84404,1,2,0:0:0:0:
389,194,84456,1,2,0:0:0:0:
383,222,84508,1,0,0:0:0:0:
256,192,84586,12,0,85446,0:0:0:0:
256,192,86149,6,0,L|259:255,4,35.2,0|0|0|0|0,0:0|0:0|0:0|0:0|0:0,0:0:0:0:
256,192,86539,12,0,89196,0:0:0:0:
