osu file format v14

[General]
AudioFilename: audio.mp3
AudioLeadIn: 0
PreviewTime: 40289
Countdown: 0
SampleSet: Soft
StackLeniency: 0.7
Mode: 0
LetterboxInBreaks: 0
WidescreenStoryboard: 1

[Editor]
Bookmarks: 7946,27946,70446
DistanceSpacing: 0.4
BeatDivisor: 4
GridSize: 8
TimelineZoom: 2

[Metadata]
Title:Good Luck Lilac
TitleUnicode:グッドラック ライラック
Artist:GATALIS
ArtistUnicode:GATALIS
Creator:DakiniBrave
Version:Hard
Source:アニメガタリズ
Tags:lasse ambient akitoshi bariton kibbleru -_rain_- animegataris Anime-Gataris
BeatmapID:1450242
BeatmapSetID:684032

[Difficulty]
HPDrainRate:6
CircleSize:3.9
OverallDifficulty:7
ApproachRate:8
SliderMultiplier:1.55
SliderTickRate:1

[Events]
//Background and Video events
0,0,"0006ea87_350190.png",0,0
//Break Periods
//Storyboard Layer 0 (Background)
//Storyboard Layer 1 (Fail)
//Storyboard Layer 2 (Pass)
//Storyboard Layer 3 (Foreground)
//Storyboard Sound Samples

[TimingPoints]
446,312.5,4,2,0,70,1,0
446,-125,4,2,0,70,0,0
7946,-111.111111111111,4,2,0,70,0,0
40446,-100,4,2,0,80,0,1
59196,-100,4,2,0,70,0,0
60446,-100,4,2,0,80,0,1
70446,-100,4,2,0,70,0,0
77946,-100,4,2,0,80,0,1
82946,-100,4,2,0,70,0,0
86071,-100,4,2,0,40,0,0
89196,-100,4,2,0,5,0,0

[Colours]
Combo1 : 220,228,48
Combo2 : 233,124,163
Combo3 : 181,128,244
Combo4 : 46,194,187

[HitObjects]
150,114,446,6,0,L|146:39,2,62,2|2|2,0:0|0:0|0:0,0:0:0:0:
121,195,914,2,0,P|152:201|196:187,1,62,2|0,0:0|0:0,0:0:0:0:
250,141,1227,2,0,P|281:135|325:149,1,62,2|0,0:0|0:0,0:0:0:0:
374,199,1539,1,2,0:0:0:0:
374,199,1852,6,0,L|378:274,2,62,2|2|0,0:0|0:0|0:0,0:0:0:0:
453,162,2321,2,0,L|459:295,1,124,2|0,0:0|0:0,0:0:0:0:
296,348,2946,6,0,L|371:352,2,62,2|2|2,0:0|0:0|0:0,0:0:0:0:
215,377,3414,2,0,P|209:346|223:302,1,62,2|0,0:0|0:0,0:0:0:0:
269,248,3727,2,0,P|275:217|261:173,1,62,2|0,0:0|0:0,0:0:0:0:
222,114,4039,1,2,0:0:0:0:
222,114,4352,5,2,0:0:0:0:
266,39,4508,2,0,P|239:26|196:28,1,62,2|2,0:0|0:0,0:0:0:0:
138,78,4821,2,0,B|133:126|133:126|144:152|144:152|139:215,1,124,2|2,0:0|0:0,0:0:0:0:
36,339,5446,6,0,P|96:322|162:350,1,124,8|2,0:3|0:3,0:0:0:0:
230,261,5914,2,0,L|236:339,1,62,8|0,0:3|0:0,0:0:0:0:
316,207,6227,2,0,L|310:285,1,62,8|0,0:3|0:0,0:0:0:0:
397,261,6539,2,0,L|403:339,1,62,8|0,0:3|0:0,0:0:0:0:
410,149,7008,1,0,0:0:0:0:
92,116,7946,6,0,B|122:105|151:114|151:114|190:129|228:116,1,139.499995742798,4|8,0:0|0:3,0:0:0:0:
310,63,8414,1,4,0:3:0:0:
310,63,8571,2,0,P|324:102|321:148,1,69.749997871399,4|0,0:3|0:0,0:0:0:0:
298,217,8883,1,8,0:3:0:0:
386,257,9039,6,0,P|395:224|379:172,1,69.749997871399,4|0,0:3|0:0,0:0:0:0:
298,217,9352,2,0,P|289:250|305:302,1,69.749997871399,4|4,0:3|0:3,0:0:0:0:
366,350,9664,1,2,0:3:0:0:
273,383,9821,2,0,L|193:374,1,69.749997871399,4|2,0:3|0:0,0:0:0:0:
195,285,10133,2,0,L|115:294,1,69.749997871399,8|0,0:3|0:0,0:0:0:0:
86,357,10446,6,0,L|98:189,1,139.499995742798,8|8,0:3|0:3,0:0:0:0:
148,135,10914,1,4,0:3:0:0:
148,135,11071,2,0,P|109:120|63:123,2,69.749997871399,4|0|8,0:3|0:0|0:3,0:0:0:0:
236,176,11539,6,0,L|239:88,1,69.749997871399,4|0,0:3|0:0,0:0:0:0:
182,25,11852,2,0,P|215:33|279:15,1,69.749997871399,4|4,0:3|0:3,0:0:0:0:
344,5,12164,1,2,0:3:0:0:
344,5,12321,2,0,L|337:106,1,69.749997871399,4|2,0:3|0:0,0:0:0:0:
391,156,12633,2,0,P|358:148|294:166,1,69.749997871399,8|2,0:3|0:0,0:0:0:0:
301,247,12946,6,0,B|353:242|353:242|377:254|377:254|437:249,1,139.499995742798,4|8,0:3|0:3,0:0:0:0:
500,323,13414,1,4,0:3:0:0:
500,323,13571,2,0,L|426:331,1,69.749997871399,4|0,0:3|0:0,0:0:0:0:
334,343,13883,1,8,0:3:0:0:
301,247,14039,6,0,P|296:210|310:168,1,69.749997871399,4|0,0:3|0:0,0:0:0:0:
378,93,14352,1,4,0:3:0:0:
309,34,14508,2,0,L|234:26,1,69.749997871399,8|0,0:3|0:0,0:0:0:0:
196,106,14821,2,0,L|121:114,1,69.749997871399,4|0,0:3|0:0,0:0:0:0:
46,71,15133,2,0,P|35:107|40:142,1,69.749997871399,8|0,0:3|0:0,0:0:0:0:
1,221,15446,6,0,L|139:238,1,139.499995742798,2|8,0:0|0:3,0:0:0:0:
209,181,15914,2,0,P|231:255|173:321,1,139.499995742798,4|4,0:3|0:3,0:0:0:0:
127,358,16383,1,8,0:3:0:0:
127,358,16539,6,0,B|163:346|195:357|195:357|230:373|268:358,1,139.499995742798,4|4,0:3|0:3,0:0:0:0:
324,291,17008,1,8,0:3:0:0:
357,379,17164,1,0,0:0:0:0:
418,302,17321,2,0,L|412:219,1,69.749997871399,8|0,0:0|0:0,0:0:0:0:
330,283,17633,2,0,L|324:200,1,69.749997871399,8|0,0:0|0:0,0:0:0:0:
387,146,17946,6,0,L|229:133,1,139.499995742798,4|8,0:0|0:3,0:0:0:0:
151,132,18414,1,4,0:3:0:0:
151,132,18571,2,0,P|162:172|156:218,1,69.749997871399,4|0,0:3|0:0,0:0:0:0:
118,288,18883,1,8,0:3:0:0:
197,332,19039,6,0,L|282:325,1,69.749997871399,4|0,0:3|0:0,0:0:0:0:
330,250,19352,2,0,L|261:244,1,69.749997871399,4|8,0:3|0:3,0:0:0:0:
168,214,19664,1,0,0:0:0:0:
72,228,19821,2,0,P|70:190|90:149,1,69.749997871399,4|2,0:3|0:0,0:0:0:0:
122,72,20133,2,0,L|40:76,1,69.749997871399,8|0,0:3|0:0,0:0:0:0:
0,0,20446,6,0,L|9:139,1,139.499995742798,8|8,0:3|0:3,0:0:0:0:
2,229,20914,1,4,0:3:0:0:
2,229,21071,2,0,B|54:224|54:224|83:238|83:238|149:233,1,139.499995742798,4|0,0:3|0:0,0:0:0:0:
244,198,21539,6,0,P|252:235|234:289,1,69.749997871399,4|0,0:3|0:0,0:0:0:0:
170,317,21852,2,0,P|162:354|180:408,1,69.749997871399,4|8,0:3|0:3,0:0:0:0:
253,357,22164,1,0,0:0:0:0:
253,357,22321,2,0,L|354:350,1,69.749997871399,4|2,0:3|0:0,0:0:0:0:
408,379,22633,2,0,P|413:346|386:291,1,69.749997871399,8|0,0:3|0:0,0:0:0:0:
329,256,22946,6,0,B|381:251|381:251|405:263|405:263|465:258,1,139.499995742798,8|8,0:3|0:3,0:0:0:0:
431,174,23414,1,4,0:3:0:0:
431,174,23571,2,0,L|439:100,1,69.749997871399,4|0,0:3|0:0,0:0:0:0:
457,9,23883,1,8,0:3:0:0:
375,47,24039,6,0,L|294:39,1,69.749997871399,4|0,0:3|0:0,0:0:0:0:
228,89,24352,1,4,0:3:0:0:
189,170,24508,2,0,P|221:183|280:178,1,69.749997871399,2|0,0:0|0:0,0:0:0:0:
136,106,24821,2,0,P|131:71|97:23,1,69.749997871399,2|4,0:0|0:3,0:0:0:0:
108,184,25133,2,0,P|80:205|55:258,1,69.749997871399,4|4,0:3|0:3,0:0:0:0:
133,289,25446,6,0,B|68:265|68:265|-28:281,1,139.499995742798,4|8,0:0|0:3,0:0:0:0:
63,366,25914,2,0,L|220:355,1,139.499995742798,4|4,0:3|0:3,0:0:0:0:
293,353,26383,1,8,0:3:0:0:
293,353,26539,6,0,B|280:314|292:286|292:286|307:252|300:216,1,139.499995742798,4|4,0:3|0:3,0:0:0:0:
336,133,27008,1,8,0:3:0:0:
246,148,27164,1,8,0:3:0:0:
246,148,27242,1,8,0:3:0:0:
246,148,27321,2,0,P|208:154|164:141,1,69.749997871399,8|4,0:3|0:3,0:0:0:0:
134,68,27633,2,0,P|99:61|65:68,1,69.749997871399,4|4,0:3|0:3,0:0:0:0:
4,2,27946,6,0,L|12:151,1,139.499995742798,4|0,0:0|0:0,0:0:0:0:
19,231,28414,1,4,0:3:0:0:
19,231,28571,2,0,P|88:213|175:247,1,139.499995742798,8|0,0:3|0:0,0:0:0:0:
203,305,29039,6,0,L|216:153,1,139.499995742798,4|4,0:3|0:3,0:0:0:0:
214,166,29664,1,4,0:3:0:0:
183,74,29821,2,0,P|216:68|262:80,1,69.749997871399,8|4,0:3|0:3,0:0:0:0:
315,138,30133,2,0,P|348:144|394:132,1,69.749997871399,8|4,0:3|0:3,0:0:0:0:
439,65,30446,6,0,L|429:220,1,139.499995742798,8|8,0:3|0:3,0:0:0:0:
424,294,30914,1,4,0:3:0:0:
424,294,31071,2,0,L|350:286,1,69.749997871399,8|4,0:3|0:3,0:0:0:0:
267,312,31383,1,8,0:3:0:0:
267,312,31539,6,0,B|272:257|272:257|287:225|287:225|292:170,1,139.499995742798,4|8,0:0|0:3,0:0:0:0:
372,135,32008,1,0,0:0:0:0:
297,83,32164,1,4,0:3:0:0:
217,128,32321,2,0,L|123:123,1,69.749997871399,8|4,0:3|0:3,0:0:0:0:
59,102,32633,2,0,L|61:153,3,34.8749989356995,8|4|4|4,0:3|0:3|0:3|0:3,0:0:0:0:
67,179,32946,6,0,B|82:213|71:249|71:249|58:284|70:327,1,139.499995742798,4|8,0:0|0:3,0:0:0:0:
154,292,33414,1,0,0:0:0:0:
236,330,33571,2,0,P|246:296|234:250,1,69.749997871399,4|4,0:3|0:3,0:0:0:0:
174,201,33883,1,8,0:3:0:0:
260,175,34039,6,0,B|312:170|312:170|342:181|342:181|422:174,1,139.499995742798,4|4,0:3|0:3,0:0:0:0:
477,133,34508,2,0,P|487:175|472:225,1,69.749997871399,8|0,0:3|0:0,0:0:0:0:
424,270,34821,2,0,P|382:260|332:275,2,69.749997871399,4|4|8,0:3|0:3|0:3,0:0:0:0:
496,354,35289,1,0,0:0:0:0:
496,354,35446,6,0,P|425:381|346:343,1,139.499995742798,4|8,0:0|0:3,0:0:0:0:
284,311,35914,2,0,P|249:306|216:317,1,69.749997871399,2|4,0:0|0:3,0:0:0:0:
144,383,36227,1,2,0:0:0:0:
216,317,36383,1,2,0:0:0:0:
142,252,36539,6,0,L|151:167,1,69.749997871399,2|0,0:0|0:0,0:0:0:0:
201,99,36852,2,0,P|165:109|117:97,1,69.749997871399,2|8,0:0|0:3,0:0:0:0:
52,49,37164,2,0,L|44:118,1,69.749997871399,2|4,0:0|0:3,0:0:0:0:
30,215,37477,1,4,0:3:0:0:
22,312,37633,2,0,P|56:306|96:322,1,69.749997871399,8|4,0:3|0:3,0:0:0:0:
179,353,37946,6,0,L|172:256,1,69.749997871399,8|4,0:3|0:3,0:0:0:0:
267,309,38258,2,0,L|272:239,1,69.749997871399,8|4,0:3|0:3,0:0:0:0:
365,262,38571,2,0,L|359:192,1,69.749997871399,8|4,0:3|0:3,0:0:0:0:
456,202,38883,2,0,L|461:132,1,69.749997871399,8|4,0:3|0:3,0:0:0:0:
443,43,39196,6,0,L|397:47,3,34.8749989356995,8|8|8|8,0:3|0:3|0:3|0:3,0:0:0:0:
368,74,39508,2,0,L|322:70,3,34.8749989356995,8|8|8|8,0:3|0:3|0:3|0:3,0:0:0:0:
298,36,39821,2,0,L|252:40,3,34.8749989356995,4|4|4|4,0:3|0:3|0:3|0:3,0:0:0:0:
223,67,40133,2,0,L|177:63,3,34.8749989356995,4|4|4|4,0:3|0:3|0:3|0:3,0:0:0:0:
133,61,40446,6,0,B|161:134|161:134|139:225,1,155,4|8,0:0|0:3,0:0:0:0:
81,288,40914,1,0,0:0:0:0:
153,358,41071,2,0,P|191:362|228:352,1,77.5,4|4,0:3|0:3,0:0:0:0:
301,283,41383,2,0,P|339:278|376:288,1,77.5,8|0,0:3|0:0,0:0:0:0:
444,362,41696,6,0,P|421:286|459:198,1,155,4|8,0:3|0:3,0:0:0:0:
492,128,42164,2,0,P|452:114|409:121,1,77.5,4|0,0:3|0:0,0:0:0:0:
369,207,42477,2,0,P|408:220|451:213,1,77.5,4|8,0:3|0:3,0:0:0:0:
492,128,42789,1,0,0:0:0:0:
445,38,42946,6,0,B|408:25|370:39|370:39|330:57|293:43,1,155,8|8,0:3|0:3,0:0:0:0:
199,8,43414,1,0,0:0:0:0:
199,8,43571,2,0,L|209:111,1,77.5,4|4,0:3|0:3,0:0:0:0:
219,184,43883,2,0,P|177:175|120:198,1,77.5,8|0,0:3|0:0,0:0:0:0:
119,280,44196,6,0,B|278:266,1,155,8|8,0:3|0:3,0:0:0:0:
364,224,44664,2,0,P|375:268|364:308,1,77.5,4|0,0:3|0:0,0:0:0:0:
449,359,44977,1,4,0:3:0:0:
449,359,45133,2,0,P|442:321|453:284,1,77.5,8|0,0:3|0:0,0:0:0:0:
499,194,45446,6,0,P|520:122|488:36,1,155,4|8,0:3|0:3,0:0:0:0:
402,11,45914,1,0,0:0:0:0:
322,74,46071,2,0,L|218:66,2,77.5,4|4|0,0:3|0:3|0:3,0:0:0:0:
413,116,46539,1,4,0:3:0:0:
335,180,46696,6,0,B|300:161|259:178|259:178|222:192|183:176,1,155,8|8,0:3|0:3,0:0:0:0:
102,118,47164,2,0,L|117:227,1,77.5,4|0,0:3|0:0,0:0:0:0:
20,153,47477,2,0,L|30:76,1,77.5,4|8,0:3|0:3,0:0:0:0:
125,43,47789,1,0,0:0:0:0:
215,91,47946,6,0,L|227:0,2,77.5,4|0|8,0:3|0:0|0:3,0:0:0:0:
206,191,48414,2,0,B|251:191|278:168|278:168|299:198|366:205,1,155,0|4,0:0|0:3,0:0:0:0:
442,172,48883,2,0,P|446:216|430:259,1,77.5,8|0,0:3|0:0,0:0:0:0:
386,335,49196,6,0,P|429:329|478:357,2,77.5,8|4|8,0:3|0:3|0:3,0:0:0:0:
290,366,49664,1,4,0:3:0:0:
309,266,49821,1,4,0:3:0:0:
218,222,49977,1,4,0:3:0:0:
218,222,50055,1,4,0:3:0:0:
218,222,50133,2,0,P|207:259|218:309,1,77.5,8|12,0:3|0:3,0:0:0:0:
118,335,50446,6,0,P|104:262|127:168,1,155,4|8,0:0|0:3,0:0:0:0:
173,99,50914,1,0,0:0:0:0:
265,57,51071,2,0,P|276:103|254:162,1,77.5,4|4,0:3|0:3,0:0:0:0:
218,222,51383,1,8,0:3:0:0:
291,290,51539,6,0,B|327:275|366:289|366:289|413:306|450:288,1,155,0|0,0:0|0:0,0:0:0:0:
391,203,52008,2,0,P|349:190|287:200,1,77.5,8|4,0:3|0:3,0:0:0:0:
388,120,52321,2,0,P|426:120|463:108,1,77.5,0|4,0:0|0:3,0:0:0:0:
390,38,52633,2,0,P|351:38|314:26,1,77.5,8|0,0:3|0:0,0:0:0:0:
258,109,52946,6,0,L|169:97,2,77.5,4|0|8,0:3|0:0|0:3,0:0:0:0:
315,191,53414,1,0,0:0:0:0:
362,280,53571,1,4,0:3:0:0:
306,363,53727,2,0,P|342:378|403:371,2,77.5,4|8|0,0:3|0:3|0:0,0:0:0:0:
255,275,54196,6,0,B|193:269|193:269|163:284|163:284|83:277,1,155,4|8,0:3|0:3,0:0:0:0:
3,272,54664,1,4,0:3:0:0:
57,186,54821,2,0,L|45:55,2,116.25,0|4|0,0:0|0:3|0:0,0:0:0:0:
157,177,55446,6,0,L|142:16,1,155,4|8,0:3|0:3,0:0:0:0:
241,44,55914,1,0,0:0:0:0:
266,141,56071,2,0,L|249:241,1,77.5,4|4,0:3|0:3,0:0:0:0:
176,282,56383,2,0,L|193:382,1,77.5,8|0,0:3|0:0,0:0:0:0:
277,308,56696,6,0,B|314:294|353:310|353:310|391:324|428:310,1,155,4|8,0:3|0:3,0:0:0:0:
480,224,57164,1,4,0:3:0:0:
425,138,57321,2,0,P|386:127|328:148,1,77.5,0|4,0:0|0:3,0:0:0:0:
286,211,57633,2,0,P|248:217|211:206,1,77.5,8|0,0:3|0:0,0:0:0:0:
150,125,57946,6,0,L|161:305,1,155,4|8,0:3|0:3,0:0:0:0:
78,339,58414,2,0,P|36:334|-11:359,2,77.5,0|4|4,0:0|0:3|0:3,0:0:0:0:
169,381,58883,2,0,P|211:386|258:361,1,77.5,8|0,0:3|0:0,0:0:0:0:
317,304,59196,6,0,L|365:308,3,38.75,8|8|8|8,0:3|0:3|0:3|0:3,0:0:0:0:
396,336,59508,2,0,L|444:332,3,38.75,8|8|8|8,0:3|0:3|0:3|0:3,0:0:0:0:
473,299,59821,2,0,L|469:260,3,38.75,4|4|4|4,0:3|0:3|0:3|0:3,0:0:0:0:
442,217,60133,2,0,L|445:178,3,38.75,4|4|4|4,0:3|0:3|0:3|0:3,0:0:0:0:
464,131,60446,6,0,L|369:124,1,77.5,4|4,0:2|0:3,0:0:0:0:
328,43,60758,2,0,L|250:48,1,77.5,8|4,0:3|0:3,0:0:0:0:
160,94,61071,2,0,P|149:52|160:5,1,77.5,8|4,0:3|0:3,0:0:0:0:
250,48,61383,2,0,P|254:86|244:123,1,77.5,8|4,0:3|0:3,0:0:0:0:
171,194,61696,6,0,B|243:170|243:170|346:210,1,155,4|8,0:3|0:3,0:0:0:0:
382,132,62164,2,0,P|409:217|354:282,1,155,4|4,0:3|0:3,0:0:0:0:
313,337,62633,1,8,0:3:0:0:
243,275,62789,1,0,0:0:0:0:
178,342,62946,6,0,P|99:370|23:324,1,155,4|8,0:3|0:3,0:0:0:0:
0,257,63414,1,0,0:0:0:0:
35,170,63571,2,0,P|70:160|110:172,1,77.5,4|4,0:3|0:3,0:0:0:0:
195,139,63883,2,0,P|230:148|270:136,1,77.5,8|0,0:3|0:0,0:0:0:0:
324,211,64196,6,0,P|297:139|354:57,1,155,4|8,0:3|0:3,0:0:0:0:
398,147,64664,2,0,P|424:218|367:300,1,155,4|4,0:3|0:3,0:0:0:0:
300,298,65133,2,0,L|207:292,1,77.5,8|0,0:3|0:0,0:0:0:0:
158,360,65446,6,0,P|188:291|159:221,1,155,4|8,0:3|0:3,0:0:0:0:
98,152,65914,1,0,0:0:0:0:
11,116,66071,2,0,P|4:155|26:213,1,77.5,4|4,0:3|0:3,0:0:0:0:
98,152,66383,2,0,P|106:114|99:76,1,77.5,8|0,0:3|0:0,0:0:0:0:
23,22,66696,6,0,B|97:42|97:42|194:12,1,155,4|8,0:3|0:3,0:0:0:0:
264,18,67164,2,0,L|270:100,1,77.5,4|0,0:3|0:0,0:0:0:0:
357,125,67477,2,0,L|351:202,1,77.5,4|8,0:3|0:3,0:0:0:0:
337,294,67789,1,0,0:0:0:0:
413,347,67946,6,0,P|450:353|486:339,2,77.5,4|0|8,0:3|0:0|0:3,0:0:0:0:
337,294,68414,2,0,B|277:288|277:288|247:310|247:310|169:304,1,155,0|4,0:0|0:3,0:0:0:0:
95,300,68883,2,0,P|86:262|96:225,1,77.5,8|0,0:3|0:0,0:0:0:0:
181,187,69196,6,0,P|189:149|179:112,1,77.5,8|0,0:3|0:0,0:0:0:0:
214,25,69508,2,0,P|176:16|139:26,1,77.5,4|0,0:0|0:0,0:0:0:0:
53,64,69821,1,4,0:3:0:0:
14,148,69977,1,4,0:3:0:0:
14,148,70055,1,4,0:3:0:0:
14,148,70133,2,0,P|46:155|109:128,1,77.5,8|8,0:3|0:3,0:0:0:0:
179,112,70446,6,0,B|217:97|255:110|255:110|297:128|345:108,1,155,4|8,0:0|0:3,0:0:0:0:
402,54,70914,1,0,0:0:0:0:
461,125,71071,2,0,L|454:234,2,77.5,4|4|8,0:3|0:3|0:3,0:0:0:0:
402,54,71539,1,0,0:0:0:0:
330,113,71696,6,0,B|339:140|331:165|331:165|342:183|346:212|346:212|337:239|340:263,1,155,4|8,0:3|0:3,0:0:0:0:
380,347,72164,1,4,0:3:0:0:
286,343,72321,2,0,L|189:349,1,77.5,4|4,0:3|0:3,0:0:0:0:
171,262,72633,2,0,L|74:256,1,77.5,8|0,0:3|0:0,0:0:0:0:
48,338,72946,6,0,P|76:265|36:171,1,155,4|0,0:0|0:0,0:0:0:0:
16,109,73414,2,0,B|75:103|75:103|104:121|104:121|183:114,1,155,4|0,0:0|0:0,0:0:0:0:
252,150,73883,2,0,P|259:112|244:66,1,77.5,8|0,0:3|0:0,0:0:0:0:
321,17,74196,6,0,L|167:29,1,155,4|8,0:0|0:3,0:0:0:0:
165,115,74664,1,0,0:0:0:0:
162,208,74821,2,0,L|244:200,1,77.5,4|4,0:3|0:3,0:0:0:0:
304,266,75133,1,8,0:3:0:0:
374,205,75289,1,8,0:3:0:0:
435,134,75446,6,0,L|512:139,2,77.5,4|0|8,0:3|0:0|0:3,0:0:0:0:
371,66,75914,2,0,P|329:57|281:77,1,77.5,4|4,0:3|0:3,0:0:0:0:
231,132,76227,1,4,0:3:0:0:
231,132,76305,1,4,0:3:0:0:
231,132,76383,1,8,0:3:0:0:
162,69,76539,6,0,P|140:145|197:213,1,155,4|8,0:3|0:3,0:0:0:0:
257,254,77008,1,8,0:3:0:0:
95,346,77321,2,0,L|90:296,3,38.75,4|4|4|4,0:3|0:3|0:3|0:3,0:0:0:0:
85,261,77633,1,8,0:3:0:0:
248,349,77946,6,0,P|287:361|349:334,1,77.5,4|4,0:2|0:3,0:0:0:0:
381,282,78258,2,0,P|418:275|455:287,1,77.5,8|4,0:3|0:3,0:0:0:0:
497,203,78571,2,0,L|493:115,1,77.5,8|4,0:3|0:3,0:0:0:0:
417,72,78883,2,0,L|413:149,1,77.5,8|4,0:3|0:3,0:0:0:0:
325,181,79196,6,0,L|220:189,1,77.5,8|4,0:3|0:3,0:0:0:0:
183,120,79508,2,0,L|78:112,1,77.5,8|4,0:3|0:3,0:0:0:0:
56,34,79821,2,0,L|161:26,1,77.5,8|4,0:3|0:3,0:0:0:0:
222,1,80133,2,0,L|327:9,1,77.5,8|4,0:3|0:3,0:0:0:0:
343,89,80446,6,0,P|351:130|333:180,1,77.5,8|4,0:3|0:3,0:0:0:0:
247,186,80758,2,0,P|239:227|257:277,1,77.5,8|4,0:3|0:3,0:0:0:0:
286,346,81071,2,0,P|245:354|195:336,1,77.5,8|4,0:3|0:3,0:0:0:0:
146,279,81383,1,8,0:3:0:0:
67,328,81539,1,4,0:3:0:0:
67,328,81617,1,4,0:3:0:0:
67,328,81696,6,0,P|53:282|66:238,1,77.5,8|4,0:3|0:3,0:0:0:0:
125,189,82008,1,8,0:3:0:0:
67,116,82164,1,4,0:3:0:0:
127,45,82321,2,0,L|215:56,1,77.5,8|4,0:3|0:3,0:0:0:0:
258,129,82633,2,0,L|334:119,1,77.5,8|4,0:3|0:3,0:0:0:0:
444,39,82946,6,0,L|436:218,1,155,4|8,0:0|0:3,0:0:0:0:
468,281,83414,2,0,L|381:273,1,77.5,4|0,0:0|0:0,0:0:0:0:
321,336,83727,2,0,L|243:343,1,77.5,4|0,0:0|0:0,0:0:0:0:
174,281,84039,2,0,L|96:273,1,77.5,4|0,0:0|0:0,0:0:0:0:
256,192,84352,12,0,85446,0:0:0:0:
256,192,86071,12,2,89196,0:0:0:0:
