osu file format v14

[General]
AudioFilename: audio.mp3
AudioLeadIn: 0
PreviewTime: 40289
Countdown: 0
SampleSet: Soft
StackLeniency: 0.5
Mode: 0
LetterboxInBreaks: 0
WidescreenStoryboard: 0

[Editor]
Bookmarks: 39196
DistanceSpacing: 0.6
BeatDivisor: 2
GridSize: 8
TimelineZoom: 2

[Metadata]
Title:Good Luck Lilac
TitleUnicode:グッドラック ライラック
Artist:GATALIS
ArtistUnicode:GATALIS
Creator:DakiniBrave
Version:Anime
Source:アニメガタリズ
Tags:lasse ambient akitoshi bariton kibbleru -_rain_- animegataris Anime-Gataris
BeatmapID:1447640
BeatmapSetID:684032

[Difficulty]
HPDrainRate:6
CircleSize:4
OverallDifficulty:8.8
ApproachRate:9.2
SliderMultiplier:1.85
SliderTickRate:1

[Events]
//Background and Video events
0,0,"0006ea87_350190.png",0,0
//Break Periods
//Storyboard Layer 0 (Background)
//Storyboard Layer 1 (Fail)
//Storyboard Layer 2 (Pass)
//Storyboard Layer 3 (Foreground)
//Storyboard Sound Samples

[TimingPoints]
446,312.5,4,2,0,70,1,0
446,-125,4,2,0,70,0,0
7008,-200,4,2,0,70,0,0
7946,-111.111111111111,4,2,0,70,0,0
27946,-125,4,2,0,70,0,0
32946,-111.111111111111,4,2,0,70,0,0
40446,-100,4,2,0,80,0,1
59196,-100,4,2,0,70,0,0
60446,-100,4,2,0,80,0,1
70446,-100,4,2,0,70,0,0
77946,-100,4,2,0,80,0,1
82946,-100,4,2,0,70,0,0
86149,-133.333333333333,4,2,0,40,0,0
89196,-133.333333333333,4,2,0,5,0,0

[Colours]
Combo1 : 220,228,48
Combo2 : 233,124,163
Combo3 : 119,18,186
Combo4 : 46,194,187

[HitObjects]
73,318,446,5,2,0:0:0:0:
140,254,602,1,2,0:0:0:0:
218,305,758,1,2,0:0:0:0:
286,242,914,1,2,0:0:0:0:
286,242,1227,1,2,0:0:0:0:
286,242,1539,1,2,0:0:0:0:
286,242,1852,5,2,0:0:0:0:
202,200,2008,2,0,P|192:240|200:281,1,74,2|0,0:0|0:0,0:0:0:0:
280,148,2321,2,0,P|284:111|274:76,2,74,2|0|0,0:0|0:0|0:0,0:0:0:0:
227,0,2789,1,4,0:3:0:0:
506,167,2946,5,2,0:0:0:0:
423,121,3102,1,2,0:0:0:0:
360,191,3258,1,2,0:0:0:0:
280,148,3414,1,2,0:0:0:0:
280,148,3727,1,2,0:0:0:0:
280,148,4039,1,2,0:0:0:0:
280,148,4352,5,2,0:0:0:0:
334,61,4508,1,2,0:0:0:0:
334,247,4664,1,2,0:0:0:0:
172,154,4821,2,0,L|178:69,1,74,2|0,0:0|0:0,0:0:0:0:
229,266,5133,2,0,L|227:296,5,24.6666666666667,2|2|2|2|2|2,0:0|0:0|0:0|0:0|0:0|0:0,0:0:0:0:
222,377,5446,6,0,L|317:368,1,74,8|0,0:3|0:0,0:0:0:0:
467,354,5758,1,2,0:3:0:0:
332,174,5914,2,0,P|326:210|342:263,1,74,8|0,0:3|0:0,0:0:0:0:
423,207,6227,1,8,0:3:0:0:
344,68,6383,1,0,0:0:0:0:
295,370,6539,1,8,0:3:0:0:
170,77,6852,5,0,0:0:0:0:
170,77,6930,1,0,0:0:0:0:
170,77,7008,2,0,B|205:85|238:71|238:71|264:73|280:87|280:87|318:73|359:84,1,185
113,3,7946,6,0,P|146:91|110:182,1,166.499994918823,4|8,0:0|0:3,0:0:0:0:
58,264,8414,1,4,0:3:0:0:
58,264,8571,2,0,P|92:281|165:273,1,83.2499974594117,4|0,0:3|0:0,0:0:0:0:
263,193,8883,1,8,0:3:0:0:
252,365,9039,6,0,L|239:266,1,83.2499974594117,4|0,0:3|0:0,0:0:0:0:
363,160,9352,1,4,0:3:0:0:
363,160,9508,2,0,L|352:242,1,83.2499974594117,0|4,0:3|0:3,0:0:0:0:
333,344,9821,1,4,0:3:0:0:
263,193,9977,1,2,0:0:0:0:
446,226,10133,2,0,L|435:308,1,83.2499974594117,8|0,0:3|0:0,0:0:0:0:
170,345,10446,6,0,B|210:326|251:343|251:343|289:358|332:343,1,166.499994918823,8|8,0:3|0:3,0:0:0:0:
109,189,10914,1,4,0:3:0:0:
109,189,11071,2,0,L|98:279,1,83.2499974594117,4|0,0:3|0:0,0:0:0:0:
11,179,11383,1,8,0:3:0:0:
52,93,11539,6,0,P|97:77|145:89,1,83.2499974594117,4|0,0:3|0:0,0:0:0:0:
263,193,11852,1,4,0:3:0:0:
263,193,12008,2,0,L|273:110,1,83.2499974594117,4|4,0:3|0:3,0:0:0:0:
288,14,12321,1,4,0:3:0:0:
462,37,12477,1,2,0:0:0:0:
209,53,12633,1,8,0:3:0:0:
356,105,12789,1,2,0:0:0:0:
357,270,12946,6,0,B|362:208|362:208|350:169|350:169|357:105,1,166.499994918823,4|8,0:3|0:3,0:0:0:0:
439,213,13414,1,4,0:3:0:0:
244,325,13571,2,0,P|230:282|238:233,1,83.2499974594117,4|0,0:3|0:0,0:0:0:0:
450,307,13883,1,8,0:3:0:0:
239,334,14039,6,0,P|222:292|226:242,1,83.2499974594117,4|0,0:3|0:0,0:0:0:0:
267,151,14352,1,4,0:3:0:0:
405,266,14508,2,0,P|360:256|322:225,1,83.2499974594117,8|0,0:3|0:0,0:0:0:0:
421,4,14821,2,0,P|435:47|427:96,1,83.2499974594117,4|0,0:3|0:0,0:0:0:0:
187,121,15133,2,0,P|217:87|263:69,1,83.2499974594117,8|0,0:3|0:0,0:0:0:0:
358,165,15367,1,2,0:0:0:0:
358,165,15446,6,0,L|272:159,1,83.2499974594117,2|0,0:0|0:0,0:0:0:0:
159,27,15758,1,8,0:3:0:0:
162,238,15914,2,0,L|248:232,1,83.2499974594117,4|0,0:3|0:0,0:0:0:0:
83,145,16227,2,0,L|-3:139,1,83.2499974594117,4|8,0:3|0:3,0:0:0:0:
153,363,16539,6,0,L|165:210,1,124.874996189118,4|0,0:3|0:0,0:0:0:0:
168,188,16852,1,4,0:3:0:0:
56,263,17008,2,0,L|64:365,1,83.2499974594117,8|0,0:3|0:0,0:0:0:0:
293,183,17321,1,8,0:0:0:0:
55,263,17477,1,0,0:0:0:0:
299,265,17633,2,0,L|292:182,1,83.2499974594117,8|0,0:0|0:0,0:0:0:0:
369,60,17946,6,0,P|281:92|190:56,1,166.499994918823,4|8,0:0|0:3,0:0:0:0:
68,185,18414,1,4,0:3:0:0:
68,185,18571,2,0,P|102:167|175:175,1,83.2499974594117,4|0,0:3|0:0,0:0:0:0:
299,265,18883,1,8,0:3:0:0:
135,256,19039,6,0,L|145:338,1,83.2499974594117,4|0,0:3|0:0,0:0:0:0:
345,188,19352,1,4,0:3:0:0:
344,187,19508,2,0,P|305:174|265:182,1,83.2499974594117,8|0,0:3|0:0,0:0:0:0:
299,265,19821,1,4,0:3:0:0:
312,79,19977,1,2,0:0:0:0:
123,173,20133,2,0,L|134:255,1,83.2499974594117,8|0,0:3|0:0,0:0:0:0:
38,120,20446,6,0,B|78:101|119:118|119:118|157:133|200:118,1,166.499994918823,8|8,0:3|0:3,0:0:0:0:
327,7,20914,1,4,0:3:0:0:
327,7,21071,2,0,L|316:97,1,83.2499974594117,4|0,0:3|0:0,0:0:0:0:
301,219,21383,1,0,0:0:0:0:
490,90,21539,6,0,P|445:74|397:86,1,83.2499974594117,4|0,0:3|0:0,0:0:0:0:
426,251,21852,1,4,0:3:0:0:
426,251,22008,2,0,L|436:168,1,83.2499974594117,8|0,0:3|0:0,0:0:0:0:
301,219,22321,1,4,0:3:0:0:
512,267,22477,1,2,0:0:0:0:
261,303,22633,1,8,0:3:0:0:
512,267,22789,1,0,0:0:0:0:
275,138,22946,6,0,L|261:314,1,166.499994918823,8|8,0:3|0:3,0:0:0:0:
170,160,23414,1,4,0:3:0:0:
375,120,23571,2,0,P|378:161|364:200,1,83.2499974594117,4|0,0:3|0:0,0:0:0:0:
261,303,23883,1,8,0:3:0:0:
108,93,24039,6,0,P|147:74|211:84,1,83.2499974594117,4|0,0:3|0:0,0:0:0:0:
275,138,24352,1,4,0:3:0:0:
85,265,24508,2,0,P|92:220|77:167,1,83.2499974594117,2|0,0:0|0:0,0:0:0:0:
14,34,24821,2,0,P|6:75|14:116,1,83.2499974594117,2|4,0:0|0:3,0:0:0:0:
108,93,25133,1,4,0:3:0:0:
280,54,25289,1,4,0:3:0:0:
280,54,25367,1,4,0:3:0:0:
280,54,25446,6,0,L|274:140,1,83.2499974594117,4|0,0:0|0:0,0:0:0:0:
237,232,25758,1,8,0:3:0:0:
348,296,25914,2,0,P|362:259|347:182,1,83.2499974594117,4|0,0:3|0:0,0:0:0:0:
274,137,26227,1,4,0:3:0:0:
244,359,26383,1,8,0:3:0:0:
154,239,26539,6,0,L|263:229,1,83.2499974594117,4|0,0:3|0:0,0:0:0:0:
361,217,26852,1,4,0:3:0:0:
131,96,27008,1,8,0:3:0:0:
244,359,27164,1,8,0:3:0:0:
244,359,27242,1,8,0:3:0:0:
244,359,27321,5,8,0:3:0:0:
276,85,27477,1,4,0:3:0:0:
108,190,27633,5,4,0:3:0:0:
361,217,27789,1,4,0:3:0:0:
156,257,27946,6,0,L|144:99,1,148,4|0,0:0|0:0,0:0:0:0:
65,54,28414,1,4,0:3:0:0:
65,54,28571,2,0,P|138:67|221:24,1,148,8|0,0:3|0:0,0:0:0:0:
333,176,29039,6,0,B|274:170|274:170|239:182|239:182|159:175,2,148,4|4|4,0:3|0:3|0:3,0:0:0:0:
395,312,29821,1,8,0:3:0:0:
429,64,29977,1,4,0:3:0:0:
401,319,30133,1,8,0:3:0:0:
435,71,30289,1,4,0:3:0:0:
470,277,30446,6,0,P|398:292|323:246,1,148,8|8,0:3|0:3,0:0:0:0:
350,146,30914,1,4,0:3:0:0:
303,375,31070,1,8,0:3:0:0:
356,154,31227,1,4,0:3:0:0:
309,383,31383,1,8,0:3:0:0:
195,119,31539,6,0,B|223:189|223:189|205:291,1,148,4|8,0:0|0:3,0:0:0:0:
193,357,32008,1,0,0:0:0:0:
130,201,32164,1,4,0:3:0:0:
338,231,32321,2,0,L|320:330,1,74,8|4,0:3|0:3,0:0:0:0:
119,62,32633,1,8,0:3:0:0:
149,41,32711,1,4,0:3:0:0:
184,31,32789,1,4,0:3:0:0:
221,34,32867,1,4,0:3:0:0:
253,54,32946,6,0,P|332:73|406:38,1,166.499994918823,4|8,0:0|0:3,0:0:0:0:
491,158,33414,1,0,0:0:0:0:
491,158,33571,2,0,L|504:49,1,83.2499974594117,4|4,0:3|0:3,0:0:0:0:
329,105,33883,1,8,0:3:0:0:
446,237,34039,6,0,B|408:220|365:237|365:237|322:255|278:237,1,166.499994918823,4|4,0:3|0:3,0:0:0:0:
138,175,34508,2,0,P|126:214|139:268,1,83.2499974594117,8|0,0:3|0:0,0:0:0:0:
262,347,34821,2,0,P|234:317|180:301,1,83.2499974594117,4|4,0:3|0:3,0:0:0:0:
51,368,35133,2,0,P|90:358|131:320,1,83.2499974594117,8|0,0:3|0:0,0:0:0:0:
67,101,35446,6,0,P|136:128|229:82,1,166.499994918823,4|8,0:0|0:3,0:0:0:0:
335,19,35914,2,0,L|329:102,1,83.2499974594117,2|4,0:0|0:3,0:0:0:0:
293,201,36227,1,2,0:0:0:0:
343,302,36383,1,2,0:0:0:0:
480,147,36539,6,0,L|373:152,1,83.2499974594117,2|0,0:0|0:0,0:0:0:0:
259,298,36852,2,0,L|366:303,1,83.2499974594117,2|8,0:0|0:3,0:0:0:0:
207,159,37164,2,0,L|100:164,1,83.2499974594117,2|4,0:0|0:3,0:0:0:0:
182,249,37477,1,4,0:3:0:0:
158,78,37633,1,8,0:3:0:0:
182,249,37789,1,4,0:3:0:0:
327,118,37946,5,8,0:3:0:0:
38,240,38102,1,4,0:3:0:0:
399,160,38258,5,8,0:3:0:0:
81,168,38414,1,4,0:3:0:0:
327,202,38571,5,8,0:3:0:0:
38,98,38727,1,4,0:3:0:0:
399,160,38883,5,8,0:3:0:0:
86,169,39039,1,4,0:3:0:0:
322,343,39196,5,8,0:3:0:0:
337,309,39274,1,8,0:3:0:0:
343,273,39352,1,8,0:3:0:0:
337,236,39430,1,8,0:3:0:0:
322,202,39508,1,8,0:3:0:0:
304,171,39586,1,8,0:3:0:0:
302,134,39664,1,8,0:3:0:0:
318,101,39742,1,8,0:3:0:0:
347,78,39820,5,4,0:3:0:0:
352,123,39899,1,4,0:3:0:0:
330,161,39977,1,4,0:3:0:0:
294,186,40055,1,4,0:3:0:0:
250,189,40133,1,4,0:3:0:0:
207,197,40211,1,4,0:3:0:0:
168,217,40289,1,4,0:3:0:0:
137,248,40367,1,4,0:3:0:0:
116,288,40446,6,0,P|111:333|130:378,1,92.5,4|4,0:0|0:3,0:0:0:0:
264,303,40758,1,8,0:3:0:0:
6,250,40914,1,0,0:0:0:0:
264,303,41071,1,4,0:3:0:0:
6,356,41227,1,4,0:3:0:0:
77,96,41383,1,8,0:3:0:0:
116,288,41539,1,0,0:0:0:0:
332,149,41696,6,0,P|288:136|232:150,1,92.5,4|0,0:3|0:0,0:0:0:0:
116,288,42008,1,8,0:3:0:0:
276,355,42164,2,0,L|285:255,1,92.5,4|0,0:3|0:0,0:0:0:0:
107,195,42477,2,0,L|115:287,1,92.5,4|8,0:3|0:3,0:0:0:0:
286,262,42789,1,0,0:0:0:0:
37,141,42946,6,0,P|111:160|193:112,1,138.75,8|0,0:3|0:0,0:0:0:0:
182,124,43258,1,8,0:3:0:0:
101,45,43414,1,0,0:0:0:0:
210,221,43571,1,4,0:3:0:0:
288,21,43727,1,4,0:3:0:0:
101,192,43883,2,0,L|117:302,1,92.5,8|0,0:3|0:0,0:0:0:0:
257,295,44196,6,0,P|194:260|104:292,1,138.75,8|0,0:3|0:0,0:0:0:0:
114,283,44508,1,8,0:3:0:0:
369,336,44664,2,0,P|383:290|361:227,1,92.5,4|0,0:3|0:0,0:0:0:0:
309,92,44977,1,4,0:3:0:0:
157,259,45133,2,0,L|170:363,1,92.5,8|0,0:3|0:0,0:0:0:0:
74,166,45446,6,0,P|117:140|185:148,1,92.5,4|0,0:3|0:0,0:0:0:0:
284,283,45758,1,8,0:3:0:0:
309,92,45914,1,0,0:0:0:0:
157,259,46071,1,4,0:3:0:0:
421,192,46227,1,4,0:3:0:0:
203,31,46383,1,0,0:3:0:0:
198,354,46539,1,4,0:3:0:0:
494,244,46696,6,0,B|463:229|427:245|427:245|395:260|355:244,1,138.75,8|0,0:3|0:0,0:0:0:0:
341,234,47008,1,8,0:3:0:0:
421,58,47164,2,0,P|435:103|425:162,1,92.5,4|0,0:3|0:0,0:0:0:0:
359,245,47477,1,4,0:3:0:0:
233,97,47633,1,8,0:3:0:0:
325,104,47789,1,0,0:0:0:0:
146,152,47946,5,4,0:3:0:0:
197,9,48102,1,0,0:3:0:0:
297,195,48258,2,0,P|303:240|287:283,1,92.5,8|0,0:3|0:0,0:0:0:0:
97,274,48571,1,4,0:3:0:0:
212,222,48727,1,4,0:3:0:0:
0,231,48883,2,0,P|-8:283|23:350,1,92.5,8|0,0:3|0:0,0:0:0:0:
170,353,49196,5,8,0:3:0:0:
146,152,49352,1,4,0:3:0:0:
178,362,49508,5,8,0:3:0:0:
154,161,49664,1,4,0:3:0:0:
93,286,49821,5,4,0:3:0:0:
120,264,49899,1,4,0:3:0:0:
152,253,49977,1,4,0:3:0:0:
187,253,50055,1,4,0:3:0:0:
219,266,50133,1,8,0:3:0:0:
286,172,50289,1,12,0:3:0:0:
59,73,50446,6,0,B|110:68|110:68|139:84|139:84|193:79,1,138.75,4|0,0:0|0:0,0:0:0:0:
215,76,50758,1,8,0:3:0:0:
86,166,50914,1,0,0:0:0:0:
164,2,51071,1,4,0:3:0:0:
124,253,51227,2,0,P|71:261|31:242,1,92.5,4|8,0:3|0:3,0:0:0:0:
59,73,51539,1,0,0:0:0:0:
186,190,51696,6,0,L|169:358,1,138.75,4|0,0:3|0:0,0:0:0:0:
169,347,52008,1,8,0:3:0:0:
293,282,52164,1,4,0:3:0:0:
99,137,52321,2,0,P|82:179|99:239,1,92.5,0|4,0:0|0:3,0:0:0:0:
376,315,52633,2,0,P|383:269|366:227,1,92.5,8|0,0:3|0:0,0:0:0:0:
172,328,52946,5,4,0:3:0:0:
456,264,53102,1,0,0:0:0:0:
294,80,53258,1,8,0:3:0:0:
288,356,53414,1,0,0:0:0:0:
370,245,53571,1,4,0:3:0:0:
226,115,53727,2,0,P|216:160|234:220,1,92.5,4|8,0:3|0:3,0:0:0:0:
370,245,54039,1,0,0:3:0:0:
226,115,54196,6,0,B|281:110|281:110|300:123|300:123|372:117,1,138.75,4|0,0:3|0:0,0:0:0:0:
382,115,54508,1,8,0:3:0:0:
329,19,54664,1,4,0:3:0:0:
335,221,54821,2,0,P|382:222|435:187,1,92.5,0|4,0:0|0:3,0:0:0:0:
497,154,55055,1,4,0:3:0:0:
497,154,55133,2,0,L|489:274,1,92.5,8|0,0:3|0:0,0:0:0:0:
475,351,55446,6,0,P|406:328|331:348,1,138.75,4|0,0:3|0:0,0:0:0:0:
327,355,55758,1,8,0:3:0:0:
208,246,55914,1,0,0:0:0:0:
340,128,56071,2,0,L|334:237,1,92.5,4|4,0:3|0:3,0:0:0:0:
127,289,56383,2,0,P|119:243|132:196,1,92.5,8|0,0:3|0:0,0:0:0:0:
400,88,56696,6,0,P|327:118|251:80,1,138.75,4|0,0:3|0:0,0:0:0:0:
261,84,57008,1,8,0:3:0:0:
334,220,57164,1,4,0:3:0:0:
300,6,57321,2,0,P|251:-3|189:31,1,92.5,0|4,0:0|0:3,0:0:0:0:
245,224,57633,2,0,P|294:233|356:199,1,92.5,8|0,0:3|0:0,0:0:0:0:
93,59,57946,6,0,B|78:92|93:123|93:123|108:160|93:199,1,138.75,4|0,0:3|0:0,0:0:0:0:
90,212,58258,1,8,0:3:0:0:
10,375,58414,2,0,P|55:357|121:373,1,92.5,0|4,0:0|0:3,0:0:0:0:
203,227,58727,1,4,0:3:0:0:
0,195,58883,2,0,P|-11:241|15:300,1,92.5,8|0,0:3|0:0,0:0:0:0:
63,96,59196,5,8,0:3:0:0:
93,79,59274,1,8,0:3:0:0:
127,74,59352,1,8,0:3:0:0:
160,83,59430,1,8,0:3:0:0:
187,104,59508,1,8,0:3:0:0:
214,124,59586,1,8,0:3:0:0:
247,133,59664,1,8,0:3:0:0:
281,129,59742,1,8,0:3:0:0:
311,112,59821,5,4,0:3:0:0:
327,142,59899,1,4,0:3:0:0:
332,176,59977,1,4,0:3:0:0:
328,210,60055,1,4,0:3:0:0:
312,241,60133,1,4,0:3:0:0:
299,273,60211,1,4,0:3:0:0:
298,308,60289,1,4,0:3:0:0:
310,340,60367,1,4,0:3:0:0:
333,366,60446,5,4,0:2:0:0:
479,169,60602,1,4,0:3:0:0:
186,244,60758,5,8,0:3:0:0:
440,305,60914,1,4,0:3:0:0:
269,58,61071,5,8,0:3:0:0:
298,308,61227,1,4,0:3:0:0:
428,93,61383,5,8,0:3:0:0:
173,128,61539,1,4,0:3:0:0:
452,306,61696,6,0,B|397:301|397:301|369:315|369:315|278:307,1,138.75,4|0,0:3|0:0,0:0:0:0:
298,308,62008,1,8,0:3:0:0:
365,135,62164,2,0,P|380:186|364:245,1,92.5,4|0,0:3|0:0,0:0:0:0:
206,225,62477,1,4,0:3:0:0:
291,28,62633,1,8,0:3:0:0:
288,187,62789,1,0,0:0:0:0:
117,150,62946,6,0,P|95:219|123:298,1,138.75,4|0,0:3|0:0,0:0:0:0:
122,298,63258,1,8,0:3:0:0:
206,225,63414,1,0,0:0:0:0:
0,167,63571,2,0,P|-8:214|12:281,1,92.5,4|4,0:3|0:3,0:0:0:0:
231,119,63883,1,8,0:3:0:0:
95,46,64039,1,0,0:0:0:0:
336,46,64196,6,0,L|329:208,1,138.75,4|0,0:3|0:0,0:0:0:0:
329,205,64508,1,8,0:3:0:0:
429,89,64664,2,0,P|438:43|422:-7,1,92.5,4|0,0:3|0:0,0:0:0:0:
231,119,64977,1,4,0:3:0:0:
422,265,65133,2,0,L|425:157,1,92.5,8|0,0:3|0:0,0:0:0:0:
184,309,65446,6,0,P|228:290|282:295,1,92.5,4|0,0:3|0:0,0:0:0:0:
482,343,65758,2,0,P|438:362|384:357,1,92.5,8|0,0:3|0:0,0:0:0:0:
143,212,66071,1,4,0:3:0:0:
422,265,66227,1,4,0:3:0:0:
222,381,66383,1,8,0:3:0:0:
340,184,66539,1,0,0:0:0:0:
131,54,66696,6,0,L|143:218,1,138.75,4|0,0:3|0:0,0:0:0:0:
143,212,67008,1,8,0:3:0:0:
404,127,67164,2,0,P|366:103|301:109,1,92.5,4|0,0:3|0:0,0:0:0:0:
128,340,67477,2,0,P|173:339|212:314,1,92.5,4|8,0:3|0:3,0:0:0:0:
207,114,67789,1,0,0:0:0:0:
63,261,67946,5,4,0:3:0:0:
330,181,68102,1,0,0:0:0:0:
67,247,68258,1,8,0:3:0:0:
319,384,68414,2,0,P|339:343|333:275,1,92.5,0|4,0:0|0:3,0:0:0:0:
213,102,68727,1,4,0:3:0:0:
128,335,68883,2,0,L|243:320,1,92.5,8|0,0:3|0:0,0:0:0:0:
110,42,69196,5,8,0:3:0:0:
170,245,69352,1,0,0:0:0:0:
106,53,69508,5,4,0:0:0:0:
166,256,69664,1,0,0:0:0:0:
286,37,69821,5,4,0:3:0:0:
301,67,69899,1,4,0:3:0:0:
308,101,69977,1,4,0:3:0:0:
305,135,70055,1,4,0:3:0:0:
293,161,70133,1,8,0:3:0:0:
162,267,70289,1,8,0:3:0:0:
328,282,70446,6,0,P|255:241|148:280,1,185,4|8,0:0|0:3,0:0:0:0:
111,360,70914,1,0,0:0:0:0:
108,68,71071,1,4,0:3:0:0:
206,121,71227,1,4,0:3:0:0:
109,177,71383,1,8,0:3:0:0:
108,68,71539,1,4,0:3:0:0:
251,15,71696,6,0,L|236:213,1,185,4|8,0:3|0:3,0:0:0:0:
336,126,72164,1,4,0:3:0:0:
109,177,72321,2,0,P|110:222|161:279,1,92.5,4|4,0:3|0:3,0:0:0:0:
362,211,72633,2,0,P|360:165|337:127,1,92.5,8|0,0:3|0:0,0:0:0:0:
481,308,72946,6,0,B|436:283|389:309|389:309|340:334|282:296,1,185,4|0,0:0|0:0,0:0:0:0:
125,311,73414,2,0,B|195:303|195:303|227:332|227:332|309:324,1,185,4|0,0:0|0:0,0:0:0:0:
274,140,73883,2,0,P|254:182|254:238,1,92.5,8|0,0:3|0:0,0:0:0:0:
366,103,74196,6,0,P|277:121|203:70,1,185,4|8,0:0|0:3,0:0:0:0:
299,26,74664,1,0,0:0:0:0:
129,135,74821,2,0,P|109:93|109:37,1,92.5,4|4,0:3|0:3,0:0:0:0:
247,253,75133,1,8,0:3:0:0:
36,203,75289,1,8,0:3:0:0:
343,204,75446,6,0,P|353:250|340:305,2,92.5,4|0|8,0:3|0:0|0:3,0:0:0:0:
247,253,75914,1,4,0:3:0:0:
437,321,76071,5,4,0:3:0:0:
447,288,76149,1,4,0:3:0:0:
450,253,76227,1,4,0:3:0:0:
446,219,76305,1,4,0:3:0:0:
437,186,76383,1,8,0:3:0:0:
300,81,76539,6,0,P|377:108|475:50,1,185,4|8,0:3|0:3,0:0:0:0:
300,81,77008,2,0,P|249:63|176:93,1,92.5,8|0,0:3|0:0,0:0:0:0:
101,232,77321,1,4,0:3:0:0:
100,208,77399,1,4,0:3:0:0:
99,185,77477,1,4,0:3:0:0:
98,162,77555,1,4,0:3:0:0:
97,139,77633,1,8,0:3:0:0:
95,43,77789,1,2,0:0:0:0:
420,134,77946,5,4,0:2:0:0:
214,213,78102,1,4,0:3:0:0:
351,0,78258,1,8,0:3:0:0:
389,283,78414,1,4,0:3:0:0:
457,33,78571,1,8,0:3:0:0:
389,283,78727,1,4,0:3:0:0:
280,104,78883,1,8,0:3:0:0:
181,313,79039,1,4,0:3:0:0:
181,313,79117,1,4,0:3:0:0:
181,313,79196,5,8,0:3:0:0:
87,73,79352,1,4,0:3:0:0:
181,313,79508,1,8,0:3:0:0:
221,4,79664,1,4,0:3:0:0:
116,237,79821,2,0,P|163:217|225:229,1,92.5,8|4,0:3|0:3,0:3:0:0:
401,138,80133,2,0,L|390:264,1,92.5,8|4,0:3|0:3,0:3:0:0:
259,340,80446,6,0,B|304:314|348:335|348:335|395:358|454:329,1,185,8|8,0:3|0:3,0:3:0:0:
299,29,80914,1,4,3:0:0:0:
309,277,81071,1,8,3:0:0:0:
407,0,81227,1,4,3:0:0:0:
472,197,81384,1,8,3:0:0:0:
210,151,81539,1,4,0:3:0:0:
210,151,81617,1,4,0:3:0:0:
210,151,81696,5,8,0:3:0:0:
437,106,81852,1,4,0:3:0:0:
261,359,82008,1,8,0:3:0:0:
299,29,82164,1,4,0:3:0:0:
309,277,82321,1,8,0:3:0:0:
69,101,82477,1,4,0:3:0:0:
287,118,82633,2,0,L|332:122,5,30.8333333333333,2|2|2|2|2|2,0:0|0:0|0:0|0:0|0:0|0:0,0:0:0:0:
369,126,82946,6,0,L|358:238,1,92.5,4|0,0:0|0:0,0:0:0:0:
66,266,83258,1,8,0:3:0:0:
66,266,83414,2,0,L|57:174,1,92.5,4|0,0:0|0:0,0:0:0:0:
228,34,83727,2,0,L|217:155,1,92.5,4|0,0:0|0:0,0:0:0:0:
351,325,84039,2,0,L|342:233,1,92.5,6|0,0:0|0:0,0:0:0:0:
256,192,84508,12,2,85446,0:2:0:0:
356,172,86149,6,0,L|360:240,3,34.6875013232232,2|2|2|2,0:0|0:0|0:0|0:0,0:0:0:0:
256,192,86461,12,0,89196,0:0:0:0:
