osu file format v14

[General]
AudioFilename: paranoia better.ogg
AudioLeadIn: 0
PreviewTime: 34177
Countdown: 0
SampleSet: Normal
StackLeniency: 0.7
Mode: 1
LetterboxInBreaks: 0
WidescreenStoryboard: 1

[Editor]
Bookmarks: 331,3407,15715,34177,45789,47338,59645,65799,78186,90573,102960,118444,130831,143218
DistanceSpacing: 0.3
BeatDivisor: 4
GridSize: 16
TimelineZoom: 1.5

[Metadata]
Title:PARANOIA (with FEVER 333 & Point North) (Remix) [feat. Jason Aalon Butler]
TitleUnicode:PARANOIA (with FEVER 333 & Point North) (Remix) [feat. Jason Aalon Butler]
Artist:GARZI
ArtistUnicode:GARZI
Creator:Slim-san
Version:Kantan
Source:
Tags:rock english metal metalcore punk Careful What You Wish For Jon Lundin skolodojko gaston_2199 Tsukani
BeatmapID:4058211
BeatmapSetID:1958087

[Difficulty]
HPDrainRate:8
CircleSize:4
OverallDifficulty:3
ApproachRate:9
SliderMultiplier:1.4
SliderTickRate:1

[Events]
//Background and Video events
0,0,"103008653_p0.jpg",0,0
//Break Periods
2,90773,96166
//Storyboard Layer 0 (Background)
//Storyboard Layer 1 (Fail)
//Storyboard Layer 2 (Pass)
//Storyboard Layer 3 (Foreground)
//Storyboard Layer 4 (Overlay)
//Storyboard Sound Samples

[TimingPoints]
331,384.615384615385,4,1,0,60,1,0
331,-111.111111111111,4,1,0,60,0,0
3402,-111.111111111111,4,1,0,50,0,0
14268,-111.111111111111,4,1,0,30,0,0
15710,-111.111111111111,4,1,0,70,0,0
15902,-111.111111111111,4,1,0,70,0,0
21864,-111.111111111111,4,1,0,70,0,0
32249,-111.111111111111,4,1,0,70,0,0
32345,-111.111111111111,4,1,0,30,0,0
33595,-111.111111111111,4,1,0,90,0,0
34177,387.096774193548,4,1,0,90,1,1
34177,-100,4,1,0,90,0,1
45789,-100,4,1,0,90,0,0
45881,-111.111111111111,4,1,0,30,0,0
46564,387.096774193548,4,1,0,90,1,8
46564,-111.111111111111,4,1,0,90,0,8
47338,384.615384615385,4,1,0,70,1,0
47338,-111.111111111111,4,1,0,70,0,0
59640,-111.111111111111,4,1,0,80,0,0
64256,-111.111111111111,4,1,0,50,0,0
65799,387.096774193548,4,1,0,90,1,1
65799,-100,4,1,0,90,0,1
90573,-100,4,1,0,60,0,0
96761,-111.111111111111,4,1,0,70,0,0
102955,-111.111111111111,4,1,0,100,0,0
115052,-111.111111111111,4,1,0,30,0,0
118444,-100,4,1,0,90,0,1
143218,-100,4,1,0,90,0,0

[HitObjects]
256,192,3407,5,8,0:0:0:0:
340,273,4177,1,8,0:0:0:0:
305,227,4946,1,8,0:0:0:0:
291,218,5715,1,8,0:0:0:0:
358,243,6100,1,0,0:0:0:0:
358,243,6484,1,0,0:0:0:0:
286,228,7254,1,8,0:0:0:0:
286,228,8023,1,8,0:0:0:0:
242,184,9561,1,0,0:0:0:0:
284,233,10331,1,8,0:0:0:0:
284,233,11100,1,8,0:0:0:0:
301,235,11869,1,8,0:0:0:0:
372,283,12254,1,0,0:0:0:0:
301,235,12638,1,0,0:0:0:0:
379,254,13407,1,8,0:0:0:0:
379,254,14177,1,0,0:0:0:0:
269,225,15715,1,12,0:0:0:0:
269,225,16292,1,0,0:0:0:0:
307,260,16869,1,8,0:0:0:0:
238,236,17254,1,0,0:0:0:0:
307,260,17831,1,0,0:0:0:0:
307,260,18792,1,8,0:0:0:0:
406,278,19369,1,0,0:0:0:0:
371,270,19946,1,8,0:0:0:0:
371,270,20331,1,0,0:0:0:0:
373,287,20907,1,8,0:0:0:0:
290,249,21869,1,0,0:0:0:0:
290,249,22254,1,8,0:0:0:0:
347,247,23023,1,0,0:0:0:0:
276,221,23407,1,0,0:0:0:0:
309,245,24177,1,8,0:0:0:0:
376,242,24754,1,0,0:0:0:0:
262,196,25331,1,8,0:0:0:0:
352,260,26100,1,0,0:0:0:0:
400,293,26869,1,8,0:0:0:0:
379,278,27831,1,0,0:0:0:0:
405,278,28407,1,0,0:0:0:0:
344,259,29177,1,8,0:0:0:0:
370,284,29946,1,8,0:0:0:0:
356,249,30907,1,0,0:0:0:0:
366,292,31484,1,0,0:0:0:0:
351,254,32254,1,12,0:0:0:0:
283,224,34177,1,12,0:0:0:0:
302,239,34951,1,0,0:0:0:0:
302,239,35338,1,0,0:0:0:0:
304,202,35725,1,8,0:0:0:0:
258,224,36306,1,0,0:0:0:0:
258,224,36693,1,8,0:0:0:0:
333,243,37273,1,0,0:0:0:0:
335,263,37660,1,8,0:0:0:0:
335,263,38047,1,0,0:0:0:0:
342,252,38822,1,8,0:0:0:0:
342,252,39402,1,0,0:0:0:0:
342,252,39789,1,0,0:0:0:0:
342,252,40370,1,8,0:0:0:0:
397,267,41144,1,0,0:0:0:0:
366,269,41918,1,8,0:0:0:0:
228,184,42499,1,8,0:0:0:0:
365,280,42886,1,8,0:0:0:0:
317,232,43273,1,0,0:0:0:0:
250,232,44241,1,8,0:0:0:0:
250,232,44628,1,0,0:0:0:0:
317,242,45015,1,8,0:0:0:0:
223,234,45596,1,0,0:0:0:0:
167,186,47338,1,8,0:0:0:0:
370,268,48107,1,0,0:0:0:0:
409,308,48876,1,0,0:0:0:0:
396,284,49645,1,8,0:0:0:0:
409,308,50030,1,8,0:0:0:0:
381,253,50414,1,0,0:0:0:0:
261,199,51184,1,0,0:0:0:0:
219,189,51953,1,8,0:0:0:0:
362,276,52722,1,8,0:0:0:0:
362,269,53491,1,0,0:0:0:0:
407,298,54645,1,8,0:0:0:0:
409,308,55030,1,0,0:0:0:0:
420,311,55799,1,8,0:0:0:0:
407,298,56184,1,0,0:0:0:0:
407,298,56568,1,8,0:0:0:0:
382,282,57338,1,0,0:0:0:0:
416,313,58107,1,0,0:0:0:0:
421,322,58876,1,8,0:0:0:0:
269,241,59261,1,8,0:0:0:0:
421,322,59645,1,0,0:0:0:0:
324,309,60414,1,8,0:0:0:0:
391,312,61184,1,0,0:0:0:0:
385,290,61568,1,0,0:0:0:0:
385,290,61953,1,8,0:0:0:0:
353,252,62722,1,0,0:0:0:0:
391,290,63491,1,8,0:0:0:0:
333,270,63876,1,8,0:0:0:0:
391,299,64261,1,0,0:0:0:0:
283,224,65799,1,12,0:0:0:0:
302,239,66573,1,0,0:0:0:0:
302,239,66960,1,8,0:0:0:0:
304,202,67347,1,0,0:0:0:0:
258,224,67928,1,8,0:0:0:0:
258,224,68315,1,8,0:0:0:0:
333,243,68895,1,0,0:0:0:0:
335,263,69282,1,0,0:0:0:0:
335,263,69669,1,8,0:0:0:0:
342,252,70444,1,0,0:0:0:0:
342,252,71024,1,8,0:0:0:0:
342,252,71411,1,0,0:0:0:0:
342,252,71992,1,8,0:0:0:0:
397,267,72766,1,0,0:0:0:0:
366,269,73540,1,8,0:0:0:0:
228,184,74121,1,8,0:0:0:0:
365,280,74508,1,8,0:0:0:0:
317,232,74895,1,0,0:0:0:0:
250,232,75863,1,8,0:0:0:0:
250,232,76250,1,0,0:0:0:0:
317,242,76637,1,8,0:0:0:0:
140,235,77218,1,0,0:0:0:0:
255,191,78186,1,0,0:0:0:0:
354,258,78573,1,0,0:0:0:0:
325,223,78960,1,8,0:0:0:0:
324,247,79734,1,0,0:0:0:0:
324,247,80121,1,0,0:0:0:0:
324,247,80508,1,8,0:0:0:0:
402,297,81669,1,0,0:0:0:0:
402,297,82057,1,8,0:0:0:0:
326,260,82831,1,0,0:0:0:0:
319,236,83218,1,8,0:0:0:0:
382,272,83605,1,0,0:0:0:0:
409,303,84379,1,8,0:0:0:0:
181,206,84766,1,8,0:0:0:0:
181,206,85153,1,0,0:0:0:0:
332,261,85928,1,8,0:0:0:0:
323,248,86315,1,8,0:0:0:0:
323,248,86702,1,0,0:0:0:0:
377,276,87863,1,0,0:0:0:0:
377,276,88250,1,8,0:0:0:0:
265,172,89024,1,8,0:0:0:0:
266,185,89411,1,0,0:0:0:0:
266,185,89798,1,0,0:0:0:0:
355,272,90186,1,0,0:0:0:0:
355,272,90573,1,8,0:0:0:0:
256,191,96766,5,8,0:0:0:0:
415,269,97347,1,8,0:0:0:0:
420,279,97928,1,8,0:0:0:0:
421,302,98508,1,8,0:0:0:0:
410,308,99089,1,0,0:0:0:0:
442,303,99476,1,8,0:0:0:0:
411,276,99863,1,0,0:0:0:0:
417,305,100637,1,8,0:0:0:0:
444,354,101024,1,0,0:0:0:0:
418,295,101411,1,8,0:0:0:0:
437,337,102186,1,8,0:0:0:0:
254,191,102960,1,4,0:0:0:0:
186,200,103734,1,8,0:0:0:0:
395,285,104121,1,0,0:0:0:0:
431,306,104895,1,0,0:0:0:0:
414,315,105476,1,8,0:0:0:0:
350,267,106057,1,4,0:0:0:0:
358,285,106831,1,8,0:0:0:0:
427,326,107218,1,0,0:0:0:0:
393,297,107798,1,8,0:0:0:0:
356,250,109153,1,4,0:0:0:0:
340,223,109928,1,8,0:0:0:0:
363,270,110315,1,0,0:0:0:0:
363,270,110702,1,8,0:0:0:0:
404,307,111476,1,8,0:0:0:0:
346,236,112250,1,4,0:0:0:0:
381,279,113024,1,8,0:0:0:0:
301,243,113411,1,0,0:0:0:0:
328,259,113992,1,0,0:0:0:0:
331,202,114573,1,12,0:0:0:0:
331,202,114960,1,12,0:0:0:0:
283,224,118444,1,12,0:0:0:0:
302,239,119218,1,8,0:0:0:0:
302,239,119605,1,0,0:0:0:0:
293,232,119992,1,0,0:0:0:0:
258,224,120766,1,8,0:0:0:0:
333,243,121540,1,8,0:0:0:0:
335,263,122315,1,0,0:0:0:0:
386,273,122702,1,0,0:0:0:0:
342,275,123089,1,8,0:0:0:0:
342,252,124637,1,8,0:0:0:0:
358,265,125411,1,0,0:0:0:0:
413,302,125798,1,8,0:0:0:0:
206,214,126186,1,0,0:0:0:0:
228,184,126960,1,8,0:0:0:0:
317,232,127734,1,8,0:0:0:0:
250,232,128508,1,0,0:0:0:0:
250,232,128895,1,0,0:0:0:0:
422,318,129282,1,8,0:0:0:0:
255,191,130831,1,8,0:0:0:0:
354,258,131218,1,8,0:0:0:0:
325,223,131605,1,0,0:0:0:0:
324,247,132379,1,8,0:0:0:0:
324,247,132766,1,8,0:0:0:0:
324,247,133153,1,0,0:0:0:0:
110,297,134315,1,8,0:0:0:0:
110,297,134702,1,0,0:0:0:0:
326,260,135476,1,8,0:0:0:0:
319,236,135863,1,0,0:0:0:0:
382,272,136250,1,8,0:0:0:0:
409,303,137024,1,0,0:0:0:0:
181,206,137411,1,0,0:0:0:0:
181,206,137798,1,8,0:0:0:0:
332,261,138573,1,0,0:0:0:0:
323,248,138960,1,0,0:0:0:0:
323,248,139347,1,8,0:0:0:0:
344,262,140121,1,8,0:0:0:0:
377,276,140702,1,8,0:0:0:0:
377,276,141282,1,8,0:0:0:0:
265,172,141669,1,0,0:0:0:0:
266,185,142057,1,0,0:0:0:0:
266,185,142444,1,8,0:0:0:0:
355,272,142831,1,8,0:0:0:0:
