osu file format v14

[General]
AudioFilename: paranoia better.ogg
AudioLeadIn: 0
PreviewTime: 34177
Countdown: 0
SampleSet: Normal
StackLeniency: 0.7
Mode: 1
LetterboxInBreaks: 0
WidescreenStoryboard: 1

[Editor]
Bookmarks: 331,3407,15715,21869,34177,45789,47338,59645,65799,78186,90573,102960,118444,130831,143218
DistanceSpacing: 0.3
BeatDivisor: 8
GridSize: 16
TimelineZoom: 1.4

[Metadata]
Title:PARANOIA (with FEVER 333 & Point North) (Remix) [feat. Jason Aalon Butler]
TitleUnicode:PARANOIA (with FEVER 333 & Point North) (Remix) [feat. Jason Aalon Butler]
Artist:GARZI
ArtistUnicode:GARZI
Creator:Slim-san
Version:2199's Oni
Source:
Tags:rock english metal metalcore punk Careful What You Wish For Jon Lundin skolodojko gaston_2199 Tsukani
BeatmapID:4057709
BeatmapSetID:1958087

[Difficulty]
HPDrainRate:5.5
CircleSize:4
OverallDifficulty:5.5
ApproachRate:9
SliderMultiplier:1.4
SliderTickRate:1

[Events]
//Background and Video events
0,0,"103008653_p0.jpg",0,0
//Break Periods
2,90773,96166
//Storyboard Layer 0 (Background)
//Storyboard Layer 1 (Fail)
//Storyboard Layer 2 (Pass)
//Storyboard Layer 3 (Foreground)
//Storyboard Layer 4 (Overlay)
//Storyboard Sound Samples

[TimingPoints]
331,384.615384615385,4,1,0,60,1,0
331,-142.857142857143,4,1,0,60,0,0
3402,-125,4,1,0,50,0,0
14268,-125,4,1,0,30,0,0
15710,-111.111111111111,4,1,0,70,0,0
21869,-100,4,1,0,80,0,0
32345,-100,4,1,0,30,0,0
33595,-111.111111111111,4,1,0,80,0,0
34177,387.096774193548,4,1,0,90,1,1
34177,-95.2380952380952,4,1,0,90,0,1
45789,-95.2380952380952,4,1,0,90,0,0
45881,-100,4,1,0,30,0,0
46564,387.096774193548,4,1,0,90,1,8
46564,-100,4,1,0,90,0,8
47338,384.615384615385,4,1,0,70,1,0
47338,-111.42061281337,4,1,0,70,0,0
59640,-100.012997140629,4,1,0,80,0,0
64256,-100,4,1,0,50,0,0
64645,-111.111111111111,4,1,0,50,0,0
65030,-125,4,1,0,50,0,0
65799,387.096774193548,4,1,0,90,1,0
65799,-95.2380952380952,4,1,0,90,0,1
90573,-95.2380952380952,4,1,0,60,0,0
96761,-111.11642705069,4,1,0,70,0,0
102955,-91.1161731207289,4,1,0,100,0,0
115052,-125,4,1,0,30,0,0
118444,-125,4,1,0,90,0,1
129473,-120.291993476741,4,1,0,90,0,1
129666,-115.947453123246,4,1,0,90,0,1
129763,-113.880311718865,4,1,0,90,0,1
129860,-111.885586333923,4,1,0,90,0,1
129957,-109.959537161922,4,1,0,90,0,1
130054,-108.098677553299,4,1,0,90,0,1
130247,-104.577369700243,4,1,0,90,0,1
130441,-101.261685297771,4,1,0,90,0,1
130537,-99.6974962991569,4,1,0,90,0,1
130634,-98.1653411071327,4,1,0,90,0,1
130828,-95.2380952380952,4,1,0,90,0,1
140118,-93.6641471295782,4,1,0,90,0,1
140312,-92.8945547979049,4,1,0,90,0,1
140505,-92.1413767994175,4,1,0,90,0,1
140699,-91.3965052643276,4,1,0,90,0,1
140892,-90.6673280696678,4,1,0,90,0,1
141086,-89.9460050577541,4,1,0,90,0,1
141279,-89.2396994602219,4,1,0,90,0,1
141473,-88.5408256633834,4,1,0,90,0,1
141666,-87.8563321984111,4,1,0,90,0,1
141860,-87.1788756839832,4,1,0,90,0,1
142054,-86.5117869022732,4,1,0,90,0,1
142247,-85.8581904538219,4,1,0,90,0,1
142441,-85.2110852110852,4,1,0,90,0,1
142634,-84.5769225825525,4,1,0,90,0,1
142828,-83.9489161914239,4,1,0,90,0,1
143021,-83.3333333333333,4,1,0,90,0,1
143218,-100,4,1,0,90,0,0

[HitObjects]
64,64,331,5,0,0:0:0:0:
448,64,907,1,8,0:0:0:0:
64,64,1484,1,0,0:0:0:0:
64,64,2061,1,0,0:0:0:0:
64,64,3023,1,0,0:0:0:0:
64,64,3215,1,0,0:0:0:0:
448,64,3407,1,8,0:0:0:0:
448,64,3792,1,8,0:0:0:0:
64,64,3984,1,0,0:0:0:0:
448,64,4177,1,8,0:0:0:0:
448,64,4561,1,0,0:0:0:0:
448,64,4946,1,8,0:0:0:0:
64,64,5138,1,0,0:0:0:0:
448,64,5331,1,8,0:0:0:0:
448,64,5715,1,8,0:0:0:0:
64,64,6100,1,0,0:0:0:0:
64,64,6292,1,0,0:0:0:0:
448,64,6484,1,8,0:0:0:0:
448,64,6869,1,8,0:0:0:0:
64,64,7061,1,0,0:0:0:0:
448,64,7254,1,8,0:0:0:0:
448,64,7638,1,0,0:0:0:0:
448,64,8023,1,8,0:0:0:0:
64,64,8215,1,0,0:0:0:0:
448,64,8407,1,8,0:0:0:0:
448,64,8792,1,8,0:0:0:0:
448,64,9177,1,0,0:0:0:0:
448,64,9561,1,8,0:0:0:0:
448,64,9946,1,8,0:0:0:0:
64,64,10138,1,0,0:0:0:0:
448,64,10331,1,8,0:0:0:0:
448,64,10715,1,0,0:0:0:0:
448,64,11100,1,8,0:0:0:0:
64,64,11292,1,0,0:0:0:0:
448,64,11484,1,8,0:0:0:0:
448,64,11869,1,8,0:0:0:0:
64,64,12254,1,0,0:0:0:0:
64,64,12446,1,0,0:0:0:0:
448,64,12638,1,8,0:0:0:0:
448,64,13023,1,8,0:0:0:0:
64,64,13215,1,0,0:0:0:0:
448,64,13407,1,8,0:0:0:0:
448,64,13792,1,0,0:0:0:0:
448,320,15715,1,12,0:0:0:0:
448,64,16100,1,8,0:0:0:0:
448,64,16292,1,0,0:0:0:0:
64,64,16388,1,8,0:0:0:0:
448,64,16484,1,0,0:0:0:0:
64,64,16677,1,0,0:0:0:0:
448,64,16869,1,8,0:0:0:0:
64,64,17254,1,0,0:0:0:0:
448,64,17446,1,0,0:0:0:0:
64,64,17638,1,8,0:0:0:0:
448,64,17831,1,0,0:0:0:0:
448,64,18215,1,8,0:0:0:0:
64,64,18407,1,0,0:0:0:0:
64,64,18600,1,8,0:0:0:0:
64,64,18696,1,0,0:0:0:0:
448,64,18792,1,8,0:0:0:0:
64,64,18984,1,0,0:0:0:0:
448,64,19177,1,8,0:0:0:0:
64,64,19369,1,8,0:0:0:0:
64,64,19465,1,8,0:0:0:0:
448,64,19561,1,0,0:0:0:0:
64,64,19754,1,0,0:0:0:0:
448,64,19946,1,8,0:0:0:0:
448,64,20234,1,8,0:0:0:0:
64,64,20331,1,0,0:0:0:0:
448,64,20523,1,0,0:0:0:0:
448,64,20715,1,8,0:0:0:0:
64,64,20907,1,0,0:0:0:0:
80,66,21100,1,0,0:0:0:0:
448,64,21292,1,8,0:0:0:0:
448,64,21869,1,12,0:0:0:0:
448,64,22254,1,8,0:0:0:0:
64,64,22446,1,0,0:0:0:0:
64,64,22542,1,0,0:0:0:0:
448,64,22638,1,8,0:0:0:0:
64,64,22734,1,8,0:0:0:0:
448,64,22831,1,0,0:0:0:0:
64,64,23023,1,8,0:0:0:0:
448,64,23215,1,0,0:0:0:0:
448,64,23311,1,8,0:0:0:0:
448,64,23407,1,0,0:0:0:0:
64,64,23600,1,0,0:0:0:0:
448,64,23792,1,8,0:0:0:0:
448,64,23984,1,0,0:0:0:0:
448,64,24369,1,8,0:0:0:0:
64,64,24561,1,0,0:0:0:0:
64,64,24754,1,8,0:0:0:0:
64,64,24850,1,0,0:0:0:0:
448,64,24946,1,8,0:0:0:0:
64,64,25138,1,0,0:0:0:0:
448,64,25331,1,8,0:0:0:0:
448,64,25523,1,8,0:0:0:0:
64,64,25619,1,8,0:0:0:0:
448,64,25715,1,8,0:0:0:0:
64,64,25907,1,0,0:0:0:0:
448,64,26100,1,8,0:0:0:0:
448,64,26484,1,8,0:0:0:0:
64,64,26677,1,0,0:0:0:0:
448,64,26869,1,8,0:0:0:0:
439,66,26965,1,0,0:0:0:0:
64,64,27061,1,0,0:0:0:0:
448,64,27254,1,8,0:0:0:0:
64,64,27446,1,0,0:0:0:0:
64,64,27542,1,8,0:0:0:0:
448,64,27638,1,0,0:0:0:0:
448,64,27831,1,8,0:0:0:0:
64,64,28023,1,4,0:0:0:0:
448,64,28407,1,8,0:0:0:0:
64,64,28600,1,0,0:0:0:0:
64,64,28696,1,0,0:0:0:0:
448,64,28792,1,8,0:0:0:0:
434,65,28888,1,0,0:0:0:0:
435,65,28984,1,0,0:0:0:0:
448,64,29177,1,8,0:0:0:0:
428,64,29369,1,0,0:0:0:0:
417,66,29465,1,0,0:0:0:0:
448,64,29561,1,8,0:0:0:0:
64,64,29754,1,0,0:0:0:0:
448,64,29946,1,8,0:0:0:0:
448,64,30138,1,0,0:0:0:0:
448,64,30523,1,8,0:0:0:0:
448,64,30619,1,8,0:0:0:0:
64,64,30715,1,0,0:0:0:0:
64,64,30907,1,8,0:0:0:0:
64,64,31100,1,0,0:0:0:0:
448,64,31292,1,8,0:0:0:0:
448,64,31484,1,8,0:0:0:0:
448,64,31581,1,0,0:0:0:0:
64,64,31677,1,0,0:0:0:0:
64,64,31773,1,8,0:0:0:0:
84,62,31965,1,0,0:0:0:0:
64,64,32061,1,0,0:0:0:0:
448,320,32254,1,12,0:0:0:0:
448,64,33600,1,8,0:0:0:0:
448,64,33696,1,8,0:0:0:0:
64,64,33792,1,8,0:0:0:0:
448,64,33888,1,8,0:0:0:0:
64,64,33984,1,8,0:0:0:0:
448,320,34177,1,4,0:0:0:0:
448,64,34564,1,8,0:0:0:0:
424,62,34757,1,0,0:0:0:0:
64,64,34854,1,8,0:0:0:0:
448,64,34951,1,0,0:0:0:0:
64,64,35144,1,0,0:0:0:0:
64,64,35338,1,8,0:0:0:0:
64,64,35725,1,8,0:0:0:0:
90,60,35918,1,0,0:0:0:0:
64,64,36112,1,8,0:0:0:0:
64,64,36306,1,8,0:0:0:0:
448,64,36402,1,8,0:0:0:0:
448,64,36499,1,0,0:0:0:0:
64,64,36693,1,0,0:0:0:0:
448,64,36886,1,8,0:0:0:0:
448,64,37080,1,8,0:0:0:0:
64,64,37273,1,0,0:0:0:0:
448,64,37660,1,8,0:0:0:0:
64,64,37854,1,8,0:0:0:0:
74,60,37951,1,8,0:0:0:0:
69,63,38047,1,0,0:0:0:0:
64,64,38241,1,0,0:0:0:0:
448,64,38435,1,8,0:0:0:0:
64,64,38628,1,8,0:0:0:0:
448,64,38822,1,0,0:0:0:0:
64,64,38918,1,0,0:0:0:0:
448,64,39015,1,0,0:0:0:0:
64,64,39209,1,8,0:0:0:0:
448,64,39402,1,0,0:0:0:0:
64,64,39499,1,8,0:0:0:0:
64,64,39789,1,0,0:0:0:0:
448,64,39983,1,8,0:0:0:0:
448,64,40080,1,8,0:0:0:0:
64,64,40176,1,0,0:0:0:0:
64,64,40273,1,0,0:0:0:0:
448,320,40370,1,8,0:0:0:0:
448,64,40757,1,8,0:0:0:0:
64,64,40951,1,0,0:0:0:0:
64,64,41047,1,0,0:0:0:0:
448,64,41144,1,8,0:0:0:0:
64,64,41338,1,0,0:0:0:0:
448,64,41531,1,8,0:0:0:0:
64,64,41918,1,8,0:0:0:0:
64,64,42112,1,0,0:0:0:0:
448,64,42306,1,8,0:0:0:0:
448,64,42499,1,0,0:0:0:0:
64,64,42596,1,8,0:0:0:0:
64,64,42693,1,0,0:0:0:0:
448,64,42886,1,0,0:0:0:0:
448,64,43080,1,8,0:0:0:0:
64,64,43273,1,0,0:0:0:0:
64,64,43370,1,0,0:0:0:0:
448,64,43467,1,8,0:0:0:0:
448,64,43660,1,0,0:0:0:0:
448,64,43854,1,8,0:0:0:0:
64,64,44047,1,0,0:0:0:0:
64,64,44144,1,8,0:0:0:0:
71,63,44241,1,0,0:0:0:0:
448,64,44338,1,8,0:0:0:0:
64,64,44435,1,0,0:0:0:0:
448,64,44628,1,8,0:0:0:0:
424,63,44822,1,0,0:0:0:0:
448,64,45015,1,8,0:0:0:0:
448,64,45112,1,0,0:0:0:0:
64,64,45209,1,0,0:0:0:0:
448,64,45402,1,8,0:0:0:0:
448,64,45499,1,8,0:0:0:0:
448,64,45596,1,8,0:0:0:0:
448,64,45693,1,8,0:0:0:0:
448,320,47338,1,4,0:0:0:0:
448,64,47722,1,8,0:0:0:0:
64,64,47914,1,0,0:0:0:0:
64,64,48011,1,8,0:0:0:0:
64,64,48107,1,0,0:0:0:0:
448,64,48299,1,0,0:0:0:0:
448,64,48491,1,8,0:0:0:0:
448,64,48876,1,0,0:0:0:0:
448,64,49068,1,0,0:0:0:0:
448,64,49164,1,0,0:0:0:0:
64,64,49261,1,8,0:0:0:0:
64,64,49453,1,8,0:0:0:0:
448,64,49645,1,0,0:0:0:0:
81,63,50030,1,8,0:0:0:0:
448,64,50222,1,8,0:0:0:0:
448,64,50414,1,0,0:0:0:0:
430,66,50607,1,0,0:0:0:0:
448,64,50799,1,8,0:0:0:0:
64,64,50991,1,0,0:0:0:0:
64,64,51088,1,0,0:0:0:0:
448,64,51184,1,8,0:0:0:0:
448,64,51376,1,0,0:0:0:0:
64,64,51568,1,8,0:0:0:0:
448,64,51761,1,0,0:0:0:0:
440,64,51857,1,8,0:0:0:0:
64,64,51953,1,0,0:0:0:0:
448,64,52145,1,0,0:0:0:0:
448,64,52338,1,8,0:0:0:0:
448,64,52722,1,0,0:0:0:0:
448,64,52818,1,0,0:0:0:0:
448,64,52914,1,8,0:0:0:0:
64,64,53107,1,8,0:0:0:0:
448,64,53203,1,8,0:0:0:0:
64,64,53299,1,8,0:0:0:0:
448,64,53491,1,4,0:0:0:0:
448,64,53876,1,8,0:0:0:0:
64,64,54068,1,0,0:0:0:0:
64,64,54164,1,0,0:0:0:0:
448,64,54261,1,8,0:0:0:0:
64,64,54453,1,0,0:0:0:0:
448,64,54645,1,8,0:0:0:0:
448,64,55030,1,8,0:0:0:0:
64,64,55222,1,0,0:0:0:0:
72,65,55318,1,0,0:0:0:0:
448,64,55414,1,8,0:0:0:0:
64,64,55607,1,0,0:0:0:0:
64,64,55799,1,8,0:0:0:0:
64,64,56184,1,8,0:0:0:0:
448,64,56376,1,8,0:0:0:0:
448,64,56568,1,0,0:0:0:0:
64,64,56761,1,0,0:0:0:0:
64,64,56953,1,8,0:0:0:0:
448,64,57145,1,0,0:0:0:0:
64,64,57338,1,8,0:0:0:0:
64,64,57434,1,0,0:0:0:0:
448,64,57530,1,8,0:0:0:0:
448,64,57722,1,8,0:0:0:0:
64,64,57914,1,0,0:0:0:0:
448,64,58107,1,8,0:0:0:0:
448,64,58363,1,0,0:0:0:0:
64,64,58491,1,0,0:0:0:0:
75,64,58620,1,0,0:0:0:0:
64,64,58748,1,0,0:0:0:0:
448,320,58876,1,8,0:0:0:0:
431,302,59132,1,0,0:0:0:0:
448,64,59261,1,0,0:0:0:0:
448,64,59645,1,12,0:0:0:0:
437,75,59838,1,8,0:0:0:0:
448,64,60030,1,0,0:0:0:0:
64,64,60222,1,8,0:0:0:0:
448,64,60414,1,8,0:0:0:0:
64,64,60799,1,0,0:0:0:0:
64,64,60991,1,0,0:0:0:0:
448,64,61184,1,8,0:0:0:0:
64,64,61376,1,0,0:0:0:0:
448,64,61568,1,0,0:0:0:0:
448,64,61953,1,8,0:0:0:0:
64,64,62145,1,0,0:0:0:0:
64,64,62241,1,0,0:0:0:0:
448,64,62338,1,8,0:0:0:0:
64,64,62530,1,8,0:0:0:0:
448,64,62722,1,0,0:0:0:0:
64,64,62914,1,0,0:0:0:0:
448,64,63107,1,8,0:0:0:0:
64,64,63299,1,0,0:0:0:0:
448,64,63491,1,8,0:0:0:0:
430,61,63684,1,0,0:0:0:0:
419,59,63780,1,0,0:0:0:0:
448,320,63876,1,8,0:0:0:0:
436,306,64068,1,8,0:0:0:0:
448,64,64261,1,0,0:0:0:0:
448,64,64645,1,0,0:0:0:0:
64,64,65030,1,8,0:0:0:0:
113,72,65799,1,4,0:0:0:0:
448,64,66186,1,8,0:0:0:0:
424,62,66379,1,0,0:0:0:0:
64,64,66476,1,8,0:0:0:0:
448,64,66573,1,0,0:0:0:0:
64,64,66766,1,0,0:0:0:0:
64,64,66960,1,8,0:0:0:0:
64,64,67347,1,8,0:0:0:0:
90,60,67540,1,0,0:0:0:0:
64,64,67734,1,8,0:0:0:0:
64,64,67928,1,8,0:0:0:0:
448,64,68024,1,8,0:0:0:0:
448,64,68121,1,0,0:0:0:0:
64,64,68315,1,0,0:0:0:0:
448,64,68508,1,8,0:0:0:0:
448,64,68702,1,8,0:0:0:0:
64,64,68895,1,0,0:0:0:0:
448,64,69282,1,8,0:0:0:0:
64,64,69476,1,8,0:0:0:0:
74,60,69573,1,8,0:0:0:0:
69,63,69669,1,0,0:0:0:0:
64,64,69863,1,0,0:0:0:0:
448,64,70057,1,8,0:0:0:0:
64,64,70250,1,8,0:0:0:0:
448,64,70444,1,0,0:0:0:0:
64,64,70540,1,0,0:0:0:0:
448,64,70637,1,0,0:0:0:0:
64,64,70831,1,8,0:0:0:0:
448,64,71024,1,0,0:0:0:0:
64,64,71121,1,8,0:0:0:0:
64,64,71411,1,0,0:0:0:0:
448,64,71605,1,8,0:0:0:0:
448,64,71702,1,8,0:0:0:0:
64,64,71799,1,0,0:0:0:0:
64,64,71895,1,0,0:0:0:0:
448,320,71992,1,8,0:0:0:0:
448,64,72379,1,8,0:0:0:0:
64,64,72573,1,0,0:0:0:0:
64,64,72669,1,0,0:0:0:0:
448,64,72766,1,8,0:0:0:0:
64,64,72960,1,0,0:0:0:0:
448,64,73153,1,8,0:0:0:0:
64,64,73540,1,8,0:0:0:0:
64,64,73734,1,0,0:0:0:0:
448,64,73928,1,8,0:0:0:0:
448,64,74121,1,0,0:0:0:0:
64,64,74218,1,8,0:0:0:0:
64,64,74315,1,0,0:0:0:0:
448,64,74508,1,0,0:0:0:0:
448,64,74702,1,8,0:0:0:0:
64,64,74895,1,0,0:0:0:0:
64,64,74992,1,0,0:0:0:0:
448,64,75089,1,8,0:0:0:0:
448,64,75282,1,0,0:0:0:0:
448,64,75476,1,8,0:0:0:0:
64,64,75669,1,0,0:0:0:0:
64,64,75766,1,8,0:0:0:0:
71,63,75863,1,0,0:0:0:0:
448,64,75960,1,8,0:0:0:0:
64,64,76057,1,0,0:0:0:0:
448,64,76250,1,8,0:0:0:0:
424,63,76444,1,0,0:0:0:0:
448,64,76637,1,8,0:0:0:0:
64,64,76928,1,8,0:0:0:0:
448,64,77024,1,8,0:0:0:0:
448,64,77218,1,0,0:0:0:0:
442,64,77411,1,0,0:0:0:0:
430,64,77508,1,8,0:0:0:0:
414,64,77605,1,8,0:0:0:0:
399,64,77702,1,8,0:0:0:0:
393,64,77798,1,8,0:0:0:0:
341,64,78186,1,4,0:0:0:0:
448,64,78573,1,8,0:0:0:0:
64,64,78766,1,0,0:0:0:0:
448,64,78863,1,0,0:0:0:0:
64,64,78960,1,8,0:0:0:0:
448,64,79153,1,0,0:0:0:0:
64,64,79347,1,8,0:0:0:0:
64,64,79540,1,0,0:0:0:0:
448,64,79734,1,8,0:0:0:0:
448,64,79831,1,8,0:0:0:0:
64,64,79928,1,0,0:0:0:0:
73,66,80024,1,0,0:0:0:0:
64,64,80121,1,8,0:0:0:0:
448,64,80315,1,0,0:0:0:0:
448,64,80411,1,8,0:0:0:0:
64,64,80508,1,0,0:0:0:0:
64,64,80702,1,0,0:0:0:0:
448,64,80895,1,8,0:0:0:0:
448,64,81282,1,0,0:0:0:0:
64,64,81476,1,0,0:0:0:0:
448,64,81669,1,8,0:0:0:0:
64,64,81863,1,0,0:0:0:0:
64,64,81960,1,0,0:0:0:0:
448,64,82057,1,8,0:0:0:0:
64,64,82250,1,0,0:0:0:0:
448,64,82444,1,8,0:0:0:0:
64,64,82637,1,0,0:0:0:0:
448,64,82831,1,8,0:0:0:0:
64,64,82928,1,0,0:0:0:0:
64,64,83024,1,0,0:0:0:0:
64,64,83121,1,0,0:0:0:0:
448,64,83218,1,8,0:0:0:0:
64,64,83411,1,8,0:0:0:0:
448,64,83605,1,0,0:0:0:0:
448,64,83702,1,0,0:0:0:0:
448,64,83798,1,0,0:0:0:0:
64,64,83992,1,8,0:0:0:0:
64,64,84089,1,8,0:0:0:0:
448,64,84186,1,8,0:0:0:0:
448,320,84379,1,0,0:0:0:0:
448,64,84766,1,8,0:0:0:0:
448,64,84960,1,0,0:0:0:0:
64,64,85057,1,0,0:0:0:0:
448,64,85153,1,8,0:0:0:0:
64,64,85347,1,0,0:0:0:0:
448,64,85540,1,8,0:0:0:0:
64,64,85734,1,0,0:0:0:0:
448,64,85928,1,8,0:0:0:0:
64,64,86024,1,8,0:0:0:0:
448,64,86121,1,0,0:0:0:0:
64,64,86218,1,0,0:0:0:0:
448,64,86315,1,8,0:0:0:0:
64,64,86508,1,0,0:0:0:0:
64,64,86605,1,8,0:0:0:0:
448,64,86702,1,0,0:0:0:0:
64,64,86895,1,0,0:0:0:0:
448,64,87089,1,8,0:0:0:0:
448,64,87476,1,0,0:0:0:0:
64,64,87669,1,0,0:0:0:0:
448,64,87863,1,8,0:0:0:0:
64,64,88057,1,0,0:0:0:0:
64,64,88153,1,0,0:0:0:0:
448,64,88250,1,8,0:0:0:0:
448,64,88347,1,8,0:0:0:0:
448,64,88444,1,0,0:0:0:0:
64,64,88637,1,8,0:0:0:0:
64,64,88831,1,8,0:0:0:0:
448,64,89024,1,0,0:0:0:0:
448,64,89121,1,8,0:0:0:0:
64,64,89218,1,0,0:0:0:0:
448,64,89411,1,8,0:0:0:0:
448,64,89508,1,8,0:0:0:0:
448,64,89605,1,0,0:0:0:0:
448,64,89702,1,0,0:0:0:0:
64,320,89798,1,8,0:0:0:0:
64,320,89992,1,0,0:0:0:0:
64,320,90186,1,8,0:0:0:0:
64,320,90379,1,8,0:0:0:0:
448,64,90573,1,0,0:0:0:0:
64,64,96766,5,8,0:0:0:0:
448,64,97347,1,0,0:0:0:0:
448,64,97928,1,8,0:0:0:0:
64,64,98508,1,8,0:0:0:0:
448,64,99089,1,8,0:0:0:0:
448,64,99476,1,8,0:0:0:0:
64,64,99863,1,0,0:0:0:0:
64,64,100250,1,0,0:0:0:0:
448,64,100444,1,8,0:0:0:0:
64,64,100637,1,0,0:0:0:0:
448,64,101024,1,8,0:0:0:0:
64,64,101411,1,8,0:0:0:0:
448,64,101605,1,0,0:0:0:0:
448,64,101798,1,8,0:0:0:0:
64,64,101992,1,0,0:0:0:0:
64,64,102089,1,0,0:0:0:0:
448,64,102186,1,8,0:0:0:0:
64,64,102428,1,0,0:0:0:0:
64,320,102960,1,4,0:0:0:0:
64,64,103540,1,0,0:0:0:0:
448,64,103734,1,8,0:0:0:0:
64,64,104121,1,0,0:0:0:0:
448,64,104702,1,0,0:0:0:0:
448,64,105282,1,8,0:0:0:0:
432,66,105476,1,12,0:0:0:0:
64,320,106057,1,4,0:0:0:0:
64,64,106637,1,0,0:0:0:0:
448,64,106831,1,8,0:0:0:0:
64,64,107218,1,0,0:0:0:0:
64,64,107798,1,0,0:0:0:0:
64,320,109153,1,4,0:0:0:0:
64,64,109734,1,0,0:0:0:0:
448,64,109928,1,8,0:0:0:0:
64,64,110315,1,0,0:0:0:0:
448,64,110702,1,8,0:0:0:0:
64,64,110895,1,0,0:0:0:0:
64,64,110992,1,0,0:0:0:0:
448,64,111089,1,0,0:0:0:0:
64,64,111282,1,0,0:0:0:0:
448,64,111476,1,8,0:0:0:0:
64,64,111669,1,0,0:0:0:0:
64,320,112250,1,4,0:0:0:0:
64,64,112831,1,0,0:0:0:0:
448,64,113024,1,8,0:0:0:0:
64,64,113411,1,0,0:0:0:0:
64,64,113605,1,0,0:0:0:0:
448,64,113992,1,8,0:0:0:0:
64,64,114186,1,0,0:0:0:0:
64,320,114573,1,12,0:0:0:0:
64,320,114960,1,12,0:0:0:0:
448,320,118444,1,4,0:0:0:0:
64,64,118831,1,8,0:0:0:0:
64,64,119024,1,0,0:0:0:0:
448,64,119218,1,8,0:0:0:0:
64,64,119605,1,0,0:0:0:0:
64,64,120186,1,0,0:0:0:0:
64,64,120379,1,0,0:0:0:0:
448,64,120766,1,8,0:0:0:0:
448,64,120960,1,0,0:0:0:0:
64,64,121347,1,0,0:0:0:0:
448,64,121540,1,8,0:0:0:0:
64,64,122121,1,0,0:0:0:0:
448,64,122315,1,8,0:0:0:0:
64,64,122702,1,0,0:0:0:0:
64,64,122895,1,0,0:0:0:0:
64,64,123476,1,0,0:0:0:0:
64,64,123669,1,0,0:0:0:0:
448,64,123863,1,8,0:0:0:0:
64,64,124057,1,0,0:0:0:0:
448,64,124250,1,8,0:0:0:0:
64,64,124444,1,0,0:0:0:0:
448,320,124637,1,12,0:0:0:0:
64,64,125218,1,0,0:0:0:0:
448,64,125411,1,8,0:0:0:0:
64,64,125798,1,0,0:0:0:0:
448,64,126186,1,8,0:0:0:0:
64,64,126379,1,8,0:0:0:0:
64,64,126573,1,0,0:0:0:0:
448,64,126960,1,8,0:0:0:0:
64,64,127153,1,8,0:0:0:0:
64,64,127540,1,0,0:0:0:0:
448,64,127734,1,8,0:0:0:0:
64,64,128315,1,0,0:0:0:0:
448,64,128508,1,8,0:0:0:0:
64,64,128702,1,0,0:0:0:0:
448,64,128895,1,8,0:0:0:0:
64,64,129282,1,0,0:0:0:0:
448,64,129476,1,8,0:0:0:0:
448,64,129669,1,8,0:0:0:0:
64,64,129766,1,8,0:0:0:0:
64,64,129863,1,0,0:0:0:0:
448,64,129960,1,0,0:0:0:0:
448,64,130057,1,8,0:0:0:0:
448,64,130250,1,8,0:0:0:0:
64,64,130444,1,0,0:0:0:0:
64,64,130540,1,0,0:0:0:0:
64,64,130637,1,0,0:0:0:0:
341,64,130831,1,12,0:0:0:0:
448,64,131218,1,8,0:0:0:0:
64,64,131411,1,0,0:0:0:0:
448,64,131508,1,0,0:0:0:0:
64,64,131605,1,8,0:0:0:0:
448,64,131798,1,0,0:0:0:0:
64,64,131992,1,8,0:0:0:0:
64,64,132186,1,0,0:0:0:0:
448,64,132379,1,8,0:0:0:0:
448,64,132476,1,8,0:0:0:0:
64,64,132573,1,0,0:0:0:0:
73,66,132669,1,0,0:0:0:0:
64,64,132766,1,8,0:0:0:0:
448,64,132960,1,0,0:0:0:0:
448,64,133057,1,8,0:0:0:0:
64,64,133153,1,0,0:0:0:0:
64,64,133347,1,0,0:0:0:0:
448,64,133540,1,8,0:0:0:0:
448,64,133928,1,0,0:0:0:0:
64,64,134121,1,0,0:0:0:0:
448,64,134315,1,8,0:0:0:0:
64,64,134508,1,0,0:0:0:0:
64,64,134605,1,0,0:0:0:0:
448,64,134702,1,8,0:0:0:0:
64,64,134895,1,0,0:0:0:0:
448,64,135089,1,8,0:0:0:0:
64,64,135282,1,0,0:0:0:0:
448,64,135476,1,8,0:0:0:0:
64,64,135573,1,0,0:0:0:0:
64,64,135669,1,0,0:0:0:0:
64,64,135766,1,0,0:0:0:0:
448,64,135863,1,8,0:0:0:0:
76,60,136153,1,8,0:0:0:0:
448,64,136250,1,0,0:0:0:0:
448,64,136444,1,0,0:0:0:0:
64,64,136637,1,8,0:0:0:0:
64,64,136734,1,8,0:0:0:0:
448,64,136831,1,8,0:0:0:0:
436,65,136928,1,8,0:0:0:0:
448,320,137024,1,0,0:0:0:0:
448,64,137411,1,8,0:0:0:0:
448,64,137605,1,0,0:0:0:0:
64,64,137702,1,0,0:0:0:0:
448,64,137798,1,8,0:0:0:0:
64,64,137992,1,0,0:0:0:0:
448,64,138186,1,8,0:0:0:0:
64,64,138379,1,0,0:0:0:0:
448,64,138573,1,8,0:0:0:0:
64,64,138669,1,8,0:0:0:0:
448,64,138766,1,0,0:0:0:0:
64,64,138863,1,0,0:0:0:0:
448,64,138960,1,8,0:0:0:0:
64,64,139153,1,0,0:0:0:0:
64,64,139250,1,8,0:0:0:0:
448,64,139347,1,0,0:0:0:0:
64,64,139540,1,0,0:0:0:0:
448,64,139734,1,8,0:0:0:0:
448,64,140121,1,8,0:0:0:0:
430,63,140315,1,0,0:0:0:0:
448,64,140508,1,0,0:0:0:0:
64,64,140702,1,8,0:0:0:0:
448,64,140895,1,0,0:0:0:0:
448,64,141089,1,0,0:0:0:0:
64,64,141282,1,8,0:0:0:0:
64,64,141476,1,0,0:0:0:0:
448,64,141669,1,8,0:0:0:0:
64,64,141863,1,0,0:0:0:0:
448,64,142057,1,8,0:0:0:0:
448,64,142250,1,0,0:0:0:0:
64,320,142444,1,8,0:0:0:0:
64,320,142637,1,8,0:0:0:0:
64,320,142831,1,8,0:0:0:0:
64,320,143024,1,8,0:0:0:0:
