osu file format v14

[General]
AudioFilename: audio.mp3
AudioLeadIn: 0
PreviewTime: 196577
Countdown: 0
SampleSet: Soft
StackLeniency: 0.3
Mode: 0
LetterboxInBreaks: 0
WidescreenStoryboard: 0

[Editor]
Bookmarks: 27257,61027
DistanceSpacing: 0.4
BeatDivisor: 4
GridSize: 4
TimelineZoom: 2.699999

[Metadata]
Title:grilletto
TitleUnicode:grilletto
Artist:GARNiDELiA
ArtistUnicode:ガルニデリア
Creator:Yogurtt
Version:Extra
Source:魔法科高校の劣等生
Tags:Mahouka Koukou no Rettousei. The Irregular at Magic High School op opening full
BeatmapID:1344819
BeatmapSetID:633682

[Difficulty]
HPDrainRate:5.3
CircleSize:4.2
OverallDifficulty:9
ApproachRate:9.4
SliderMultiplier:1.9
SliderTickRate:1

[Events]
//Background and Video events
0,0,"3879cfa3ad0419538f0098177377885e.jpg",0,0
//Break Periods
//Storyboard Layer 0 (Background)
//Storyboard Layer 1 (Fail)
//Storyboard Layer 2 (Pass)
//Storyboard Layer 3 (Foreground)
//Storyboard Sound Samples

[TimingPoints]
399,314.13612565445,4,2,2,100,1,0
1655,-166.666666666667,4,2,2,30,0,0
6210,-133.333333333333,4,2,1,30,0,0
6681,-100,4,2,1,50,0,0
9194,-71.4285714285714,4,2,1,60,0,0
9430,-71.4285714285714,4,2,1,5,0,0
9508,-71.4285714285714,4,2,1,60,0,0
9587,-71.4285714285714,4,2,1,5,0,0
9666,-71.4285714285714,4,2,1,60,0,0
10372,-71.4285714285714,4,2,1,5,0,0
11707,-142.857142857143,4,2,1,30,0,0
16419,-83.3333333333333,4,2,2,60,0,0
16734,-71.4285714285714,4,2,1,80,0,0
17048,-100,4,2,1,70,0,0
18618,-71.4285714285714,4,2,1,70,0,0
18697,-71.4285714285714,4,2,1,5,0,0
18775,-71.4285714285714,4,2,1,70,0,0
19011,-71.4285714285714,4,2,1,5,0,0
19090,-71.4285714285714,4,2,1,70,0,0
19168,-71.4285714285714,4,2,1,5,0,0
19247,-100,4,2,1,70,0,0
21131,-71.4285714285714,4,2,1,70,0,0
21524,-71.4285714285714,4,2,1,5,0,0
21603,-71.4285714285714,4,2,1,70,0,0
21681,-71.4285714285714,4,2,1,5,0,0
21760,-100,4,2,1,70,0,0
23645,-71.4285714285714,4,2,1,70,0,0
24037,-71.4285714285714,4,2,1,5,0,0
24116,-71.4285714285714,4,2,1,70,0,0
24194,-71.4285714285714,4,2,1,5,0,0
24273,-100,4,2,1,70,0,0
25372,-66.6666666666667,4,2,1,70,0,0
25608,-90.9090909090909,4,2,1,5,0,0
25686,-58.8235294117647,4,2,1,70,0,0
25922,-76.9230769230769,4,2,1,5,0,0
26001,-50,4,2,1,85,0,0
26079,-62.5,4,2,1,5,0,0
26315,-200,4,2,1,70,0,0
26786,-133.333333333333,4,2,1,70,0,0
35425,-100,4,2,1,70,0,0
46262,-100,4,3,1,70,0,0
46891,-133.333333333333,4,2,1,70,0,0
53959,-133.333333333333,4,3,1,70,0,0
54430,-66.6666666666667,4,2,1,70,0,0
54508,-66.6666666666667,4,2,1,5,0,0
54587,-66.6666666666667,4,2,1,70,0,0
54980,-66.6666666666667,4,2,1,5,0,0
55058,-66.6666666666667,4,2,1,70,0,0
55451,-66.6666666666667,4,2,1,5,0,0
55529,-66.6666666666667,4,2,1,70,0,0
56158,-133.333333333333,4,2,1,40,0,0
56943,-66.6666666666667,4,2,1,70,0,0
57022,-66.6666666666667,4,2,1,5,0,0
57100,-66.6666666666667,4,2,1,70,0,0
57414,-66.6666666666667,4,2,1,70,0,0
57493,-66.6666666666667,4,2,1,5,0,0
57571,-66.6666666666667,4,2,1,70,0,0
57964,-66.6666666666667,4,2,1,5,0,0
58042,-66.6666666666667,4,2,1,70,0,0
58197,-200,4,2,1,20,0,0
58357,-200,4,2,1,30,0,0
58514,-200,4,2,1,40,0,0
58671,-200,4,2,1,50,0,0
58828,-200,4,2,1,60,0,0
58985,-83.3333333333333,4,2,1,70,0,0
59142,-83.3333333333333,4,2,2,80,0,0
59456,-100,4,2,1,80,0,1
66995,-66.6666666666667,4,2,1,80,0,1
67074,-66.6666666666667,4,2,1,5,0,1
67152,-66.6666666666667,4,2,1,80,0,1
67231,-66.6666666666667,4,2,1,5,0,1
67309,-66.6666666666667,4,2,1,80,0,1
67388,-66.6666666666667,4,2,1,5,0,1
67467,-100,4,2,1,80,0,1
69430,-100,4,2,1,80,0,0
69508,-100,4,2,1,80,0,1
77048,-66.6666666666667,4,2,1,80,0,1
77283,-66.6666666666667,4,2,1,5,0,1
77362,-66.6666666666667,4,2,1,80,0,1
77440,-66.6666666666667,4,2,1,5,0,1
77519,-66.6666666666667,4,2,1,80,0,1
78147,-66.6666666666667,4,2,1,80,0,0
78226,-100,4,2,1,5,0,0
79247,-83.3333333333333,4,2,2,70,0,0
79561,-71.4285714285714,4,2,1,70,0,0
79875,-100,4,2,1,70,0,0
81446,-71.4285714285714,4,2,1,70,0,0
81838,-71.4285714285714,4,2,1,5,0,0
81917,-71.4285714285714,4,2,1,70,0,0
81995,-71.4285714285714,4,2,1,5,0,0
82074,-100,4,2,1,70,0,0
83959,-71.4285714285714,4,2,1,70,0,0
84351,-71.4285714285714,4,2,1,5,0,0
84430,-71.4285714285714,4,2,1,70,0,0
84508,-71.4285714285714,4,2,1,5,0,0
84587,-100,4,2,1,70,0,0
86472,-71.4285714285714,4,2,1,70,0,0
86786,-71.4285714285714,4,2,1,70,0,0
86864,-71.4285714285714,4,2,1,5,0,0
86943,-71.4285714285714,4,2,1,70,0,0
87022,-71.4285714285714,4,2,1,5,0,0
87100,-100,4,2,1,70,0,0
88200,-66.6666666666667,4,2,1,70,0,0
88435,-66.6666666666667,4,2,1,5,0,0
88514,-58.8235294117647,4,2,1,70,0,0
88749,-58.8235294117647,4,2,1,5,0,0
88828,-50,4,2,1,70,0,0
88906,-50,4,2,1,5,0,0
89613,-200,4,2,1,30,0,0
99037,-100,4,2,1,70,0,0
109247,-100,4,3,1,70,0,0
109718,-133.333333333333,4,2,1,70,0,0
116472,-133.333333333333,4,3,1,70,0,0
117257,-66.6666666666667,4,2,1,70,0,0
117336,-66.6666666666667,4,2,1,5,0,0
117414,-66.6666666666667,4,2,1,70,0,0
117728,-66.6666666666667,4,2,1,70,0,0
117807,-66.6666666666667,4,2,1,5,0,0
117885,-66.6666666666667,4,2,1,70,0,0
118200,-66.6666666666667,4,2,1,70,0,0
118278,-66.6666666666667,4,2,1,5,0,0
118357,-66.6666666666667,4,2,1,70,0,0
118985,-133.333333333333,4,2,1,40,0,0
119770,-66.6666666666667,4,2,1,70,0,0
119849,-66.6666666666667,4,2,1,5,0,0
119927,-66.6666666666667,4,2,1,70,0,0
120241,-66.6666666666667,4,2,1,70,0,0
120320,-66.6666666666667,4,2,1,5,0,0
120398,-66.6666666666667,4,2,1,70,0,0
120713,-66.6666666666667,4,2,1,70,0,0
120791,-66.6666666666667,4,2,1,5,0,0
120870,-66.6666666666667,4,2,1,70,0,0
121027,-200,4,2,1,20,0,0
121184,-200,4,2,1,30,0,0
121341,-200,4,2,1,40,0,0
121498,-200,4,2,1,50,0,0
121655,-200,4,2,1,60,0,0
121812,-200,4,2,1,70,0,0
121969,-83.3333333333333,4,2,2,70,0,0
122283,-100,4,2,1,100,0,1
132257,-100,4,2,1,100,0,0
132336,-100,4,2,1,100,0,1
140974,-100,4,2,1,100,0,0
210241,-100,4,2,1,100,0,1
220215,-100,4,2,1,100,0,0
220294,-100,4,2,1,100,0,1
228933,-100,4,2,1,100,0,0

[HitObjects]
435,281,1655,6,0,B|355:326|274:257|274:257|289:294|289:294|234:232|161:261,1,341.999989562989,2|0,0:0|0:0,0:0:0:0:
379,106,2912,6,0,P|430:145|347:111,1,341.999989562989,2|0,0:0|0:0,0:0:0:0:
52,324,4168,6,0,B|105:272|86:175|86:175|112:243|181:258,1,284.999991302491,2|0,0:0|0:0,0:0:0:0:
132,61,5268,5,2,0:0:0:0:
291,212,6210,6,0,P|264:185|347:171,1,178.12500679493,2|0,0:0|0:0,0:0:0:0:
284,220,6681,6,0,L|189:214,1,95,4|0,0:0|0:0,0:0:0:0:
400,88,6995,2,0,L|305:94,1,95,8|0,0:0|0:0,0:0:0:0:
512,220,7309,1,2,0:0:0:0:
408,80,7467,1,0,0:0:0:0:
504,228,7624,2,0,P|496:284|492:336,1,95,8|0,0:0|0:0,0:0:0:0:
360,384,7938,5,2,0:0:0:0:
484,328,8095,1,0,0:0:0:0:
240,248,8252,5,8,0:0:0:0:
404,304,8409,1,0,0:0:0:0:
120,376,8566,5,2,0:0:0:0:
308,316,8723,1,0,0:0:0:0:
112,368,8880,2,0,P|110:320|108:264,1,95,8|0,0:0|0:0,0:0:0:0:
100,120,9194,5,4,0:0:0:0:
100,120,9273,1,0,0:0:0:0:
100,120,9351,2,0,L|180:132,1,66.4999979705811,8|0,0:0|0:0,0:0:0:0:
380,120,9508,2,0,L|314:110,1,66.4999979705811,8|0,0:0|0:0,0:0:0:0:
172,140,9666,1,8,0:0:0:0:
320,32,9823,1,8,0:0:0:0:
220,256,9980,1,8,0:0:0:0:
328,40,10137,1,8,0:0:0:0:
288,344,10294,6,0,B|312:320|312:320|348:356,1,66.4999979705811,4|0,0:0|0:0,0:0:0:0:
360,324,11707,6,0,L|295:334,1,66.4999979705811,4|0,0:0|0:0,0:0:0:0:
184,304,12022,1,2,0:0:0:0:
112,284,12179,2,0,L|177:294,2,66.4999979705811,0|2|0,0:0|0:0|0:0,0:0:0:0:
272,196,12650,2,0,L|207:206,1,66.4999979705811,2|0,0:0|0:0,0:0:0:0:
352,60,12964,6,0,L|362:125,1,66.4999979705811,2|0,0:0|0:0,0:0:0:0:
374,197,13278,1,2,0:0:0:0:
228,348,13435,5,0,0:0:0:0:
236,328,13592,1,2,0:0:0:0:
264,176,13749,5,0,0:0:0:0:
272,196,13906,1,2,0:0:0:0:
124,228,14063,5,0,0:0:0:0:
132,208,14220,1,2,0:0:0:0:
140,188,14378,6,0,L|70:192,1,66.4999979705811,0|2,0:0|0:0,0:0:0:0:
240,304,14692,1,0,0:0:0:0:
312,317,14849,2,0,L|246:312,2,66.4999979705811,2|0|2,0:0|0:0|0:0,0:0:0:0:
424,260,15320,1,0,0:0:0:0:
428,184,15477,6,0,L|418:249,1,66.4999979705811,2|0,0:0|0:0,0:0:0:0:
368,384,15791,2,0,L|378:319,1,66.4999979705811,2|0,0:0|0:0,0:0:0:0:
324,132,16105,2,0,L|334:197,1,66.4999979705811,2|0,0:0|0:0,0:0:0:0:
328,208,16419,6,0,B|265:199|265:199|228:216|228:216|144:203,1,170.999994781494,4|0,0:0|0:0,0:0:0:0:
96,236,16734,6,0,P|150:227|227:215,1,132.999995941162,4|0,0:0|0:0,0:0:0:0:
203,29,17048,2,0,P|211:93|216:133,1,95,8|0,0:0|0:0,0:0:0:0:
214,123,17283,1,0,0:0:0:0:
214,123,17362,1,2,0:0:0:0:
208,314,17519,1,0,0:0:0:0:
376,225,17676,1,8,0:0:0:0:
208,314,17833,6,0,P|272:306|312:301,1,95,0|2,0:0|0:0,0:0:0:0:
480,244,18147,2,0,P|416:236|376:231,1,95,0|8,0:0|0:0,0:0:0:0:
312,144,18461,1,0,0:0:0:0:
312,144,18540,1,0,0:0:0:0:
312,144,18618,2,0,L|320:84,2,33.2499989852906,2|0|0,0:0|0:0|0:0,0:0:0:0:
168,12,18775,5,0,0:0:0:0:
168,12,18854,1,0,0:0:0:0:
168,12,18933,2,0,L|174:78,1,66.4999979705811,8|0,0:0|0:0,0:0:0:0:
296,92,19090,2,0,L|289:158,1,66.4999979705811,8|0,0:0|0:0,0:0:0:0:
296,312,19247,6,0,L|201:305,1,95,4|0,0:0|0:0,0:0:0:0:
352,244,19561,1,8,0:0:0:0:
192,296,19718,1,0,0:0:0:0:
192,296,19796,1,0,0:0:0:0:
192,296,19875,1,2,0:0:0:0:
292,176,20032,1,0,0:0:0:0:
104,296,20189,1,8,0:0:0:0:
292,176,20346,6,0,P|283:134|272:72,1,95,0|2,0:0|0:0,0:0:0:0:
420,144,20660,2,0,P|459:157|520:178,1,95,0|8,0:0|0:0,0:0:0:0:
360,305,20974,1,0,0:0:0:0:
360,305,21053,1,0,0:0:0:0:
360,305,21131,2,0,L|367:264,2,33.2499989852906,2|0|0,0:0|0:0|0:0,0:0:0:0:
244,376,21289,5,0,0:0:0:0:
244,376,21367,1,0,0:0:0:0:
244,376,21446,2,0,B|228:344|228:344|234:303,1,66.4999979705811,8|0,0:0|0:0,0:0:0:0:
354,209,21603,2,0,B|370:241|370:241|364:282,1,66.4999979705811,8|0,0:0|0:0,0:0:0:0:
152,317,21760,6,0,P|163:273|176:222,1,95,4|0,0:0|0:0,0:0:0:0:
132,32,22074,1,8,0:0:0:0:
168,216,22231,1,0,0:0:0:0:
168,216,22309,1,0,0:0:0:0:
168,216,22388,1,2,0:0:0:0:
357,118,22545,1,0,0:0:0:0:
360,305,22702,1,8,0:0:0:0:
364,112,22859,6,0,L|475:134,1,95,0|2,0:0|0:0,0:0:0:0:
256,235,23173,2,0,P|211:213|162:216,1,95,0|8,0:0|0:0,0:0:0:0:
164,88,23488,1,2,0:0:0:0:
164,88,23566,1,0,0:0:0:0:
164,88,23645,2,0,L|168:124,2,33.2499989852906
276,216,23802,5,8,0:0:0:0:
276,216,23880,1,0,0:0:0:0:
276,216,23959,2,0,P|308:232|356:216,1,66.4999979705811
380,96,24116,2,0,P|412:80|460:96,1,66.4999979705811,10|0,0:0|0:0,0:0:0:0:
404,272,24273,6,0,P|360:304|300:296,1,95,4|0,0:0|0:0,0:0:0:0:
184,68,24587,2,0,L|196:172,1,95,8|0,0:0|0:0,0:0:0:0:
194,162,24823,1,0,0:0:0:0:
194,162,24901,1,2,0:0:0:0:
120,348,25058,2,0,L|125:271,1,47.5
212,180,25215,2,0,L|219:226,1,47.5,8|0,0:0|0:0,0:0:0:0:
40,320,25372,6,0,B|48:184|48:184|0:116,1,213.750008153916,4|0,0:0|0:0,0:0:0:0:
88,104,25686,6,0,P|127:35|276:88,1,242.250004620552,8|0,0:0|0:0,0:0:0:0:
288,160,26001,6,0,L|388:136,1,95,4|0,0:0|0:0,0:0:0:0:
396,152,26315,6,0,L|270:182,1,118.75
200,196,26786,6,0,L|208:104,1,71.2500027179719,4|0,0:0|0:0,0:0:0:0:
192,208,27100,1,2,0:0:0:0:
296,328,27257,2,0,L|289:257,1,71.2500027179719,0|2,0:0|0:0,0:0:0:0:
224,368,27571,1,0,0:0:0:0:
370,299,27728,1,2,0:0:0:0:
224,368,27885,6,0,B|168:356|168:356|152:336|152:336|91:319,1,142.500005435944
189,150,28357,2,0,P|207:189|184:210,1,71.2500027179719,2|0,0:0|0:0,0:0:0:0:
135,63,28671,1,2,0:0:0:0:
135,63,28828,2,0,L|227:75,1,71.2500027179719,0|2,0:0|0:0,0:0:0:0:
280,158,29142,2,0,L|350:148,1,71.2500027179719,0|2,0:0|0:0,0:0:0:0:
435,138,29456,1,0,0:0:0:0:
322,307,29613,6,0,P|326:270|330:212,1,71.2500027179719,2|0,0:0|0:0,0:0:0:0:
328,316,29927,1,2,0:0:0:0:
168,372,30084,2,0,P|164:335|160:277,1,71.2500027179719,0|2,0:0|0:0,0:0:0:0:
260,140,30398,6,0,P|257:175|243:287,1,142.500005435944
120,160,30870,2,0,P|92:108|168:112,1,142.500005435944,0|2,0:0|0:0,0:0:0:0:
252,132,31341,1,0,0:0:0:0:
332,88,31498,1,2,0:0:0:0:
254,41,31655,1,0,0:0:0:0:
340,96,31812,6,0,P|343:131|357:243,1,142.500005435944,2|2,0:0|0:0,0:0:0:0:
331,310,32283,2,0,P|340:239|347:168,1,142.500005435944
144,276,32755,2,0,L|156:332,1,35.625001358986,2|0,0:0|0:0,0:0:0:0:
144,328,32912,6,0,P|112:369|92:305,1,142.500005435944
176,176,33383,2,0,L|183:141,1,35.625001358986,2|0,0:0|0:0,0:0:0:0:
164,48,33540,1,0,0:0:0:0:
192,136,33697,1,2,0:0:0:0:
156,40,33854,2,0,L|76:28,1,71.2500027179719,0|2,0:0|0:0,0:0:0:0:
85,29,34168,1,0,0:0:0:0:
256,88,34325,6,0,L|326:98,1,71.2500027179719,2|0,0:0|0:0,0:0:0:0:
424,176,34639,1,2,0:0:0:0:
400,28,34796,1,0,0:0:0:0:
424,176,34953,2,0,L|432:96,2,71.2500027179719,2|0|2,0:0|0:0|0:0,0:0:0:0:
412,288,35425,5,4,0:0:0:0:
256,192,35503,12,0,36367,0:0:0:0:
184,364,36524,5,8,0:0:0:0:
182,350,36602,1,8,0:0:0:0:
180,336,36681,1,8,0:0:0:0:
179,322,36759,1,8,0:0:0:0:
116,288,36838,6,0,B|184:276|184:276|220:304|220:304|292:284,1,190,4|8,0:0|0:0,0:0:0:0:
388,260,37309,1,0,0:0:0:0:
252,120,37467,2,0,P|236:172|248:232,1,95,2|0,0:0|0:0,0:0:0:0:
240,211,37781,1,8,0:0:0:0:
376,351,37938,2,0,P|392:299|380:239,1,95,8|2,0:0|0:0,0:0:0:0:
240,212,38252,5,0,0:0:0:0:
416,152,38409,1,8,0:0:0:0:
236,220,38566,1,0,0:0:0:0:
424,144,38723,1,2,0:0:0:0:
424,144,38802,1,0,0:0:0:0:
424,144,38880,2,0,L|316:136,1,95,8|8,0:0|0:0,0:0:0:0:
152,80,39194,6,0,B|192:48|192:48|164:196,1,190,2|0,0:0|0:0,0:0:0:0:
200,360,39666,1,8,0:0:0:0:
264,264,39823,1,0,0:0:0:0:
200,360,39980,1,2,0:0:0:0:
166,184,40137,2,0,L|282:168,1,95,0|8,0:0|0:0,0:0:0:0:
424,136,40451,6,0,B|384:104|384:104|412:252,1,190,10|0,0:0|0:0,0:0:0:0:
416,344,40922,2,0,L|308:336,1,95,8|0,0:0|0:0,0:0:0:0:
180,376,41236,1,2,0:0:0:0:
312,328,41393,1,0,0:0:0:0:
128,272,41550,2,0,B|224:300|224:300|208:244,1,142.5,8|0,0:0|0:0,0:0:0:0:
260,104,41864,6,0,P|267:152|272:216,1,95,6|0,0:0|0:0,0:0:0:0:
415,213,42179,2,0,P|378:257|326:255,1,95,8|0,0:0|0:0,0:0:0:0:
343,260,42493,1,2,0:0:0:0:
389,19,42650,2,0,P|382:67|377:131,1,95,0|8,0:0|0:0,0:0:0:0:
424,220,42964,1,8,0:0:0:0:
424,220,43042,1,0,0:0:0:0:
424,220,43121,5,2,0:0:0:0:
292,176,43278,1,0,0:0:0:0:
247,308,43435,1,8,0:0:0:0:
248,112,43592,1,0,0:0:0:0:
248,112,43671,1,0,0:0:0:0:
248,112,43749,2,0,L|172:104,1,47.5,2|0,0:0|0:0,0:0:0:0:
84,48,43906,2,0,L|160:40,1,47.5
228,132,44063,2,0,L|152:124,1,47.5,8|0,0:0|0:0,0:0:0:0:
344,36,44220,1,8,0:0:0:0:
344,36,44299,1,0,0:0:0:0:
344,36,44378,5,2,0:0:0:0:
300,216,44535,1,0,0:0:0:0:
496,152,44692,1,8,0:0:0:0:
292,208,44849,1,0,0:0:0:0:
504,160,45006,2,0,L|508:264,1,95,2|0,0:0|0:0,0:0:0:0:
507,254,45241,1,0,0:0:0:0:
507,254,45320,1,8,0:0:0:0:
292,208,45477,2,0,P|336:188|376:220,1,95,8|2,0:0|0:0,0:0:0:0:
236,288,45791,5,0,0:0:0:0:
280,116,45948,1,10,0:0:0:0:
244,296,46105,1,0,0:0:0:0:
200,64,46262,5,8,0:0:0:0:
380,220,46420,1,8,0:0:0:0:
154,297,46577,1,8,0:0:0:0:
244,184,46734,1,8,0:0:0:0:
144,304,46891,6,0,B|54:327|54:327|78:267,1,142.500005435944,4|0,0:0|0:0,0:0:0:0:
155,207,47362,2,0,B|245:184|245:184|221:244,1,142.500005435944
148,196,47833,1,0,0:0:0:0:
336,104,47990,1,0,0:0:0:0:
336,104,48069,1,0,0:0:0:0:
336,104,48147,6,0,L|320:264,1,142.500005435944
428,328,48618,2,0,L|442:186,1,142.500005435944
297,372,49090,1,0,0:0:0:0:
208,352,49247,1,0,0:0:0:0:
220,248,49404,6,0,L|128:260,1,71.2500027179719
228,256,49718,1,0,0:0:0:0:
114,146,49875,2,0,L|43:155,2,71.2500027179719
36,148,50346,1,0,0:0:0:0:
196,32,50503,6,0,L|188:188,1,142.500005435944
304,268,50974,2,0,L|311:125,1,142.500005435944
240,348,51446,1,0,0:0:0:0:
380,324,51603,1,0,0:0:0:0:
380,324,51681,1,0,0:0:0:0:
380,324,51760,2,0,L|316:336,1,35.625001358986
232,340,51917,6,0,P|208:296|104:316,1,142.500005435944
123,293,52545,2,0,L|128:204,1,71.2500027179719
236,212,52859,2,0,L|231:123,1,71.2500027179719
44,264,53173,6,0,L|53:103,2,142.500005435944
156,368,53959,1,8,0:0:0:0:
152,356,54037,1,8,0:0:0:0:
148,344,54116,1,8,0:0:0:0:
248,220,54273,1,8,0:0:0:0:
148,344,54430,6,0,L|144:252,1,71.2500027179719,8|0,0:0|0:0,0:0:0:0:
139,137,54587,1,8,0:0:0:0:
272,308,54901,6,0,L|268:216,1,71.2500027179719,8|0,0:0|0:0,0:0:0:0:
263,101,55058,1,8,0:0:0:0:
452,176,55372,6,0,L|361:194,1,71.2500027179719,8|0,0:0|0:0,0:0:0:0:
248,217,55529,1,8,0:0:0:0:
248,217,56158,5,0,0:0:0:0:
224,304,56315,1,0,0:0:0:0:
212,172,56472,1,0,0:0:0:0:
236,259,56629,2,0,L|164:264,1,71.2500027179719
244,96,56943,6,0,L|316:101,1,71.2500027179719,8|0,0:0|0:0,0:0:0:0:
464,112,57100,1,8,0:0:0:0:
228,188,57414,6,0,L|156:193,1,71.2500027179719,8|0,0:0|0:0,0:0:0:0:
8,204,57571,1,8,0:0:0:0:
388,152,57885,6,0,L|393:224,1,71.2500027179719,8|0,0:0|0:0,0:0:0:0:
404,372,58042,1,8,0:0:0:0:
450,323,58200,6,0,P|367:285|406:371,1,237.5
224,320,59142,6,0,B|336:304|336:304|280:280,1,170.999994781494,4|0,0:0|0:0,0:0:0:0:
106,230,59456,6,0,P|120:292|132:340,1,95,4|0,0:0|0:0,0:0:0:0:
169,146,59770,1,8,0:0:0:0:
36,300,59927,1,0,0:0:0:0:
169,146,60084,2,0,P|128:120|88:95,1,95,2|0,0:0|0:0,0:0:0:0:
106,230,60398,1,8,0:0:0:0:
106,230,60477,1,0,0:0:0:0:
106,230,60556,1,8,0:0:0:0:
244,78,60713,6,0,L|254:187,1,95,2|0,0:0|0:0,0:0:0:0:
416,149,61027,2,0,L|406:258,1,95,8|0,0:0|0:0,0:0:0:0:
407,327,61262,1,0,0:0:0:0:
408,348,61341,1,2,0:0:0:0:
140,321,61498,2,0,L|204:300,1,47.5
252,172,61655,2,0,L|238:237,1,47.5,8|0,0:0|0:0,0:0:0:0:
325,343,61812,2,0,L|274:298,1,47.5,8|0,0:0|0:0,0:0:0:0:
149,151,61969,6,0,P|183:95|309:83,1,190,4|8,0:0|0:0,0:0:0:0:
25,44,62440,2,0,L|43:147,1,95,0|2,0:0|0:0,0:0:0:0:
50,226,62676,1,0,0:0:0:0:
51,247,62755,1,0,0:0:0:0:
225,312,62912,2,0,L|241:218,1,95,8|8,0:0|0:0,0:0:0:0:
102,358,63226,5,2,0:0:0:0:
340,328,63383,1,0,0:0:0:0:
51,247,63540,1,8,0:0:0:0:
340,328,63697,2,0,L|223:337,1,95,0|2,0:0|0:0,0:0:0:0:
160,168,64011,1,8,0:0:0:0:
204,122,64089,1,8,0:0:0:0:
268,119,64168,1,8,0:0:0:0:
316,156,64247,1,8,0:0:0:0:
360,201,64325,1,8,0:0:0:0:
424,204,64404,1,8,0:0:0:0:
472,140,64482,5,4,0:0:0:0:
240,218,64639,1,0,0:0:0:0:
392,120,64796,5,8,0:0:0:0:
228,296,64953,1,0,0:0:0:0:
320,40,65111,5,10,0:0:0:0:
316,364,65268,1,0,0:0:0:0:
37,198,65425,6,0,L|152:188,1,95,8|0,0:0|0:0,0:0:0:0:
480,312,65739,5,10,0:0:0:0:
420,168,65896,1,0,0:0:0:0:
316,364,66053,5,8,0:0:0:0:
356,120,66210,1,0,0:0:0:0:
136,380,66367,5,10,0:0:0:0:
292,72,66524,1,0,0:0:0:0:
364,272,66681,5,8,0:0:0:0:
332,274,66759,1,8,0:0:0:0:
300,277,66838,1,8,0:0:0:0:
268,279,66916,1,8,0:0:0:0:
237,282,66995,6,0,P|198:278|145:274,1,71.2500027179719,4|0,0:0|0:0,0:0:0:0:
42,178,67152,2,0,P|81:173|134:169,1,71.2500027179719,8|0,0:0|0:0,0:0:0:0:
156,360,67309,2,0,P|116:355|63:351,1,71.2500027179719,8|0,0:0|0:0,0:0:0:0:
256,132,67467,5,0,0:0:0:0:
36,268,67624,1,2,0:0:0:0:
256,132,67781,1,0,0:0:0:0:
115,51,67938,1,8,0:0:0:0:
115,51,68016,1,0,0:0:0:0:
115,51,68095,2,0,P|147:103|99:175,1,142.5,2|0,0:0|0:0,0:0:0:0:
112,169,68409,6,0,P|148:112|268:152,1,190,4|0,0:0|0:0,0:0:0:0:
396,268,68880,1,8,0:0:0:0:
345,234,68958,1,8,0:0:0:0:
285,242,69037,1,8,0:0:0:0:
245,288,69115,1,8,0:0:0:0:
216,328,69194,1,8,0:0:0:0:
165,361,69272,1,8,0:0:0:0:
105,353,69351,1,8,0:0:0:0:
65,307,69429,1,8,0:0:0:0:
52,220,69508,6,0,P|60:180|72:112,1,95,4|0,0:0|0:0,0:0:0:0:
148,272,69823,1,8,0:0:0:0:
0,80,69980,1,0,0:0:0:0:
148,272,70137,2,0,P|194:263|241:254,1,95,2|0,0:0|0:0,0:0:0:0:
52,220,70451,1,8,0:0:0:0:
52,220,70529,1,0,0:0:0:0:
52,220,70608,1,8,0:0:0:0:
336,320,70765,6,0,L|328:216,1,95,2|0,0:0|0:0,0:0:0:0:
184,196,71079,2,0,L|192:92,1,95,8|0,0:0|0:0,0:0:0:0:
196,28,71315,1,0,0:0:0:0:
197,7,71394,1,2,0:0:0:0:
412,132,71550,2,0,P|400:160|376:180,1,47.5
260,376,71707,2,0,P|241:351|236:320,1,47.5,8|0,0:0|0:0,0:0:0:0:
124,122,71864,2,0,P|154:118|183:129,1,47.5,8|0,0:0|0:0,0:0:0:0:
424,261,72022,6,0,P|360:267|291:170,1,190,4|8,0:0|0:0,0:0:0:0:
142,324,72493,2,0,L|258:337,1,95,0|2,0:0|0:0,0:0:0:0:
329,347,72728,1,0,0:0:0:0:
350,348,72807,1,0,0:0:0:0:
203,197,72964,2,0,L|87:210,1,95,8|8,0:0|0:0,0:0:0:0:
276,65,73278,5,2,0:0:0:0:
256,264,73435,2,0,L|328:257,1,47.5
432,252,73592,1,8,0:0:0:0:
204,196,73749,1,0,0:0:0:0:
420,264,73906,1,10,0:0:0:0:
392,318,73984,1,8,0:0:0:0:
339,348,74063,1,8,0:0:0:0:
278,342,74141,1,8,0:0:0:0:
236,304,74220,1,8,0:0:0:0:
192,260,74298,1,8,0:0:0:0:
132,248,74377,1,8,0:0:0:0:
76,272,74455,1,8,0:0:0:0:
48,348,74535,5,4,0:0:0:0:
136,168,74692,1,0,0:0:0:0:
152,340,74849,5,8,0:0:0:0:
80,96,75006,1,0,0:0:0:0:
312,220,75163,5,10,0:0:0:0:
0,192,75320,1,0,0:0:0:0:
220,32,75477,6,0,L|204:132,1,95,8|0,0:0|0:0,0:0:0:0:
280,356,75791,5,10,0:0:0:0:
324,200,75948,1,0,0:0:0:0:
432,312,76105,5,8,0:0:0:0:
352,84,76262,1,0,0:0:0:0:
304,280,76419,5,10,0:0:0:0:
264,41,76576,1,0,0:0:0:0:
140,244,76734,6,0,P|96:212|48:200,1,95,8|0,0:0|0:0,0:0:0:0:
163,2,77048,5,0,0:0:0:0:
163,2,77126,1,0,0:0:0:0:
163,2,77205,2,0,L|172:100,1,71.2500027179719,8|0,0:0|0:0,0:0:0:0:
144,296,77362,2,0,L|150:225,1,71.2500027179719,8|0,0:0|0:0,0:0:0:0:
176,84,77519,1,8,0:0:0:0:
56,200,77676,1,8,0:0:0:0:
68,16,77833,1,8,0:0:0:0:
64,208,77990,1,8,0:0:0:0:
293,145,78147,6,0,B|259:130|259:130|248:162,1,71.2500027179719,4|0,0:0|0:0,0:0:0:0:
93,287,79247,6,0,B|156:278|156:278|193:295|193:295|277:282,1,170.999994781494,4|0,0:0|0:0,0:0:0:0:
184,84,79561,2,0,L|201:229,1,132.999995941162,4|0,0:0|0:0,0:0:0:0:
416,141,79875,2,0,L|314:154,1,95,8|0,0:0|0:0,0:0:0:0:
321,153,80111,1,0,0:0:0:0:
321,153,80189,1,2,0:0:0:0:
460,232,80346,1,0,0:0:0:0:
376,44,80503,1,8,0:0:0:0:
460,232,80660,6,0,L|447:345,1,95,0|2,0:0|0:0,0:0:0:0:
224,260,80974,2,0,P|296:232|324:244,1,95,0|8,0:0|0:0,0:0:0:0:
292,348,81289,1,0,0:0:0:0:
292,348,81367,1,0,0:0:0:0:
292,348,81446,2,0,L|288:388,2,33.2499989852906,2|0|0,0:0|0:0|0:0,0:0:0:0:
224,160,81603,5,0,0:0:0:0:
224,160,81681,1,0,0:0:0:0:
224,160,81760,2,0,L|148:172,1,66.4999979705811,8|0,0:0|0:0,0:0:0:0:
374,246,81917,2,0,L|298:234,1,66.4999979705811,8|0,0:0|0:0,0:0:0:0:
468,116,82074,6,0,L|364:132,1,95,4|0,0:0|0:0,0:0:0:0:
508,260,82388,1,8,0:0:0:0:
364,120,82545,1,0,0:0:0:0:
364,120,82624,1,0,0:0:0:0:
364,120,82702,1,2,0:0:0:0:
452,368,82859,1,0,0:0:0:0:
512,184,83016,1,8,0:0:0:0:
452,368,83173,6,0,L|328:348,1,95,0|2,0:0|0:0,0:0:0:0:
214,250,83488,2,0,L|338:230,1,95,0|8,0:0|0:0,0:0:0:0:
136,376,83802,1,0,0:0:0:0:
136,376,83880,1,0,0:0:0:0:
136,376,83959,2,0,L|96:368,2,33.2499989852906,2|0|0,0:0|0:0|0:0,0:0:0:0:
212,192,84116,5,0,0:0:0:0:
212,192,84194,1,0,0:0:0:0:
212,192,84273,2,0,L|204:260,1,66.4999979705811,8|0,0:0|0:0,0:0:0:0:
28,224,84430,2,0,L|36:292,1,66.4999979705811,8|0,0:0|0:0,0:0:0:0:
136,80,84587,6,0,L|128:184,1,95,4|0,0:0|0:0,0:0:0:0:
232,300,84901,2,0,L|220:200,1,95,8|0,0:0|0:0,0:0:0:0:
220,205,85137,1,0,0:0:0:0:
220,205,85215,1,2,0:0:0:0:
348,316,85372,1,0,0:0:0:0:
124,256,85529,1,8,0:0:0:0:
348,316,85686,6,0,L|248:324,1,95,0|2,0:0|0:0,0:0:0:0:
360,160,86001,2,0,L|454:167,1,95,0|8,0:0|0:0,0:0:0:0:
247,200,86315,1,0,0:0:0:0:
247,200,86393,1,0,0:0:0:0:
247,200,86472,2,0,P|242:181|239:148,2,33.2499989852906,2|0|0,0:0|0:0|0:0,0:0:0:0:
167,81,86629,5,0,0:0:0:0:
167,81,86707,1,0,0:0:0:0:
167,81,86786,2,0,P|138:117|125:162,1,66.4999979705811,8|0,0:0|0:0,0:0:0:0:
73,263,86943,2,0,P|44:227|31:182,1,66.4999979705811,8|0,0:0|0:0,0:0:0:0:
334,155,87100,6,0,L|218:170,1,95,4|0,0:0|0:0,0:0:0:0:
404,68,87414,1,8,0:0:0:0:
300,252,87571,1,0,0:0:0:0:
412,76,87728,1,10,0:0:0:0:
412,76,87807,1,8,0:0:0:0:
412,76,87885,2,8,L|420:144,1,47.5
372,312,88042,2,8,L|377:264,1,47.5
512,103,88200,6,0,B|485:255|485:255|425:199,1,213.750008153916,4|0,0:0|0:0,0:0:0:0:
339,146,88514,6,0,P|268:113|287:240,1,242.250004620552,8|0,0:0|0:0,0:0:0:0:
283,344,88828,6,0,L|175:323,1,95,8|0,0:0|0:0,0:0:0:0:
189,325,89613,5,0,0:0:0:0:
189,325,89770,2,0,L|205:259,1,47.5,2|0,0:0|0:0,0:0:0:0:
275,173,90241,2,0,L|286:219,1,47.5,2|0,0:0|0:0,0:0:0:0:
280,380,90713,2,0,L|296:314,1,47.5,2|0,0:0|0:0,0:0:0:0:
176,196,91184,5,2,0:0:0:0:
286,219,91655,1,2,0:0:0:0:
396,242,91969,2,0,L|384:176,1,47.5,2|0,0:0|0:0,0:0:0:0:
412,328,92283,5,0,0:0:0:0:
367,173,92597,2,0,L|376:220,1,47.5,2|0,0:0|0:0,0:0:0:0:
464,96,93069,2,0,L|455:142,1,47.5,2|0,0:0|0:0,0:0:0:0:
344,52,93540,2,0,L|352:98,1,47.5,2|0,0:0|0:0,0:0:0:0:
280,172,94011,1,0,0:0:0:0:
280,172,94090,1,0,0:0:0:0:
280,172,94168,2,0,L|260:168,10,11.875
344,160,94639,6,0,B|220:136|220:136|140:176|140:176|20:140,2,332.5,4|0|0,0:0|0:0|0:0,0:0:0:0:
240,252,97152,5,0,0:0:0:0:
236,308,97309,2,0,L|232:244,1,47.5
352,304,97781,2,0,L|349:351,1,47.5
312,220,98252,6,0,L|316:156,1,47.5
314,172,98566,1,0,0:0:0:0:
220,64,98723,2,0,L|232:152,1,71.25
205,210,99037,1,8,0:0:0:0:
176,212,99115,1,8,0:0:0:0:
151,199,99194,1,8,0:0:0:0:
136,175,99272,1,8,0:0:0:0:
137,146,99351,1,8,0:0:0:0:
153,123,99429,1,8,0:0:0:0:
179,111,99508,1,8,0:0:0:0:
207,116,99586,1,8,0:0:0:0:
232,136,99666,6,0,B|236:204|236:204|216:252|216:252|224:328,1,190,4|8,0:0|0:0,0:0:0:0:
311,264,100137,1,0,0:0:0:0:
41,185,100294,2,0,L|153:173,1,95,2|0,0:0|0:0,0:0:0:0:
135,174,100608,1,8,0:0:0:0:
311,264,100765,2,0,L|199:252,1,95,8|2,0:0|0:0,0:0:0:0:
400,100,101079,5,0,0:0:0:0:
312,264,101236,1,8,0:0:0:0:
392,92,101393,1,0,0:0:0:0:
320,272,101550,1,2,0:0:0:0:
320,272,101629,1,0,0:0:0:0:
320,272,101707,2,0,L|336:372,1,95,0|8,0:0|0:0,0:0:0:0:
408,204,102022,6,0,B|464:184|464:184|312:164,1,190,2|0,0:0|0:0,0:0:0:0:
168,104,102493,1,8,0:0:0:0:
328,176,102650,1,0,0:0:0:0:
248,24,102807,1,2,0:0:0:0:
212,268,102964,2,0,L|228:152,1,95,0|8,0:0|0:0,0:0:0:0:
88,132,103278,6,0,B|32:112|32:112|184:92,1,190,8|0,0:0|0:0,0:0:0:0:
315,81,103749,2,0,L|327:175,1,95,8|0,0:0|0:0,0:0:0:0:
292,364,104063,1,2,0:0:0:0:
336,184,104220,1,0,0:0:0:0:
141,327,104378,2,0,B|237:303|237:303|205:259,1,142.5,8|0,0:0|0:0,0:0:0:0:
216,80,104692,6,0,P|209:128|204:192,1,95,6|0,0:0|0:0,0:0:0:0:
61,189,105007,2,0,P|98:233|150:231,1,95,8|0,0:0|0:0,0:0:0:0:
132,236,105320,1,2,0:0:0:0:
384,148,105477,2,0,P|336:143|289:136,1,95,0|8,0:0|0:0,0:0:0:0:
444,56,105791,1,8,0:0:0:0:
444,56,105870,1,0,0:0:0:0:
444,56,105948,5,2,0:0:0:0:
280,128,106105,1,0,0:0:0:0:
432,232,106262,1,8,0:0:0:0:
268,320,106419,1,0,0:0:0:0:
268,320,106498,1,0,0:0:0:0:
268,320,106577,2,0,P|228:304|200:300,1,47.5,2|0,0:0|0:0,0:0:0:0:
64,284,106734,2,0,P|104:268|132:264,1,47.5
284,220,106891,2,0,P|244:204|216:200,1,47.5,8|0,0:0|0:0,0:0:0:0:
68,180,107048,1,8,0:0:0:0:
68,180,107126,1,0,0:0:0:0:
68,180,107205,5,2,0:0:0:0:
124,352,107362,1,0,0:0:0:0:
192,108,107519,1,8,0:0:0:0:
124,352,107676,1,0,0:0:0:0:
68,180,107833,2,0,P|116:185|163:192,1,95,2|0,0:0|0:0,0:0:0:0:
162,191,108069,1,0,0:0:0:0:
162,191,108147,1,8,0:0:0:0:
272,32,108304,2,0,L|276:140,1,95,8|2,0:0|0:0,0:0:0:0:
228,300,108618,5,8,0:0:0:0:
200,112,108775,1,8,0:0:0:0:
376,181,108933,1,8,0:0:0:0:
264,204,109090,1,8,0:0:0:0:
484,88,109247,1,8,0:0:0:0:
481,110,109325,1,8,0:0:0:0:
478,133,109404,1,8,0:0:0:0:
475,155,109482,1,8,0:0:0:0:
472,178,109561,1,8,0:0:0:0:
469,201,109639,1,8,0:0:0:0:
464,276,109718,6,0,L|445:134,1,142.500005435944,4|0,0:0|0:0,0:0:0:0:
328,240,110189,2,0,L|346:381,1,142.500005435944
445,134,110660,1,0,0:0:0:0:
340,64,110817,1,0,0:0:0:0:
340,64,110896,1,0,0:0:0:0:
340,64,110974,6,0,P|256:60|220:120,1,142.500005435944
4,200,111446,2,0,P|88:196|124:256,1,142.500005435944
223,100,111917,2,0,L|215:192,1,71.2500027179719
360,212,112231,6,0,L|353:141,1,71.2500027179719
218,256,112545,1,0,0:0:0:0:
328,348,112702,2,0,P|376:328|420:324,2,71.2500027179719
404,316,113173,1,0,0:0:0:0:
195,315,113330,6,0,P|159:267|223:263,1,142.500005435944
48,208,113802,2,0,P|84:160|20:156,1,142.500005435944
195,101,114273,1,0,0:0:0:0:
225,220,114430,2,0,L|213:274,3,35.625001358986
204,92,114744,2,0,P|241:51|333:83,1,142.500005435944
320,64,115372,2,0,L|400:80,1,71.2500027179719
225,220,115686,2,0,L|294:206,1,71.2500027179719
63,65,116001,6,0,L|235:97,1,142.500005435944
80,280,116472,1,8,0:0:0:0:
112,160,116629,1,8,0:0:0:0:
100,300,116786,1,8,0:0:0:0:
240,204,116943,1,8,0:0:0:0:
240,372,117100,1,8,0:0:0:0:
380,180,117257,6,0,L|384:272,1,71.2500027179719,8|0,0:0|0:0,0:0:0:0:
392,384,117414,1,8,0:0:0:0:
192,68,117728,6,0,L|187:159,1,71.2500027179719,8|0,0:0|0:0,0:0:0:0:
186,272,117885,1,8,0:0:0:0:
0,132,118200,6,0,L|4:224,1,71.2500027179719,8|0,0:0|0:0,0:0:0:0:
12,336,118357,1,8,0:0:0:0:
300,172,118985,6,0,P|264:184|232:228,1,71.2500027179719
372,180,119299,2,0,L|212:192,1,142.500005435944
117,96,119770,6,0,L|188:99,1,71.2500027179719,8|0,0:0|0:0,0:0:0:0:
286,108,119927,1,8,0:0:0:0:
428,216,120241,6,0,L|356:219,1,71.2500027179719,8|0,0:0|0:0,0:0:0:0:
259,228,120398,1,8,0:0:0:0:
117,336,120713,6,0,L|188:339,1,71.2500027179719,8|0,0:0|0:0,0:0:0:0:
286,348,120870,1,8,0:0:0:0:
335,288,121027,6,0,P|250:256|288:347,1,237.5
115,142,121969,6,0,B|151:250|151:250|191:190,1,170.999994781494,4|0,0:0|0:0,0:0:0:0:
136,56,122283,6,0,L|20:40,1,95,4|0,0:0|0:0,0:0:0:0:
184,204,122597,1,8,0:0:0:0:
328,84,122755,1,0,0:0:0:0:
184,204,122912,2,0,L|300:188,1,95,2|0,0:0|0:0,0:0:0:0:
