osu file format v14

[General]
AudioFilename: audio.mp3
AudioLeadIn: 0
PreviewTime: 51575
Countdown: 0
SampleSet: Normal
StackLeniency: 1
Mode: 2
LetterboxInBreaks: 0
WidescreenStoryboard: 0

[Editor]
DistanceSpacing: 1
BeatDivisor: 4
GridSize: 8
TimelineZoom: 1.5

[Metadata]
Title:ambiguous (TV Size)
TitleUnicode:ambiguous (TV Size)
Artist:GARNiDELiA
ArtistUnicode:GARNiDELiA
Creator:Peptidasen
Version:Cup
Source:キルラキル
Tags:Kill la Kill opening xChippy matoi ryuko kiryuin satsuki studio trigger meg rock
BeatmapID:1795290
BeatmapSetID:859127

[Difficulty]
HPDrainRate:3
CircleSize:2.5
OverallDifficulty:6
ApproachRate:6
SliderMultiplier:1
SliderTickRate:1

[Events]
//Background and Video events
0,0,"1920.jpg",0,0
//Break Periods
//Storyboard Layer 0 (Background)
//Storyboard Layer 1 (Fail)
//Storyboard Layer 2 (Pass)
//Storyboard Layer 3 (Foreground)
//Storyboard Sound Samples

[TimingPoints]
340,337.078651685393,4,1,0,63,1,0
51575,-76.9230769230769,4,1,0,63,0,1
73148,-100,4,1,0,63,0,0

[HitObjects]
192,236,340,6,0,P|216:168|332:280,1,300,8|0,0:0|0:0,0:0:0:0:
280,288,1688,6,0,B|216:116|48:136,1,300,8|0,0:0|0:0,0:0:0:0:
108,196,3036,6,0,P|160:248|368:196,1,300,8|0,0:0|0:0,0:0:0:0:
296,152,4384,2,0,L|192:152,1,100,8|0,0:0|0:0,0:0:0:0:
96,152,5059,2,0,L|196:152,1,100,8|0,0:0|0:0,0:0:0:0:
256,192,5733,12,0,7418,0:0:0:0:
256,200,7924,6,0,L|256:128,1,50,4|2,0:0|0:0,0:0:0:0:
192,80,8429,6,0,L|128:160,1,100,8|0,0:0|0:0,0:0:0:0:
72,224,9104,2,0,L|136:320,1,100
240,88,9778,6,0,L|304:168,1,100,8|0,0:0|0:0,0:0:0:0:
360,232,10453,2,0,L|296:328,1,100
192,304,11126,6,0,L|80:304,3,100,8|0|0|0,0:0|0:0|0:0|0:0,0:0:0:0:
192,304,12474,6,0,L|292:304,3,100,8|0|0|0,0:0|0:0|0:0|0:0,0:0:0:0:
360,288,13823,6,0,L|360:176,1,100,8|0,0:0|0:0,0:0:0:0:
264,176,14497,1,0,0:0:0:0:
176,176,14834,1,0,0:0:0:0:
80,72,15171,2,0,L|80:192,1,100,8|0,0:0|0:0,0:0:0:0:
176,264,15845,1,0,0:0:0:0:
264,264,16182,1,0,0:0:0:0:
352,256,16519,6,0,L|288:160,1,100,8|0,0:0|0:0,0:0:0:0:
216,176,17193,2,0,L|304:96,1,100
368,104,17868,2,0,L|480:104,1,100,8|0,0:0|0:0,0:0:0:0:
468,104,18542,2,0,L|348:104,1,100
256,104,19216,5,8,0:0:0:0:
256,104,19553,1,0,0:0:0:0:
128,104,19890,1,0,0:0:0:0:
40,104,20227,1,0,0:0:0:0:
128,192,20564,6,0,L|248:192,1,100,8|0,0:0|0:0,0:0:0:0:
192,280,21238,2,0,L|312:280,1,100
376,280,21913,5,8,0:0:0:0:
280,280,22250,1,0,0:0:0:0:
376,280,22587,1,0,0:0:0:0:
472,280,22924,1,0,0:0:0:0:
472,184,23261,6,0,L|376:144,1,100,8|0,0:0|0:0,0:0:0:0:
280,160,23935,2,0,L|184:192,1,100
96,80,24609,5,8,0:0:0:0:
192,80,24946,1,0,0:0:0:0:
288,80,25283,1,0,0:0:0:0:
192,80,25620,1,0,0:0:0:0:
112,168,25957,6,0,P|168:176|216:184,1,100,8|0,0:0|0:0,0:0:0:0:
304,240,26632,2,0,L|208:280,1,100
88,296,27306,5,8,0:0:0:0:
120,216,27643,1,0,0:0:0:0:
192,152,27980,1,0,0:0:0:0:
296,144,28317,1,0,0:0:0:0:
360,168,28654,2,0,L|240:168,1,100,8|0,0:0|0:0,0:0:0:0:
160,96,29328,2,0,L|272:96,1,100
260,96,30002,5,8,0:0:0:0:
360,96,30339,2,0,P|344:160|224:200,1,200
144,184,31351,5,8,0:0:0:0:
64,256,31688,2,0,L|272:256,1,200
352,256,32699,5,8,0:0:0:0:
440,208,33036,2,0,L|360:120,2,100
352,256,34047,1,8,0:0:0:0:
256,256,34384,6,0,L|144:256,2,100
160,256,35396,1,8,0:0:0:0:
64,256,35733,2,0,P|88:184|208:128,1,200
288,128,36744,5,8,0:0:0:0:
384,128,37081,6,0,P|384:192|352:328,1,200
264,304,38092,1,8,0:0:0:0:
176,288,38429,2,0,L|72:232,2,100
264,304,39441,1,8,0:0:0:0:
352,296,39778,2,0,L|456:240,2,100
271,73,40620,6,0,P|263:129|137:274,1,250,4|0,0:0|0:0,0:0:0:0:
142,272,41800,1,2,0:0:0:0:
142,272,41969,2,0,L|398:208,1,250,4|8,0:0|0:0,0:0:0:0:
384,211,43148,5,2,0:0:0:0:
384,211,43317,2,0,L|192:123,1,200,4|0,0:0|0:0,0:0:0:0:
202,127,44160,1,2,0:0:0:0:
202,127,44497,5,2,0:0:0:0:
202,127,44665,2,0,L|464:96,1,250,4|0,0:0|0:0,0:0:0:0:
450,97,45845,5,2,0:0:0:0:
450,97,46014,2,0,P|440:160|360:288,1,200,4|0,0:0|0:0,0:0:0:0:
372,276,46856,1,2,0:0:0:0:
372,276,47193,5,2,0:0:0:0:
372,276,47362,2,0,L|256:248,1,100,4|0,0:0|0:0,0:0:0:0:
275,252,47868,1,2,0:0:0:0:
184,256,48205,1,2,0:0:0:0:
96,256,48542,5,2,0:0:0:0:
56,176,48710,6,0,P|104:144|192:112,1,150,4|0,0:0|0:0,0:0:0:0:
190,112,49384,1,0,0:0:0:0:
224,112,49553,1,8,0:0:0:0:
256,112,49722,1,0,0:0:0:0:
288,112,49890,1,8,0:0:0:0:
320,112,50059,6,0,L|424:112,1,100,2|0,0:0|0:0,0:0:0:0:
424,192,50564,1,2,0:0:0:0:
424,192,50733,1,4,0:0:0:0:
424,192,50901,1,8,0:0:0:0:
320,192,51238,1,0,0:0:0:0:
224,192,51575,6,0,L|112:120,1,129.999994049073,8|0,0:0|0:0,0:0:0:0:
176,48,52250,2,0,L|285:118,1,129.999994049073
400,200,52924,2,0,L|256:200,1,129.999994049073,8|0,0:0|0:0,0:0:0:0:
140,200,53598,2,0,L|270:200,1,129.999994049073
352,200,54272,5,8,0:0:0:0:
440,200,54609,1,0,0:0:0:0:
352,200,54946,1,0,0:0:0:0:
256,200,55283,1,0,0:0:0:0:
160,120,55620,6,0,L|160:264,1,129.999994049073,8|0,0:0|0:0,0:0:0:0:
64,120,56295,2,0,L|64:272,1,129.999994049073
160,120,56969,2,0,L|288:64,1,129.999994049073,8|0,0:0|0:0,0:0:0:0:
368,80,57643,2,0,L|488:160,1,129.999994049073
384,192,58317,2,0,L|384:344,1,129.999994049073,8|0,0:0|0:0,0:0:0:0:
288,192,58991,2,0,L|136:192,1,129.999994049073
112,88,59665,5,8,0:0:0:0:
208,88,60002,1,0,0:0:0:0:
312,88,60339,1,0,0:0:0:0:
208,88,60677,1,0,0:0:0:0:
312,88,61014,6,0,L|440:144,3,129.999994049073,8|0|0|0,0:0|0:0|0:0|0:0,0:0:0:0:
200,128,62362,6,0,L|128:256,1,129.999994049073,8|0,0:0|0:0,0:0:0:0:
264,208,63036,2,0,L|384:272,1,129.999994049073
464,208,63710,2,0,L|349:146,1,129.999994049073,8|0,0:0|0:0,0:0:0:0:
221,180,64384,2,0,L|284:66,1,129.999994049073
184,72,65059,5,8,0:0:0:0:
240,72,65396,1,0,0:0:0:0:
296,72,65733,1,0,0:0:0:0:
352,72,66070,1,0,0:0:0:0:
440,72,66407,6,0,L|320:144,1,129.999994049073,8|0,0:0|0:0,0:0:0:0:
224,152,67081,2,0,L|320:248,1,129.999994049073
256,304,67755,2,0,L|120:304,1,129.999994049073,8|0,0:0|0:0,0:0:0:0:
0,304,68429,2,0,L|160:304,1,129.999994049073
240,304,69104,5,8,0:0:0:0:
344,304,69441,1,0,0:0:0:0:
448,304,69778,1,0,0:0:0:0:
344,304,70115,1,0,0:0:0:0:
240,304,70452,6,0,L|160:184,1,129.999994049073,8|0,0:0|0:0,0:0:0:0:
167,195,70957,1,2,0:0:0:0:
96,144,71295,2,0,L|224:88,1,129.999994049073,8|0,0:0|0:0,0:0:0:0:
296,88,71969,2,0,L|424:144,1,129.999994049073,8|0,0:0|0:0,0:0:0:0:
440,200,72643,2,0,L|440:336,1,129.999994049073,8|0,0:0|0:0,0:0:0:0:
440,330,73148,6,0,P|352:296|280:208,1,200,8|0,0:0|0:0,0:0:0:0:
192,224,74160,1,0,0:0:0:0:
96,224,74497,6,0,L|288:136,1,200,8|0,0:0|0:0,0:0:0:0:
376,144,75508,1,0,0:0:0:0:
456,192,75845,6,0,L|272:280,1,200,8|0,0:0|0:0,0:0:0:0:
184,272,76856,1,0,0:0:0:0:
64,280,77193,6,0,L|112:80,1,200,8|0,0:0|0:0,0:0:0:0:
200,64,78205,1,0,0:0:0:0:
304,64,78542,6,0,L|504:104,1,200,8|0,0:0|0:0,0:0:0:0:
416,184,79553,1,0,0:0:0:0:
336,240,79890,6,0,L|120:216,1,200,8|0,0:0|0:0,0:0:0:0:
56,192,80901,1,0,0:0:0:0:
128,128,81238,6,0,L|344:104,1,200,8|0,0:0|0:0,0:0:0:0:
400,136,82250,1,0,0:0:0:0:
416,248,82587,6,0,L|208:240,1,200,8|0,0:0|0:0,0:0:0:0:
112,224,83598,1,0,0:0:0:0:
56,144,83935,5,8,0:0:0:0:
144,128,84104,1,4,0:0:0:0:
144,128,84272,1,8,0:0:0:0:
232,128,84441,1,8,0:0:0:0:
312,128,84609,1,4,0:0:0:0:
312,128,84778,1,8,0:0:0:0:
384,128,84946,1,8,0:0:0:0:
456,128,85115,1,4,0:0:0:0:
256,192,85283,8,0,87980,0:0:0:0:
