osu file format v14

[General]
AudioFilename: audio.mp3
AudioLeadIn: 0
PreviewTime: 51526
Countdown: 0
SampleSet: Soft
StackLeniency: 0.7
Mode: 0
LetterboxInBreaks: 0
WidescreenStoryboard: 0

[Editor]
DistanceSpacing: 2
BeatDivisor: 4
GridSize: 4
TimelineZoom: 1.8

[Metadata]
Title:ambiguous (TV Size)
TitleUnicode:ambiguous (TV Size)
Artist:GARNiDELiA
ArtistUnicode:GARNiDELiA
Creator:Agatsu
Version:Insane
Source:キルラキル
Tags:kill la kill japanese opening anime op rock jrock j-rock fuju soop so0p kudosu door weapon xiced schoolboy komore
BeatmapID:2374504
BeatmapSetID:1137074

[Difficulty]
HPDrainRate:5.2
CircleSize:4
OverallDifficulty:8
ApproachRate:9
SliderMultiplier:1.7
SliderTickRate:1

[Events]
//Background and Video events
0,0,"KILL.la.KILL.full.2301278.jpg",0,0
//Break Periods
//Storyboard Layer 0 (Background)
//Storyboard Layer 1 (Fail)
//Storyboard Layer 2 (Pass)
//Storyboard Layer 3 (Foreground)
//Storyboard Layer 4 (Overlay)
//Storyboard Sound Samples

[TimingPoints]
712,337.078651685393,4,2,1,40,1,0
712,-142.857142857143,4,2,1,40,0,0
8464,-83.3333333333333,4,2,1,65,0,0
8801,-100,4,2,1,65,0,0
19588,-125,4,2,1,50,0,0
30374,-111.111111111111,4,2,1,65,0,0
40992,-111.111111111111,4,2,1,60,0,0
50431,-111.111111111111,4,2,1,70,0,0
51610,-83.3333333333333,4,2,1,60,0,0
51947,-100,4,2,1,70,0,1
62565,-100,4,2,1,70,0,0
62734,-100,4,2,1,70,0,1
73183,-83.3333333333333,4,2,1,60,0,1
73520,-100,4,2,1,65,0,0
84981,346.820809248555,4,2,1,65,1,0
85674,346.820809248555,4,2,1,60,1,0
85674,-100,4,2,1,60,0,0
86367,-100,4,2,1,50,0,0
87061,-100,4,2,1,40,0,0
87754,-100,4,2,1,30,0,0
88448,-100,4,2,1,20,0,0
88621,-100,4,2,1,5,0,0

[Colours]
Combo1 : 255,94,55
Combo2 : 173,255,95
Combo3 : 17,254,176
Combo4 : 255,88,100

[HitObjects]
23,60,712,6,0,L|156:51,1,118.999996368408,2|0,0:0|0:0,0:0:0:0:
225,20,1217,2,0,P|190:64|182:148,1,118.999996368408,2|0,0:0|0:0,0:0:0:0:
419,261,1891,6,0,L|423:191,1,59.4999981842042,2|0,0:0|0:0,0:0:0:0:
327,299,2228,2,0,L|332:366,1,59.4999981842042,2|0,0:0|0:0,0:0:0:0:
233,267,2565,2,0,B|176:261|171:291|92:284,1,118.999996368408,2|0,0:0|0:0,0:0:0:0:
252,73,3408,6,0,L|266:3,1,59.4999981842042,2|0,0:0|0:0,0:0:0:0:
166,22,3745,1,0,0:0:0:0:
325,119,3914,2,0,P|240:129|204:174,1,118.999996368408,2|0,0:0|0:0,0:0:0:0:
6,294,4588,6,0,L|28:365,1,59.4999981842042,2|0,0:0|0:0,0:0:0:0:
139,238,4925,2,0,L|66:220,1,59.4999981842042,2|0,0:0|0:0,0:0:0:0:
120,381,5262,2,0,L|171:328,1,59.4999981842042,2|0,0:0|0:0,0:0:0:0:
63,202,5599,2,0,B|66:146|46:137|50:65,1,118.999996368408,2|0,0:0|0:0,0:0:0:0:
51,8,6105,5,2,0:0:0:0:
256,192,6189,12,0,8127,0:0:0:0:
428,113,8296,5,0,3:0:0:0:
248,199,8464,2,0,B|264:149|264:149|242:97|242:97|263:35,1,152.999995330811,8|0,0:1|0:0,0:0:0:0:
275,35,8801,6,0,L|177:12,1,85,6|0,3:2|0:0,0:0:0:0:
331,140,9138,1,8,0:0:0:0:
152,225,9307,2,0,L|99:230,2,42.5,2|8|0,0:0|0:0|3:0,0:0:0:0:
246,282,9644,2,0,B|254:240|254:240|246:189,1,85,0|8,3:0|0:0,0:0:0:0:
14,384,9981,6,0,P|67:326|162:331,1,170,6|0,3:2|3:0,0:0:0:0:
0,205,10487,1,8,0:0:0:0:
121,81,10655,1,2,0:0:0:0:
128,95,10740,1,8,0:0:0:0:
130,110,10824,1,0,3:0:0:0:
189,0,10992,1,0,3:0:0:0:
21,100,11161,1,10,0:0:0:0:
193,191,11329,1,2,0:0:0:0:
99,308,11498,6,0,P|95:268|100:213,1,85,6|0,3:2|0:0,0:0:0:0:
16,369,11835,1,8,0:0:0:0:
195,286,12004,1,2,0:0:0:0:
207,284,12088,1,8,0:0:0:0:
218,282,12172,1,0,3:0:0:0:
363,384,12341,2,0,L|315:307,1,85,0|8,3:0|0:0,0:0:0:0:
346,49,12678,6,0,L|295:227,1,170,6|0,3:2|3:0,0:0:0:0:
244,50,13183,1,10,0:0:0:0:
413,181,13352,1,2,0:0:0:0:
218,282,13520,1,8,0:0:0:0:
171,293,13605,1,8,0:0:0:0:
127,280,13689,1,8,0:0:0:0:
95,242,13773,1,8,0:0:0:0:
93,192,13858,6,0,L|144:185,1,42.5,10|8,0:0|0:0,0:0:0:0:
84,357,14026,2,0,L|33:350,1,42.5,10|8,0:0|0:0,0:0:0:0:
214,198,14195,6,0,B|223:239|223:239|217:288,1,85,6|0,3:2|0:0,0:0:0:0:
93,192,14532,1,8,0:0:0:0:
236,86,14700,1,2,0:0:0:0:
247,84,14785,1,8,0:0:0:0:
258,83,14869,1,0,3:0:0:0:
139,0,15037,2,0,P|130:45|130:97,1,85,0|8,3:0|0:0,0:0:0:0:
315,169,15374,6,0,P|400:169|459:242,1,170,6|0,3:2|3:0,0:0:0:0:
251,376,15880,2,0,P|260:331|260:279,1,85,8|0,0:0|0:0,0:0:0:0:
254,282,16133,1,8,0:0:0:0:
246,273,16217,1,0,3:0:0:0:
154,327,16386,1,0,3:0:0:0:
227,173,16554,1,10,0:0:0:0:
138,226,16723,1,2,0:0:0:0:
0,121,16891,6,0,L|92:138,1,85,6|0,3:2|0:0,0:0:0:0:
20,224,17228,1,8,0:0:0:0:
166,44,17397,2,0,L|176:95,2,42.5,2|8|0,0:0|0:0|3:0,0:0:0:0:
319,209,17734,2,0,B|324:167|324:167|312:108,1,85,0|8,3:0|0:0,0:0:0:0:
463,65,18071,6,0,B|397:52|397:52|369:23|369:23|286:9,1,170,6|0,3:2|3:0,0:0:0:0:
164,211,18577,1,8,0:0:0:0:
122,128,18745,1,2,0:0:0:0:
166,44,18914,1,2,3:2:0:0:
68,236,19082,6,0,B|101:238|101:238|126:250|126:250|154:252|154:252|177:265|177:265|204:268|204:268|244:290,1,170,8|0,0:0|0:0,0:0:0:0:
371,375,19588,6,0,P|373:310|413:247,2,136,4|0|2,3:2|3:0|3:2,0:0:0:0:
392,165,20599,1,0,3:0:0:0:
189,123,20768,6,0,P|256:130|309:192,1,136,2|0,0:0|0:0,0:0:0:0:
237,237,21273,1,0,3:0:0:0:
167,384,21442,2,0,P|140:318|151:253,1,136,2|0,0:0|0:0,0:0:0:0:
149,255,21947,1,0,3:0:0:0:
72,211,22116,6,0,L|-4:222,1,68,2|0,0:0|3:0,0:0:0:0:
155,160,22453,2,0,B|152:94|178:88|169:12,1,136,2|0,0:0|0:0,0:0:0:0:
69,118,22959,1,0,3:0:0:0:
265,7,23296,2,0,L|342:17,1,68,2|0,3:2|0:0,0:0:0:0:
439,202,23633,6,0,L|415:64,2,136,2|2|2,3:2|3:2|3:2,0:0:0:0:
279,376,24644,1,2,3:2:0:0:
345,320,24813,1,2,0:3:0:0:
222,286,24981,6,0,P|269:320|345:319,1,136,0|0,3:0|3:0,0:0:0:0:
156,359,25487,1,2,0:0:0:0:
136,202,25655,2,0,P|126:243|128:294,1,68,2|0,3:0|0:0,0:0:0:0:
10,153,25992,2,0,P|0:112|2:61,1,68,2|2,3:0|0:3,0:0:0:0:
5,78,26245,1,2,0:3:0:0:
13,70,26329,6,0,L|89:62,1,68,2|0,3:0|0:0,0:0:0:0:
136,202,26667,2,0,L|203:209,1,68,2|0,3:0|0:0,0:0:0:0:
273,95,27004,2,0,L|349:87,1,68,2|2,3:0|0:3,0:0:0:0:
349,79,27256,1,2,0:3:0:0:
358,70,27341,1,2,3:0:0:0:
424,129,27509,1,2,0:0:0:0:
510,89,27678,6,0,P|474:139|469:224,2,136,2|2|2,3:0|3:2|3:0,0:0:0:0:
378,247,28689,1,2,3:0:0:0:
305,306,28858,1,2,0:3:0:0:
305,306,28942,1,2,0:3:0:0:
305,306,29026,6,0,P|238:310|185:369,1,136,2|2,3:0|3:2,0:0:0:0:
124,289,29532,1,0,0:0:0:0:
242,154,29700,2,0,L|255:5,1,136,2|14,3:0|0:3,0:0:0:0:
0,142,30374,6,0,B|59:153|59:153|84:179|84:179|150:193,1,152.999995330811,6|8,3:2|0:0,0:0:0:0:
244,330,30880,1,2,0:3:0:0:
244,330,30964,1,2,0:3:0:0:
244,330,31049,2,0,L|217:236,1,76.4999976654053,2|0,0:3|3:0,0:0:0:0:
127,288,31386,1,10,0:0:0:0:
242,154,31554,6,0,L|420:135,1,152.999995330811,2|0,0:0|0:0,0:0:0:0:
394,137,32060,1,10,0:0:0:0:
493,42,32228,2,0,L|484:90,2,38.2499988327027,2|2|2,0:3|0:3|3:0,0:0:0:0:
490,169,32565,1,0,3:0:0:0:
390,43,32734,1,10,0:0:0:0:
303,195,32903,6,0,P|295:154|296:108,1,76.4999976654053,2|0,0:0|3:0,0:0:0:0:
63,222,33240,2,0,P|113:167|188:166,1,152.999995330811,2|0,0:0|0:0,0:0:0:0:
317,295,33745,2,0,P|309:337|310:383,1,76.4999976654053,0|0,0:0|3:0,0:0:0:0:
392,233,34082,1,10,0:0:0:0:
213,327,34251,1,2,0:0:0:0:
303,195,34419,6,0,B|307:122|282:114|292:38,2,152.999995330811,2|10|2,3:2|0:0|0:0,0:0:0:0:
203,224,35262,1,2,3:3:0:0:
203,224,35346,1,2,0:3:0:0:
203,224,35431,2,0,P|160:222|122:215,1,76.4999976654053,10|0,0:0|0:0,0:0:0:0:
8,375,35768,6,0,P|64:331|155:340,1,152.999995330811,6|8,3:2|0:0,0:0:0:0:
142,333,36273,1,2,0:0:0:0:
40,162,36442,2,0,P|29:203|31:253,1,76.4999976654053,2|0,0:3|3:0,0:0:0:0:
127,216,36779,1,10,0:0:0:0:
33,44,36947,6,0,L|106:64,1,76.4999976654053,2|0,0:0|3:0,0:0:0:0:
225,227,37285,2,0,L|202:139,1,76.4999976654053,2|8,0:0|0:0,0:0:0:0:
334,0,37622,2,0,P|258:-1|205:64,1,152.999995330811,2|2,0:0|0:3,0:0:0:0:
200,61,38043,1,2,0:3:0:0:
193,68,38127,1,10,0:0:0:0:
315,201,38296,1,2,0:3:0:0:
299,99,38464,6,0,B|374:97|381:122|468:118,1,152.999995330811,2|10,3:2|0:0,0:0:0:0:
315,201,38970,2,0,L|302:254,2,38.2499988327027,2|2|2,0:3|0:3|3:0,0:0:0:0:
417,297,39307,2,0,P|422:262|419:216,1,76.4999976654053,0|10,3:0|0:0,0:0:0:0:
458,384,39644,6,0,P|403:332|328:330,1,152.999995330811,2|0,0:0|0:0,0:0:0:0:
237,369,40150,2,0,L|158:362,1,76.4999976654053,10|2,0:0|0:3,0:0:0:0:
153,354,40403,1,2,0:3:0:0:
144,345,40487,1,2,3:0:0:0:
215,269,40655,1,2,3:2:0:0:
52,307,40824,1,8,0:0:0:0:
99,89,40992,6,0,L|122:245,1,152.999995330811,6|0,3:2|0:0,0:0:0:0:
215,269,41498,2,0,P|223:231|226:186,1,76.4999976654053,2|0,0:0|3:0,0:0:0:0:
447,300,41835,2,0,P|394:247|320:246,1,152.999995330811,10|2,0:0|0:0,0:0:0:0:
276,6,42341,6,0,P|313:60|311:154,1,152.999995330811,2|0,3:2|3:2,0:0:0:0:
481,42,42846,2,0,P|443:39|396:28,1,76.4999976654053,2|0,3:2|0:0,0:0:0:0:
314,145,43183,2,0,B|391:142|397:171|465:167,1,152.999995330811,10|2,0:0|0:0,0:0:0:0:
336,252,43689,6,0,P|327:292|327:355,1,76.4999976654053,6|0,3:2|0:0,0:0:0:0:
325,328,44026,1,2,0:0:0:0:
425,306,44195,2,0,L|506:296,1,76.4999976654053,2|0,0:0|3:0,0:0:0:0:
370,157,44532,2,0,B|314:151|314:151|286:129|286:129|214:121,1,152.999995330811,10|2,0:0|0:0,0:0:0:0:
132,173,45037,6,0,P|125:134|126:89,1,76.4999976654053,6|0,3:2|0:0,0:0:0:0:
126,98,45374,1,2,3:2:0:0:
239,221,45543,2,0,P|232:260|233:305,1,76.4999976654053,2|0,3:2|0:0,0:0:0:0:
5,333,45880,2,0,P|42:287|137:286,1,152.999995330811,10|0,0:0|0:0,0:0:0:0:
239,221,46386,6,0,B|314:218|321:251|395:248,1,152.999995330811,6|0,3:2|0:0,0:0:0:0:
278,48,46891,2,0,P|268:89|267:135,1,76.4999976654053,2|0,0:0|3:0,0:0:0:0:
454,67,47228,1,10,0:0:0:0:
378,72,47397,2,0,L|455:67,1,76.4999976654053,2|2,0:0|0:0,0:0:0:0:
352,170,47734,6,0,P|268:174|223:242,1,152.999995330811,6|0,3:2|3:2,0:0:0:0:
190,304,48240,1,2,3:2:0:0:
103,359,48408,2,0,P|94:319|96:269,1,76.4999976654053,2|8,0:0|0:0,0:0:0:0:
206,50,48745,2,0,P|215:90|213:140,1,76.4999976654053,2|0,0:0|0:0,0:0:0:0:
82,181,49082,6,0,B|141:191|141:191|170:214|170:214|242:224,1,152.999995330811,6|2,3:2|0:0,0:0:0:0:
226,222,49588,1,2,3:2:0:0:
331,360,49756,2,0,B|314:286,1,76.4999976654053,0|14,3:2|0:0,0:0:0:0:
377,135,50094,2,0,B|322:188,1,76.4999976654053,2|0,0:0|0:0,0:0:0:0:
96,384,50431,6,0,P|143:326|218:319,1,152.999995330811,6|10,3:2|0:0,0:0:0:0:
431,377,50936,1,10,0:0:0:0:
240,228,51105,1,10,0:0:0:0:
431,377,51273,1,10,0:0:0:0:
299,148,51610,6,0,B|248:158|248:158|220:188|220:188|147:201,1,152.999995330811,8|0,0:1|0:0,0:0:0:0:
113,265,51947,6,0,L|135:93,1,170,6|10,3:2|0:0,0:0:0:0:
15,219,52453,2,0,B|4:260|4:260|7:305,1,85,2|0,0:0|3:0,0:0:0:0:
186,333,52790,1,2,0:0:0:0:
113,265,52959,1,8,0:0:0:0:
275,384,53127,6,0,P|282:338|279:286,1,85,2|0,0:0|3:0,0:0:0:0:
449,143,53464,2,0,P|442:189|445:241,1,85,2|8,0:0|0:0,0:0:0:0:
344,177,53801,2,0,P|274:170|205:244,1,170,2|2,0:0|0:0,0:0:0:0:
0,79,54307,2,0,L|96:93,1,85,8|0,0:0|0:0,0:0:0:0:
136,168,54644,6,0,L|115:-13,1,170,6|10,3:2|0:0,0:0:0:0:
236,139,55150,2,0,L|286:151,2,42.5,2|8|0,0:0|0:0|3:0,0:0:0:0:
207,235,55487,1,2,0:0:0:0:
358,104,55655,1,8,0:0:0:0:
435,317,55824,6,0,P|349:305|304:237,1,170,2|0,0:0|0:0,0:0:0:0:
305,241,56329,1,8,0:0:0:0:
441,46,56498,2,0,P|452:90|450:140,1,85,2|0,0:0|3:0,0:0:0:0:
358,104,56835,2,0,L|305:110,2,42.5,2|0|8,3:2|3:0|0:0,0:0:0:0:
435,317,57172,1,0,0:0:0:0:
404,216,57341,6,0,L|381:400,1,170,6|8,3:2|0:0,0:0:0:0:
382,384,57846,1,2,0:0:0:0:
204,290,58015,2,0,B|193:332|193:332|196:380,1,85,2|2,3:2|0:0,0:0:0:0:
296,246,58352,1,8,0:0:0:0:
155,182,58520,6,0,P|199:235|299:244,1,170,2|0,0:0|0:0,0:0:0:0:
372,194,59026,1,8,0:0:0:0:
447,57,59195,2,0,B|441:137|473:140|465:228,1,170,2|2,0:0|0:0,0:0:0:0:
353,94,59700,2,0,L|263:80,1,85,10|0,0:0|0:0,0:0:0:0:
81,228,60037,6,0,P|143:172|234:181,1,170,6|8,3:2|0:0,0:0:0:0:
292,260,60543,2,0,P|284:302|284:355,1,85,2|0,0:0|3:0,0:0:0:0:
326,166,60880,1,2,0:0:0:0:
183,270,61049,1,8,0:0:0:0:
384,244,61217,6,0,L|483:233,1,85,2|0,0:0|3:0,0:0:0:0:
267,84,61554,1,8,0:0:0:0:
267,84,61723,1,8,0:0:0:0:
225,176,61891,5,2,0:0:0:0:
362,79,62060,1,2,3:0:0:0:
206,9,62228,1,8,0:0:0:0:
206,9,62313,1,8,0:0:0:0:
206,9,62397,1,8,0:0:0:0:
151,0,62481,1,8,0:0:0:0:
103,21,62565,1,8,0:0:0:0:
84,66,62650,1,8,0:0:0:0:
85,118,62734,6,0,B|78:193|102:205|97:297,1,170,6|10,3:2|0:0,0:0:0:0:
186,153,63240,2,0,P|233:150|276:141,1,85,2|0,0:0|3:0,0:0:0:0:
429,179,63577,1,2,0:0:0:0:
364,105,63745,1,8,0:0:0:0:
461,82,63914,6,0,L|474:-11,1,85,2|0,0:0|3:0,0:0:0:0:
337,208,64251,2,0,L|348:292,1,85,2|8,0:0|0:0,0:0:0:0:
426,384,64588,2,0,P|386:347|267:341,1,170,2|2,0:0|0:0,0:0:0:0:
185,284,65094,2,0,P|173:333|176:386,1,85,8|0,0:0|0:0,0:0:0:0:
337,208,65431,6,0,B|334:131|367:125|354:32,1,170,6|10,3:2|0:0,0:0:0:0:
438,187,65936,2,0,L|453:277,1,85,2|0,0:0|3:0,0:0:0:0:
492,104,66273,1,2,3:2:0:0:
337,208,66442,1,8,0:0:0:0:
200,127,66610,6,0,L|344:115,1,127.5,6|0,3:2|0:0,0:0:0:0:
327,116,66947,2,0,P|326:75|334:14,1,85,6|8,3:2|0:0,0:0:0:0:
217,221,67285,2,0,P|124:246|107:286,1,127.5,6|0,3:2|0:0,0:0:0:0:
111,267,67622,1,8,0:0:0:0:
264,379,67790,1,8,0:0:0:0:
26,309,67959,1,4,0:3:0:0:
26,309,68043,1,4,0:3:0:0:
26,309,68127,6,0,B|117:299|107:344|200:334,1,170,6|8,3:2|0:0,0:0:0:0:
35,161,68633,2,0,L|47:217,2,42.5,0|8|0,0:0|0:0|3:0,0:0:0:0:
138,226,68970,1,0,3:0:0:0:
92,76,69138,1,10,0:0:0:0:
325,189,69307,6,0,B|261:178|261:178|235:145|235:145|150:128,1,170,6|0,3:2|3:2,0:0:0:0:
336,79,69813,2,0,P|380:76|432:64,1,85,8|0,0:0|0:0,0:0:0:0:
325,189,70150,1,8,0:0:0:0:
512,290,70318,1,8,0:0:0:0:
512,290,70403,1,8,0:0:0:0:
512,290,70487,1,10,0:0:0:0:
474,256,70571,1,8,0:0:0:0:
423,246,70655,1,10,0:0:0:0:
374,261,70739,1,8,0:0:0:0:
343,301,70824,6,0,B|332:344|332:344|337:395,1,85,6|0,3:2|3:0,0:0:0:0:
434,350,71161,1,10,0:0:0:0:
262,237,71329,2,0,L|131:253,1,127.5,6|0,3:2|0:0,0:0:0:0:
135,252,71667,2,0,P|126:209|128:156,1,85,2|8,3:2|0:0,0:0:0:0:
273,0,72004,6,0,B|276:66|254:67|259:134,1,127.5,6|0,3:2|0:0,0:0:0:0:
258,126,72341,1,2,3:2:0:0:
385,209,72509,1,8,0:0:0:0:
232,339,72678,2,0,P|284:297|341:299,1,127.5,6|0,3:2|0:0,0:0:0:0:
341,299,73015,1,8,0:0:0:0:
185,89,73183,2,0,B|172:141|172:141|191:186|191:186|181:237,1,152.999995330811,8|0,0:1|0:0,0:0:0:0:
181,235,73520,6,0,L|81:221,1,85,6|0,3:2|0:0,0:0:0:0:
200,333,73858,1,8,0:0:0:0:
104,384,74026,2,0,L|98:341,2,42.5,2|8|0,0:0|0:0|3:0,0:0:0:0:
290,384,74363,2,0,B|287:343|287:343|296:295,1,85,0|8,3:0|0:0,0:0:0:0:
442,257,74700,6,0,B|379:246|379:246|352:216|352:216|273:202,1,170,6|0,3:2|3:0,0:0:0:0:
101,268,75206,1,8,0:0:0:0:
183,153,75374,1,2,0:0:0:0:
183,153,75459,1,8,0:0:0:0:
183,153,75543,2,0,B|190:196|190:196|185:246,1,85,2|0,3:2|3:0,0:0:0:0:
8,317,75880,2,0,B|1:274|1:274|6:224,1,85,8|0,0:0|0:0,0:0:0:0:
240,334,76217,6,0,P|198:281|100:269,1,170,6|8,3:2|0:0,0:0:0:0:
291,183,76723,2,0,L|281:224,2,42.5,2|8|0,0:0|0:0|3:0,0:0:0:0:
382,220,77060,1,0,3:0:0:0:
223,56,77228,1,8,0:0:0:0:
360,123,77397,6,0,B|278:114|280:160|192:151,1,170,6|0,3:2|3:0,0:0:0:0:
185,157,77818,1,0,3:0:0:0:
175,163,77903,1,8,0:0:0:0:
229,260,78071,1,2,0:0:0:0:
78,102,78240,5,8,0:0:0:0:
71,146,78324,1,8,0:0:0:0:
65,191,78408,1,8,0:0:0:0:
58,236,78492,1,8,0:0:0:0:
53,281,78577,2,0,L|106:274,3,42.5,8|8|8|8,0:0|0:0|0:0|0:0,0:0:0:0:
135,363,78914,6,0,P|145:271|201:213,1,170,6|8,3:2|0:0,0:0:0:0:
342,313,79419,1,2,0:0:0:0:
345,324,79504,1,8,0:0:0:0:
348,334,79588,1,0,3:0:0:0:
393,226,79756,1,0,3:0:0:0:
243,329,79925,1,8,0:0:0:0:
331,157,80094,6,0,B|397:168|397:168|425:197|425:197|502:211,1,170,6|0,3:2|3:2,0:0:0:0:
244,100,80599,2,0,B|232:142|232:142|236:195,1,85,8|0,0:0|0:0,0:0:0:0:
228,193,80852,1,8,0:0:0:0:
221,203,80936,2,0,L|127:219,1,85,2|0,3:2|3:0,0:0:0:0:
284,281,81273,1,8,0:0:0:0:
56,382,81442,1,8,0:0:0:0:
56,382,81526,1,8,0:0:0:0:
56,382,81610,6,0,P|114:334|208:343,1,170,6|8,3:2|0:0,0:0:0:0:
362,382,82116,2,0,L|369:340,2,42.5,2|8|0,0:0|0:0|3:0,0:0:0:0:
294,197,82453,2,0,P|284:238|285:292,1,85,0|8,3:0|0:0,0:0:0:0:
389,139,82790,6,0,B|386:79|411:74|403:4,1,127.5,6|0,3:2|0:0,0:0:0:0:
403,13,83127,2,0,L|296:28,1,85,2|8,3:2|0:0,0:0:0:0:
312,34,83380,1,8,0:0:0:0:
305,42,83464,2,0,L|290:105,1,42.5,8|8,0:3|0:3,0:0:0:0:
481,136,83633,2,0,L|496:199,1,42.5,4|0,0:3|0:0,0:0:0:0:
273,231,83801,6,0,P|358:236|411:299,1,170,6|0,3:2|3:0,0:0:0:0:
407,310,84223,1,0,3:0:0:0:
403,322,84307,5,2,3:2:0:0:
340,141,84476,1,10,0:0:0:0:
262,319,84644,2,0,L|165:337,1,85,10|0,0:0|0:0,0:0:0:0:
255,160,84981,5,10,0:0:0:0:
361,365,85154,2,0,B|366:323|366:323|358:270,1,85,10|0,0:0|0:0,0:0:0:0:
279,80,85501,5,6,3:2:0:0:
256,192,85587,12,0,88621,0:0:0:0:
