osu file format v14

[General]
AudioFilename: audio.mp3
AudioLeadIn: 0
PreviewTime: 51526
Countdown: 0
SampleSet: Soft
StackLeniency: 0.7
Mode: 0
LetterboxInBreaks: 0
WidescreenStoryboard: 1

[Editor]
Bookmarks: 51941
DistanceSpacing: 1.5
BeatDivisor: 4
GridSize: 8
TimelineZoom: 1.8

[Metadata]
Title:ambiguous (TV Size)
TitleUnicode:ambiguous (TV Size)
Artist:GARNiDELiA
ArtistUnicode:GARNiDELiA
Creator:Agatsu
Version:Fudosu's Hard
Source:キルラキル
Tags:kill la kill japanese opening anime op rock jrock j-rock fuju soop so0p kudosu door weapon xiced schoolboy komore
BeatmapID:2376767
BeatmapSetID:1137074

[Difficulty]
HPDrainRate:4
CircleSize:3.5
OverallDifficulty:6
ApproachRate:8
SliderMultiplier:1.7
SliderTickRate:1

[Events]
//Background and Video events
0,0,"KILL.la.KILL.full.2301278.jpg",0,0
//Break Periods
//Storyboard Layer 0 (Background)
//Storyboard Layer 1 (Fail)
//Storyboard Layer 2 (Pass)
//Storyboard Layer 3 (Foreground)
//Storyboard Layer 4 (Overlay)
//Storyboard Sound Samples

[TimingPoints]
712,337.078651685393,4,2,1,40,1,0
712,-153.846153846153,4,2,1,40,0,0
8801,-100,4,2,1,65,0,0
19588,-125,4,2,1,50,0,0
30374,-111.111111111111,4,2,1,65,0,0
40992,-125,4,2,1,60,0,0
50431,-111.111111111111,4,2,1,70,0,0
51610,-100,4,2,1,60,0,0
51947,-100,4,2,1,70,0,1
62565,-100,4,2,1,70,0,0
62734,-100,4,2,1,70,0,1
73183,-117.647058823529,4,2,1,60,0,1
73520,-100,4,2,1,65,0,0
84981,346.820809248555,4,2,1,65,1,0
85674,346.820809248555,4,2,1,60,1,0
86367,-100,4,2,1,50,0,0
87061,-100,4,2,1,40,0,0
87754,-100,4,2,1,30,0,0
88448,-100,4,2,1,20,0,0
88621,-100,4,2,1,5,0,0

[Colours]
Combo1 : 255,94,55
Combo2 : 173,255,95
Combo3 : 17,254,176
Combo4 : 255,88,100

[HitObjects]
8,17,712,6,0,L|131:40,1,110.499994941712,2|0,0:0|0:0,0:0:0:0:
181,99,1217,2,0,L|315:80,1,110.499994941712,2|0,0:0|0:0,0:0:0:0:
392,224,1891,2,0,P|352:187|299:191,1,110.499994941712,2|2,0:0|0:0,0:0:0:0:
205,318,2565,1,2,0:0:0:0:
205,318,2903,2,0,L|179:197,1,110.499994941712
81,155,3408,6,0,L|92:95,1,55.2499974708558,2|0,0:0|0:0,0:0:0:0:
161,39,3745,1,0,0:0:0:0:
161,39,3914,2,0,L|292:63,1,110.499994941712,2|0,0:0|0:0,0:0:0:0:
422,4,4588,2,0,P|412:31|405:57,1,55.2499974708558,2|0,0:0|0:0,0:0:0:0:
344,124,4925,2,0,P|352:150|361:176,1,55.2499974708558,2|0,0:0|0:0,0:0:0:0:
348,262,5262,2,0,P|321:269|295:277,1,55.2499974708558,2|0,0:0|0:0,0:0:0:0:
215,237,5599,2,0,B|158:246|166:268|113:277,1,110.499994941712,2|0,0:0|0:0,0:0:0:0:
22,214,6105,5,2,0:0:0:0:
256,192,6273,12,8,8464,0:1:0:0:
451,71,8801,5,6,3:2:0:0:
355,48,8970,2,0,P|364:87|376:146,1,85,2|8,0:0|0:0,0:0:0:0:
438,206,9307,2,0,P|420:289|402:372,1,170,2|0,0:0|3:0,0:0:0:0:
314,348,9813,1,8,0:0:0:0:
193,384,9981,6,0,P|187:341|177:292,1,85,6|0,3:2|0:0,0:0:0:0:
99,264,10318,2,0,P|56:270|7:280,1,85,0|8,3:0|0:0,0:0:0:0:
0,150,10655,2,0,P|74:182|142:138,1,170,2|2,0:2|3:2,0:0:0:0:
123,48,11161,5,10,0:0:0:0:
204,14,11329,2,0,P|214:53|224:103,1,85,2|6,0:0|3:2,0:0:0:0:
243,187,11667,2,0,P|233:226|223:276,1,85,2|8,0:0|0:0,0:0:0:0:
208,363,12004,2,0,P|273:305|358:332,1,170,2|0,0:0|3:0,0:0:0:0:
419,366,12509,1,8,0:0:0:0:
473,251,12678,6,0,P|433:241|384:231,1,85,6|0,3:2|0:0,0:0:0:0:
337,146,13015,2,0,P|346:106|357:57,1,85,0|10,3:0|0:0,0:0:0:0:
271,42,13352,2,0,P|261:81|251:131,1,85,2|8,0:0|0:0,0:0:0:0:
240,218,13689,1,8,0:0:0:0:
240,218,13773,1,8,0:0:0:0:
240,218,13858,5,10,0:0:0:0:
166,155,14026,2,0,P|126:145|77:134,1,85,10|6,0:0|3:2,0:0:0:0:
70,216,14363,2,0,P|110:226|159:237,1,85,2|8,0:0|0:0,0:0:0:0:
233,300,14700,2,0,B|266:213|213:220|255:132,1,170,2|0,0:0|3:0,0:0:0:0:
163,114,15206,1,8,0:0:0:0:
215,1,15374,6,0,P|260:5|324:11,1,85,6|0,3:2|0:0,0:0:0:0:
329,92,15711,2,0,P|374:88|438:82,1,85,2|8,3:2|0:0,0:0:0:0:
512,86,16049,2,0,B|492:159|492:159|496:169|496:169|473:250,1,170,2|0,0:0|3:0,3:0:0:0:
463,343,16554,1,10,0:0:0:0:
373,384,16723,6,0,P|341:350|300:349,1,85,2|6,0:0|3:2,0:0:0:0:
315,260,17060,2,0,P|268:258|238:286,1,85,2|8,0:0|0:0,0:3:0:0:
160,368,17397,2,0,B|145:308|145:308|159:272|159:272|145:203,1,170,2|0,0:0|3:0,0:0:0:0:
181,120,17903,1,8,0:0:0:0:
111,6,18071,6,0,P|90:42|97:83,1,85,6|0,3:2|0:0,3:0:0:0:
181,120,18408,2,0,L|271:97,2,85,0|8|2,3:0|0:0|0:0,0:0:0:0:
145,203,18914,1,2,3:2:0:0:
221,257,19082,1,8,0:0:0:0:
436,18,19588,6,0,P|419:79|403:154,2,136,4|0|2,3:2|3:0|3:2,0:0:0:0:
305,154,20599,1,0,3:0:0:0:
305,154,20768,2,0,P|322:219|337:286,1,136,2|0,0:0|0:0,0:0:0:0:
281,364,21273,1,0,3:0:0:0:
281,364,21442,2,0,P|241:332|163:362,1,136,2|0,0:0|0:0,0:0:0:0:
78,384,21947,1,0,3:0:0:0:
78,384,22116,2,0,L|61:311,1,68,2|0,0:0|3:0,0:0:0:0:
78,220,22453,6,0,B|131:223|131:223|162:243|162:243|216:246,1,136,2|0,0:0|0:0,0:0:0:0:
287,174,22959,1,0,3:0:0:0:
287,174,23296,2,0,L|268:99,1,68,2|0,3:2|0:0,0:0:0:0:
203,0,23633,2,0,L|175:136,1,136,2|2,3:2|3:2,0:0:0:0:
8,32,24307,2,0,P|44:80|36:168,1,136,2|2,3:2|3:2,0:0:0:0:
7,228,24813,1,2,0:3:0:0:
45,332,24981,6,0,B|122:323|111:361|181:354,1,136,0|0,3:0|3:0,0:0:0:0:
262,378,25487,1,2,0:0:0:0:
262,378,25655,2,0,L|286:235,1,136,2|2,3:0|3:0,0:0:0:0:
350,183,26161,1,2,0:3:0:0:
350,183,26245,1,2,0:3:0:0:
350,183,26329,6,0,L|430:193,1,68,2|0,3:0|0:0,0:0:0:0:
432,105,26667,2,0,L|352:95,1,68,2|0,3:0|0:0,0:0:0:0:
311,21,27004,1,2,3:0:0:0:
221,26,27172,1,2,0:3:0:0:
161,92,27341,2,0,L|173:184,1,68,2|2,3:0|0:0,0:0:0:0:
173,191,27594,1,0,0:0:0:0:
173,191,27678,2,0,L|161:283,1,68,2|0,3:0|0:0,0:0:0:0:
107,337,28015,6,0,P|160:300|226:335,1,136,2|2,3:2|3:0,0:0:0:0:
362,384,28689,2,0,L|374:292,1,68,2|2,3:0|0:3,0:0:0:0:
374,285,28942,1,2,0:3:0:0:
374,285,29026,2,0,L|362:193,1,68,2|0,3:0|0:0,0:0:0:0:
424,142,29363,2,0,P|461:149|511:156,1,68,2|0,3:2|0:0,0:0:0:0:
359,77,29700,2,0,P|301:91|202:105,1,136,2|14,3:0|0:3,0:0:0:0:
39,0,30374,6,0,B|50:71|50:71|46:76|46:76|58:151,1,152.999995330811,6|8,3:2|0:0,0:0:0:0:
85,236,30880,1,2,0:3:0:0:
85,236,30964,1,2,0:3:0:0:
85,236,31049,2,0,P|122:208|161:212,1,76.4999976654053,2|0,0:3|3:0,0:0:0:0:
203,290,31386,1,10,0:0:0:0:
203,290,31554,6,0,B|258:293|258:293|297:328|297:328|357:333,1,152.999995330811,2|0,0:0|0:0,0:0:0:0:
435,339,32060,1,10,0:0:0:0:
435,339,32228,2,0,B|419:268|419:268|455:196,1,152.999995330811,2|0,0:3|3:0,0:0:0:0:
426,108,32734,1,10,0:0:0:0:
426,108,32903,6,0,P|358:127|271:148,1,152.999995330811,2|2,0:0|0:0,0:0:0:0:
203,107,33408,1,8,0:0:0:0:
203,107,33577,2,0,L|216:19,1,76.4999976654053,2|0,0:0|3:0,0:0:0:0:
111,85,33914,1,0,3:0:0:0:
111,85,34083,2,0,L|124:173,1,76.4999976654053,10|2,0:0|0:0,0:0:0:0:
88,245,34419,6,0,P|51:240|1:230,1,76.4999976654053,2|0,3:2|0:0,0:0:0:0:
0,319,34756,2,0,P|37:324|87:334,1,76.4999976654053,10|0,0:0|0:0,0:0:0:0:
157,342,35094,2,0,P|175:303|166:256,1,76.4999976654053,2|2,0:0|3:3,0:0:0:0:
212,197,35431,2,0,L|291:217,1,76.4999976654053,10|0,0:0|0:0,0:0:0:0:
347,316,35768,6,0,L|380:157,1,152.999995330811,6|8,3:2|0:0,0:0:0:0:
353,79,36273,2,0,L|275:92,1,76.4999976654053,2|2,0:0|0:3,0:0:0:0:
212,29,36610,1,0,3:0:0:0:
117,41,36779,2,0,L|141:200,1,152.999995330811,10|0,0:0|3:0,0:0:0:0:
89,268,37285,2,0,P|52:261|9:255,1,76.4999976654053,2|8,0:0|0:0,0:0:0:0:
119,353,37622,2,0,P|155:346|199:340,1,76.4999976654053,2|0,0:0|0:0,0:0:0:0:
272,283,37959,5,2,0:3:0:0:
272,283,38127,2,0,P|265:246|259:203,1,76.4999976654053,10|2,0:0|0:3,3:0:0:0:
306,114,38464,2,0,P|375:160|454:142,1,152.999995330811,2|10,3:2|0:0,0:0:0:0:
457,62,38970,1,2,0:3:0:0:
457,62,39138,2,0,L|380:42,1,76.4999976654053,2|0,3:0|3:0,0:0:0:0:
296,24,39476,2,0,L|219:44,1,76.4999976654053,10|2,0:0|0:0,0:0:0:0:
117,14,39813,6,0,B|127:80|127:80|135:92|135:92|147:169,1,152.999995330811,0|10,3:0|0:0,0:0:0:0:
155,250,40318,1,2,0:3:0:0:
98,319,40487,1,2,3:0:0:0:
98,319,40571,1,2,0:0:0:0:
98,319,40655,2,0,L|15:303,1,76.4999976654053,2|8,3:2|0:0,0:0:0:0:
155,250,40992,6,0,B|232:243|216:293|301:284,1,136,6|0,3:2|0:0,0:0:0:0:
365,288,41498,2,0,L|379:208,1,68,2|0,0:0|3:0,0:0:0:0:
459,172,41835,2,0,L|473:252,2,68,10|0|2,0:0|0:0|0:0,0:0:0:0:
402,92,42341,2,0,B|346:100|346:100|325:118|325:118|270:130,1,136,2|0,3:2|3:2,0:0:0:0:
190,69,42846,5,2,3:2:0:0:
287,214,43183,1,10,0:0:0:0:
134,337,43520,1,2,0:0:0:0:
119,252,43689,6,0,B|199:243|179:293|257:283,1,136,6|2,3:2|0:0,0:0:0:0:
287,214,44195,2,0,L|275:136,1,68,2|0,0:0|3:0,0:0:0:0:
331,75,44532,2,0,P|367:70|409:63,2,68,10|0|2,0:0|0:0|0:0,0:0:0:0:
240,20,45037,2,0,P|181:59|100:57,1,136,6|2,3:2|3:2,0:0:0:0:
42,19,45543,1,2,3:2:0:0:
164,143,45880,2,0,P|149:203|131:290,1,136,10|0,0:0|0:0,0:0:0:0:
184,379,46386,6,0,P|240:339|309:365,1,136,6|0,3:2|0:0,0:0:0:0:
380,383,46891,2,0,L|400:291,1,68,2|0,0:0|3:0,0:0:0:0:
336,236,47228,2,0,P|303:245|244:256,2,68,10|2|2,0:0|0:0|0:0,0:0:0:0:
434,213,47734,2,0,P|423:163|438:115,1,102,6|0,3:2|0:0,0:0:0:0:
447,68,48071,2,0,P|481:75|523:81,1,68,2|0,3:2|3:0,0:0:0:0:
366,26,48408,2,0,P|332:33|290:39,1,68,2|8,0:2|0:0,0:0:0:0:
226,93,48745,2,0,P|191:95|151:65,1,68,2|0,0:0|0:0,0:0:0:0:
214,8,49082,6,0,L|177:162,1,136,6|2,3:2|0:0,0:0:0:0:
146,231,49588,1,2,3:2:0:0:
146,231,49756,2,0,P|116:214|79:213,1,68,0|14,3:2|0:0,0:0:0:0:
56,306,50094,2,0,P|86:323|123:324,1,68,2|0,0:0|0:0,0:0:0:0:
225,360,50431,6,0,B|238:292|238:292|245:285|245:285|262:200,1,152.999995330811,6|10,3:2|0:0,0:0:0:0:
321,144,50936,1,10,0:0:0:0:
374,218,51105,1,10,0:0:0:0:
449,166,51273,1,10,0:0:0:0:
268,70,51610,2,0,B|216:81|216:81|193:96|193:96|145:107,1,127.5,8|0,0:1|0:0,0:0:0:0:
102,119,51947,6,0,P|67:178|119:278,1,170,6|10,3:2|0:0,0:0:0:0:
196,299,52453,2,0,L|209:394,1,85,2|0,0:0|3:0,0:0:0:0:
293,329,52790,2,0,P|335:322|388:339,1,85,2|8,0:0|0:0,0:0:0:0:
465,378,53127,6,0,P|475:336|468:295,1,85,2|0,0:0|3:0,0:0:0:0:
387,233,53464,2,0,L|302:240,1,85,2|8,0:0|0:0,0:0:0:0:
420,148,53801,2,0,L|504:155,1,85,2|0,0:0|3:0,0:0:0:0:
387,63,54138,1,2,0:0:0:0:
339,154,54307,2,0,P|284:166|234:150,1,85,8|0,0:0|0:0,0:0:0:0:
164,83,54644,6,0,L|180:274,1,170,6|10,3:2|0:0,0:0:0:0:
102,318,55150,2,0,L|18:309,1,85,2|0,0:0|3:0,0:0:0:0:
178,252,55487,2,0,L|262:243,1,85,2|8,0:0|0:0,0:0:0:0:
341,322,55824,6,0,P|422:329|473:266,1,170,2|0,0:0|2:0,0:0:0:0:
418,180,56329,1,8,0:0:0:0:
352,100,56498,2,0,L|361:16,1,85,2|0,0:0|3:0,0:0:0:0:
269,57,56835,2,0,L|179:65,1,85,2|8,3:2|0:0,0:0:0:0:
98,12,57172,1,0,0:0:0:0:
123,142,57341,6,0,P|116:236|113:312,1,170,6|8,3:2|0:0,0:0:0:0:
184,384,57846,1,2,0:0:0:0:
274,321,58015,1,2,3:2:0:0:
274,321,58184,2,0,P|316:313|358:322,1,85,2|10,2:2|0:0,0:0:0:0:
439,254,58520,6,0,P|462:170|403:114,1,170,2|0,0:0|2:0,0:0:0:0:
339,190,59026,1,8,0:0:0:0:
273,102,59195,2,0,B|232:118|194:98|194:98|149:71|101:89,1,170,2|2,0:0|0:0,0:0:0:0:
37,153,59700,1,10,0:0:0:0:
79,243,59869,1,0,0:0:0:0:
177,230,60037,6,0,B|222:226|222:226|284:196|284:196|339:191,1,170,6|8,3:2|0:0,0:0:0:0:
430,147,60543,2,0,L|437:62,1,85,2|0,0:0|3:0,0:0:0:0:
339,191,60880,2,0,L|346:275,1,85,2|8,0:0|0:0,0:0:0:0:
432,335,61217,6,0,P|369:322|254:350,1,170,2|8,0:0|0:0,0:0:0:0:
167,377,61723,1,8,0:0:0:0:
105,294,61891,2,0,L|20:302,1,85,2|2,0:0|3:0,0:0:0:0:
186,222,62228,1,8,0:0:0:0:
186,222,62313,1,8,0:0:0:0:
186,222,62397,2,0,L|189:180,3,42.5,8|8|8|8,0:0|0:0|0:0|0:0,0:0:0:0:
197,134,62734,6,0,P|261:112|361:154,1,170,6|10,3:2|0:0,0:0:0:0:
410,231,63240,2,0,L|402:318,1,85,2|0,0:0|3:0,0:0:0:0:
509,204,63577,2,0,L|501:119,1,85,2|8,0:0|0:0,0:0:0:0:
485,21,63914,6,0,P|435:9|395:18,1,85,2|0,0:0|3:0,0:0:0:0:
310,56,64251,2,0,P|260:68|220:59,1,85,2|8,0:0|0:0,0:0:0:0:
137,19,64588,2,0,L|129:104,1,85,2|0,0:0|3:0,0:0:0:0:
34,138,64925,1,2,0:0:0:0:
111,202,65094,2,0,P|123:247|112:296,1,85,8|0,0:0|0:0,0:0:0:0:
20,337,65431,6,0,P|106:314|179:345,1,170,6|10,3:2|0:0,0:0:0:0:
272,384,65936,2,0,L|356:376,1,85,2|0,0:0|3:0,0:0:0:0:
443,324,66273,2,0,P|447:263|425:219,1,85,2|8,3:2|0:0,0:0:0:0:
346,190,66610,6,0,L|261:197,1,85,6|0,3:2|0:0,0:0:0:0:
428,152,66947,2,0,L|512:159,1,85,6|8,3:2|0:0,0:0:0:0:
355,105,67285,2,0,L|366:13,1,85,6|0,3:2|0:0,0:0:0:0:
258,6,67622,2,0,P|216:0|175:10,1,85,8|8,0:0|0:0,0:0:0:0:
77,42,67959,1,4,0:3:0:0:
77,42,68043,1,4,0:3:0:0:
77,42,68127,6,0,P|53:104|84:217,1,170,6|8,3:2|0:0,0:0:0:0:
137,281,68633,1,0,0:0:0:0:
171,186,68801,2,0,L|255:178,1,85,0|0,3:0|3:0,0:0:0:0:
289,273,69138,1,10,0:0:0:0:
355,168,69307,6,0,P|412:139|497:202,1,170,6|0,3:2|3:2,0:0:0:0:
512,292,69813,2,0,L|503:387,1,85,8|0,0:0|0:0,0:0:0:0:
416,326,70150,1,8,0:0:0:0:
315,333,70318,1,8,0:0:0:0:
315,333,70403,1,8,0:0:0:0:
315,333,70487,2,0,L|272:336,3,42.5,10|8|10|8,0:0|0:0|0:0|0:0,0:0:0:0:
231,337,70824,6,0,L|224:253,1,85,6|0,3:2|3:0,0:0:0:0:
260,158,71161,1,10,0:0:0:0:
158,184,71329,2,0,L|70:176,1,85,6|0,3:2|0:0,0:0:0:0:
224,253,71667,2,0,L|311:245,1,85,2|8,3:2|0:0,0:0:0:0:
381,167,72004,6,0,P|388:125|381:84,1,85,6|0,3:2|0:0,0:0:0:0:
308,245,72341,2,0,P|301:293|311:339,1,85,2|8,3:2|0:0,0:0:0:0:
403,368,72678,2,0,P|410:320|400:274,1,85,6|0,3:2|0:0,0:0:0:0:
307,328,73015,1,8,0:0:0:0:
224,353,73183,2,0,L|136:345,1,72.2500013780594,8|0,0:1|0:0,0:0:0:0:
82,271,73520,6,0,P|76:212|100:161,1,85,6|0,3:2|0:0,0:0:0:0:
167,135,73858,2,0,L|159:47,1,85,8|2,0:0|0:0,0:0:0:0:
159,50,74110,1,8,0:0:0:0:
159,50,74195,1,0,3:0:0:0:
257,100,74363,2,0,P|308:113|346:96,1,85,0|8,3:0|0:0,0:0:0:0:
429,51,74700,6,0,P|423:91|418:170,1,85,6|0,3:2|0:0,0:0:0:0:
499,198,75037,1,0,3:0:0:0:
406,237,75206,2,0,P|360:251|322:236,1,85,8|2,0:0|0:0,0:0:0:0:
239,189,75543,2,0,L|154:196,1,85,0|0,3:0|3:0,0:0:0:0:
160,296,75880,2,0,L|244:288,1,85,8|0,0:0|0:0,0:0:0:0:
85,251,76217,6,0,P|43:248|0:243,1,85,6|0,3:2|0:0,0:0:0:0:
56,158,76554,2,0,P|58:116|63:73,1,85,8|2,0:0|0:0,0:0:0:0:
148,23,76891,1,0,3:0:0:0:
222,88,77060,2,0,P|263:90|306:95,1,85,0|8,3:0|0:0,0:0:0:0:
296,195,77397,2,0,P|253:190|211:187,1,85,6|0,3:2|0:0,0:0:0:0:
135,252,77734,5,0,3:0:0:0:
174,345,77903,2,0,P|216:340|258:337,1,85,8|2,0:0|0:0,0:0:0:0:
258,337,78155,1,0,0:0:0:0:
258,337,78240,1,8,0:0:0:0:
341,279,78408,2,0,L|404:284,5,42.5,8|8|8|8|8|8,0:0|0:0|0:0|0:0|0:0|0:0,0:0:0:0:
431,285,78914,6,0,P|442:220|416:180,1,85,6|0,3:2|0:0,0:0:0:0:
367,121,79251,2,0,P|327:124|282:128,1,85,8|2,0:0|0:0,0:0:0:0:
217,203,79588,1,0,3:0:0:0:
126,165,79756,2,0,P|71:160|36:173,1,85,0|8,3:0|0:0,0:0:0:0:
0,267,80094,6,0,L|7:354,1,85,6|0,3:2|0:0,0:0:0:0:
105,378,80431,1,0,3:2:0:0:
161,294,80599,2,0,P|205:297|245:301,1,85,8|0,0:0|0:0,0:0:0:0:
328,366,80936,2,0,P|370:361|412:358,1,85,0|0,3:0|3:0,0:0:0:0:
495,293,81273,1,8,0:0:0:0:
459,194,81442,1,8,0:0:0:0:
459,194,81526,1,8,0:0:0:0:
459,194,81610,6,0,P|408:185|361:203,1,85,6|0,3:2|0:0,0:0:0:0:
293,250,81947,2,0,P|249:246|205:242,1,85,8|2,0:0|0:0,0:0:0:0:
120,193,82285,2,0,P|116:150|125:109,1,85,0|0,3:0|3:0,0:0:0:0:
177,23,82622,1,8,0:0:0:0:
209,133,82790,6,0,P|263:145|300:133,1,85,6|0,3:2|0:0,0:0:0:0:
363,66,83127,1,2,3:2:0:0:
454,114,83296,1,8,0:0:0:0:
454,114,83380,1,8,0:0:0:0:
454,114,83464,2,0,L|496:110,2,42.5,8|8|4,0:3|0:3|0:3,0:0:0:0:
381,185,83801,1,6,3:2:0:0:
332,367,84138,5,0,3:0:0:0:
332,367,84223,1,0,3:0:0:0:
332,367,84307,2,0,P|393:376|425:360,1,85,2|10,3:2|0:0,0:0:0:0:
373,269,84644,2,0,L|382:173,1,85,10|0,0:0|0:0,0:0:0:0:
454,114,84981,1,10,0:0:0:0:
484,207,85154,1,10,0:0:0:0:
303,219,85501,5,6,3:2:0:0:
256,192,85674,12,0,88621,0:0:0:0:
