osu file format v14

[General]
AudioFilename: audio.mp3
AudioLeadIn: 0
PreviewTime: 51358
Countdown: 0
SampleSet: Soft
StackLeniency: 0.7
Mode: 0
LetterboxInBreaks: 0
WidescreenStoryboard: 1

[Editor]
DistanceSpacing: 1.3
BeatDivisor: 4
GridSize: 32
TimelineZoom: 2.4

[Metadata]
Title:ambiguous (TV Size ver.)
TitleUnicode:ambiguous(TV Size ver.)
Artist:GARNiDELiA
ArtistUnicode:GARNiDELiA
Creator:abanes16
Version:Insane
Source:キルラキル
Tags:kill la kill op 2 akitoshi matoi ryuko yamicchi MARiA, toku, 水橋舞, メイリア, 阿部尚徳,
BeatmapID:1004080
BeatmapSetID:441302

[Difficulty]
HPDrainRate:7
CircleSize:4
OverallDifficulty:7
ApproachRate:9
SliderMultiplier:1.6
SliderTickRate:1

[Events]
//Background and Video events
0,0,"486463 (Custom).jpg",0,0
//Break Periods
//Storyboard Layer 0 (Background)
//Storyboard Layer 1 (Fail)
//Storyboard Layer 2 (Pass)
//Storyboard Layer 3 (Foreground)
//Storyboard Sound Samples

[TimingPoints]
460,337.078651685393,4,2,3,50,1,0
460,-133.333333333333,4,2,3,50,0,0
8044,-100,4,1,2,70,0,0
8465,-90.9090909090909,4,2,1,70,0,0
18830,-133.333333333333,4,2,1,70,0,0
19336,-90.9090909090909,4,2,1,70,0,0
30122,-90.9090909090909,4,2,1,70,0,0
40740,-90.9090909090909,4,2,2,70,0,0
41077,-90.9090909090909,4,2,1,70,0,0
41246,-100,4,2,1,70,0,0
42089,-100,4,2,2,70,0,0
42426,-100,4,2,1,70,0,0
43437,-100,4,2,2,70,0,0
43774,-100,4,2,1,70,0,0
44785,-100,4,2,2,70,0,0
45122,-100,4,2,1,70,0,0
45628,-100,4,2,2,70,0,0
46133,-100,4,2,2,70,0,0
46471,-100,4,2,1,70,0,0
47482,-100,4,2,2,70,0,0
47988,-100,4,2,1,70,0,0
48830,-100,4,2,2,70,0,0
49167,-100,4,2,1,70,0,0
50179,-100,4,2,2,70,0,0
50516,-100,4,2,1,70,0,0
51020,-111.111111111111,4,2,1,70,0,0
51358,-111.111111111111,4,1,2,70,0,0
51443,-111.111111111111,4,2,1,70,0,0
51695,-100,4,2,1,70,0,1
55572,-100,4,2,1,70,0,1
72930,-76.9230769230769,4,1,2,70,0,1
73100,-90.9090909090909,4,2,1,70,0,1
73268,-100,4,2,1,70,0,0
73437,-90.9090909090909,4,2,1,70,0,0
84813,-100,4,2,1,70,0,0

[Colours]
Combo1 : 255,128,64
Combo2 : 255,72,72
Combo3 : 255,255,98

[HitObjects]
132,273,460,6,0,P|171:317|243:320,1,120.000004577637,2|0,0:0|0:0,0:0:0:0:
301,271,965,2,0,L|313:145,1,120.000004577637,2|0,0:0|0:0,0:0:0:0:
245,72,1471,2,0,P|241:31|254:-2,1,60.0000022888184,2|0,0:0|0:0,0:0:0:0:
369,69,1808,2,0,L|441:73,2,60.0000022888184,2|0|0,0:0|0:0|0:0,0:0:0:0:
297,152,2313,2,0,P|246:168|166:129,1,120.000004577637,2|0,0:0|0:0,0:0:0:0:
74,121,2819,1,2,0:0:0:0:
144,61,2988,1,0,0:0:0:0:
128,218,3156,6,0,P|109:295|133:343,1,120.000004577637,2|0,0:0|0:0,0:0:0:0:
221,354,3662,2,0,L|350:356,1,120.000004577637,2|0,0:0|0:0,0:0:0:0:
422,310,4167,2,0,P|433:276|420:238,1,60.0000022888184,2|0,0:0|0:0,0:0:0:0:
307,207,4504,2,0,L|346:257,1,60.0000022888184,2|0,0:0|0:0,0:0:0:0:
395,173,4842,1,0,0:0:0:0:
266,129,5010,6,0,L|144:142,1,120.000004577637,2|0,0:0|0:0,0:0:0:0:
92,217,5516,2,0,L|56:270,1,60.0000022888184,2|0,0:0|0:0,0:0:0:0:
145,324,5853,1,2,0:0:0:0:
256,192,5937,12,0,8044,0:0:0:0:
272,315,8212,6,0,P|197:331|152:318,1,120,8|0,0:0|0:0,0:0:0:0:
126,308,8549,2,0,B|115:261|115:261|128:221,1,88.000002685547,6|0,0:0|0:0,0:0:0:0:
244,95,8886,2,0,B|251:137|251:137|240:189,1,88.000002685547,10|0,0:0|0:0,0:0:0:0:
393,283,9224,1,2,0:0:0:0:
338,145,9392,1,2,0:0:0:0:
286,310,9561,1,8,0:0:0:0:
123,219,9729,6,0,P|64:221|26:121,1,176.000005371094,6|0,0:0|0:0,0:0:0:0:
188,82,10235,2,0,L|292:76,1,88.000002685547,8|0,0:0|0:0,0:0:0:0:
431,160,10572,2,0,L|343:165,1,88.000002685547,2|0,0:0|0:0,0:0:0:0:
198,282,10909,1,10,0:0:0:0:
250,170,11077,1,0,0:0:0:0:
323,275,11246,6,0,L|307:377,1,88.000002685547,6|0,0:0|0:0,0:0:0:0:
417,247,11583,2,0,L|430:160,1,88.000002685547,8|0,0:0|0:0,0:0:0:0:
434,127,11836,1,0,0:0:0:0:
439,98,11920,2,0,P|390:82|323:89,1,88.000002685547,2|2,0:0|0:0,0:0:0:0:
256,133,12257,1,8,0:0:0:0:
161,181,12426,6,0,P|84:189|37:94,1,176.000005371094,6|0,0:0|0:0,0:0:0:0:
216,30,12931,1,10,0:0:0:0:
113,20,13100,1,0,0:0:0:0:
256,133,13268,2,0,L|358:118,1,88.000002685547,2|0,0:0|0:0,0:0:0:0:
435,185,13606,5,8,0:0:0:0:
447,226,13690,1,8,0:0:0:0:
443,270,13774,1,8,0:0:0:0:
424,309,13858,1,8,0:0:0:0:
389,328,13943,2,0,L|178:308,1,176.000005371094,6|10,0:0|0:0,0:0:0:0:
99,353,14448,1,0,0:0:0:0:
99,353,14533,1,0,0:0:0:0:
99,353,14617,1,2,0:0:0:0:
83,195,14785,1,2,0:0:0:0:
12,303,14954,1,8,0:0:0:0:
191,224,15122,6,0,B|185:175|185:175|208:118|208:118|203:42,1,176.000005371094,6|0,0:0|0:0,0:0:0:0:
101,102,15628,2,0,L|-2:91,1,88.000002685547,8|0,0:0|0:0,0:0:0:0:
274,177,15965,2,0,L|361:186,1,88.000002685547,2|0,0:0|0:0,0:0:0:0:
467,276,16302,1,8,0:0:0:0:
349,305,16471,1,0,0:0:0:0:
451,164,16639,6,0,P|466:117|444:73,1,88.000002685547,6|0,0:0|0:0,0:0:0:0:
347,21,16976,1,10,0:0:0:0:
228,101,17145,1,0,0:0:0:0:
228,101,17229,1,0,0:0:0:0:
228,101,17313,1,2,0:0:0:0:
331,100,17482,1,0,0:0:0:0:
225,0,17651,1,10,0:0:0:0:
138,141,17819,6,0,P|115:230|174:317,1,176.000005371094,6|0,0:0|0:0,0:0:0:0:
293,197,18325,1,10,0:0:0:0:
347,358,18493,1,0,0:0:0:0:
264,314,18662,1,0,0:0:0:0:
401,203,18830,6,0,P|420:140|406:66,1,120.000004577637,14|0,0:0|0:0,0:0:0:0:
409,70,19336,6,0,L|302:81,1,88.000002685547,6|0,0:0|0:0,0:0:0:0:
216,67,19673,1,2,0:0:0:0:
282,5,19842,1,0,0:0:0:0:
272,145,20010,2,0,P|276:194|263:236,1,88.000002685547,2|0,0:0|0:0,0:0:0:0:
219,326,20347,1,2,0:0:0:0:
155,241,20516,1,0,0:0:0:0:
295,235,20684,6,0,L|392:228,1,88.000002685547,2|0,0:0|0:0,0:0:0:0:
399,333,21021,1,2,0:0:0:0:
294,318,21190,1,0,0:0:0:0:
385,211,21358,2,0,P|395:155|381:109,1,88.000002685547,2|0,0:0|0:0,0:0:0:0:
295,73,21695,1,2,0:0:0:0:
392,31,21864,1,0,0:0:0:0:
271,104,22033,6,0,L|164:99,1,88.000002685547,2|0,0:0|0:0,0:0:0:0:
84,61,22370,1,2,0:0:0:0:
180,18,22538,1,0,0:0:0:0:
114,142,22707,2,0,P|105:194|144:240,1,88.000002685547,2|0,0:0|0:0,0:0:0:0:
208,282,23044,1,0,0:0:0:0:
108,316,23212,1,0,0:0:0:0:
241,270,23381,6,0,P|300:257|444:284,2,176.000005371094,2|2|2,0:0|0:0|0:0,0:0:0:0:
321,339,24224,1,0,0:0:0:0:
372,160,24392,2,0,L|392:64,1,88.000002685547,2|0,0:0|0:0,0:0:0:0:
285,84,24729,6,0,P|250:42|204:24,1,88.000002685547,2|0,0:0|0:0,0:0:0:0:
97,98,25066,1,2,0:0:0:0:
132,20,25235,1,0,0:0:0:0:
171,145,25403,2,0,P|176:188|163:230,1,88.000002685547,2|0,0:0|0:0,0:0:0:0:
92,308,25740,1,2,0:0:0:0:
193,329,25909,1,0,0:0:0:0:
193,329,25993,1,0,0:0:0:0:
193,329,26077,6,0,L|310:322,1,88.000002685547,2|0,0:0|0:0,0:0:0:0:
301,169,26415,2,0,P|267:198|260:253,1,88.000002685547,2|0,0:0|0:0,0:0:0:0:
393,175,26752,2,0,L|406:79,1,88.000002685547,2|0,0:0|0:0,0:0:0:0:
351,242,27089,1,2,0:0:0:0:
218,131,27257,1,0,0:0:0:0:
218,131,27342,1,0,0:0:0:0:
218,131,27426,6,0,P|175:110|126:110,1,88.000002685547,2|0,0:0|0:0,0:0:0:0:
67,241,27763,2,0,P|119:231|141:175,1,88.000002685547,2|0,0:0|0:0,0:0:0:0:
251,111,28100,2,0,L|368:113,1,88.000002685547,2|0,0:0|0:0,0:0:0:0:
426,60,28437,1,2,0:0:0:0:
421,165,28606,1,0,0:0:0:0:
421,165,28690,1,0,0:0:0:0:
421,165,28774,6,0,P|426:218|410:260,1,88.000002685547,2|0,0:0|0:0,0:0:0:0:
273,337,29111,1,2,0:0:0:0:
376,330,29280,1,0,0:0:0:0:
287,238,29448,2,0,P|235:213|146:238,1,132.00000402832,2|0,0:0|0:0,0:0:0:0:
137,212,29785,2,0,L|125:122,1,88.000002685547,4|0,0:3|0:0,0:0:0:0:
200,20,30122,5,6,0:0:0:0:
214,130,30291,1,0,0:0:0:0:
121,39,30459,1,8,0:0:0:0:
286,75,30628,2,0,L|386:65,1,88.000002685547,2|0,0:0|0:0,0:0:0:0:
434,149,30965,1,2,0:0:0:0:
337,180,31134,2,0,P|341:228|340:288,1,88.000002685547,8|0,0:0|0:0,0:0:0:0:
234,356,31471,5,2,0:0:0:0:
256,244,31639,1,0,0:0:0:0:
341,350,31808,1,8,0:0:0:0:
152,300,31976,2,0,L|54:282,1,88.000002685547,2|0,0:0|0:0,0:0:0:0:
119,183,32313,2,0,P|146:140|145:88,1,88.000002685547,2|8,0:0|0:0,0:0:0:0:
92,28,32651,1,0,0:0:0:0:
226,171,32819,6,0,L|321:168,1,88.000002685547,2|0,0:0|0:0,0:0:0:0:
403,249,33156,1,8,0:0:0:0:
453,146,33325,2,0,P|472:86|465:48,1,88.000002685547,2|0,0:0|0:0,0:0:0:0:
355,10,33662,1,2,0:0:0:0:
272,71,33830,2,0,L|175:61,1,88.000002685547,8|0,0:0|0:0,0:0:0:0:
82,131,34167,6,0,P|69:179|83:218,1,88.000002685547,2|0,0:0|0:0,0:0:0:0:
262,277,34504,2,0,P|273:235|260:193,1,88.000002685547,8|2,0:0|0:0,0:0:0:0:
174,151,34842,1,0,0:0:0:0:
178,238,35010,1,2,0:0:0:0:
360,147,35179,2,0,L|508:132,1,132.00000402832,8|0,0:0|0:0,0:0:0:0:
288,84,35516,6,0,P|230:61|188:57,1,88.000002685547,6|0,0:0|0:0,0:0:0:0:
57,92,35853,1,10,0:0:0:0:
114,24,36021,1,2,0:0:0:0:
126,144,36190,2,0,L|126:251,1,88.000002685547
50,317,36527,2,0,P|37:253|48:211,1,88.000002685547,10|0,0:0|0:0,0:0:0:0:
190,360,36864,1,2,0:0:0:0:
105,374,37033,1,0,0:0:0:0:
222,264,37201,1,8,0:0:0:0:
222,264,37370,6,0,L|340:257,1,88.000002685547,2|0,0:0|0:0,0:0:0:0:
377,347,37707,1,0,0:0:0:0:
436,249,37875,2,0,P|447:203|438:157,1,88.000002685547,10|0,0:0|0:0,0:0:0:0:
321,48,38212,5,2,0:0:0:0:
331,161,38381,1,2,0:0:0:0:
423,58,38549,1,8,0:0:0:0:
254,100,38718,2,0,P|206:98|168:60,1,88.000002685547,2|0,0:0|0:0,0:0:0:0:
48,88,39055,1,2,0:0:0:0:
122,9,39224,1,8,0:0:0:0:
131,142,39392,6,0,P|146:232|94:308,1,176.000005371094,2|0,0:0|0:0,0:0:0:0:
218,357,39898,2,0,L|313:352,1,88.000002685547,10|0,0:0|0:0,0:0:0:0:
463,270,40235,1,2,0:0:0:0:
345,286,40403,1,0,0:0:0:0:
422,368,40572,1,8,0:0:0:0:
393,200,40740,6,4,P|408:144|336:47,1,176.000005371094,6|0,0:0|0:0,0:0:0:0:
250,118,41246,2,0,P|202:121|161:111,1,80,2|0,0:0|0:0,0:0:0:0:
70,77,41583,2,0,P|106:33|162:15,1,80,10|0,0:0|0:0,0:0:0:0:
246,24,41920,1,0,0:0:0:0:
106,188,42089,6,0,P|91:261|131:365,1,160,6|0,0:0|0:0,0:0:0:0:
231,358,42594,2,0,L|336:353,1,80,2|0,0:0|0:0,0:0:0:0:
420,229,42931,1,8,0:0:0:0:
304,250,43100,1,0,0:0:0:0:
418,325,43268,1,0,0:0:0:0:
355,178,43437,2,0,P|378:96|340:17,1,160,6|0,0:0|0:0,0:0:0:0:
174,66,43943,5,0,0:0:0:0:
267,162,44111,1,2,0:0:0:0:
280,41,44280,1,8,0:0:0:0:
177,162,44448,2,0,L|191:268,1,80
160,333,44785,2,0,P|202:291|328:289,1,160,6|0,0:0|0:0,0:0:0:0:
385,356,45291,1,0,0:0:0:0:
385,356,45628,6,0,L|402:191,1,160,6|0,0:0|0:0,0:0:0:0:
385,86,46134,2,0,P|340:128|303:134,1,80,6|0,0:0|0:0,0:0:0:0:
224,60,46471,1,0,0:0:0:0:
308,35,46639,1,0,0:0:0:0:
243,163,46808,1,0,0:0:0:0:
118,96,46976,2,0,L|27:83,1,80,10|0,0:0|0:0,0:0:0:0:
185,246,47313,1,0,0:0:0:0:
92,190,47482,6,0,P|77:243|129:342,1,160,6|0,0:0|0:0,0:0:0:0:
223,359,47988,2,0,L|334:352,1,80,2|0,0:0|0:0,0:0:0:0:
419,242,48325,1,8,0:0:0:0:
306,264,48493,1,0,0:0:0:0:
402,354,48662,1,0,0:0:0:0:
354,188,48830,6,0,L|370:85,1,80,6|0,0:0|0:0,0:0:0:0:
249,34,49167,1,0,0:0:0:0:
371,16,49336,1,0,0:0:0:0:
262,127,49504,2,0,L|156:114,1,80,0|8,0:0|0:0,0:0:0:0:
64,156,49842,1,0,0:0:0:0:
132,30,50010,1,0,0:0:0:0:
208,201,50179,6,0,L|198:307,1,80,6|0,0:0|0:0,0:0:0:0:
475,84,50516,1,0,0:0:0:0:
307,238,50684,1,0,0:0:0:0:
282,28,50853,1,0,0:0:0:0:
436,210,51021,2,0,P|453:270|429:322,1,107.999996704102
309,222,51358,2,0,L|450:202,1,107.999996704102,8|0,0:0|0:0,0:0:0:0:
327,315,51695,6,0,P|268:305|210:216,1,160,6|8,0:0|0:0,0:0:0:0:
228,24,52201,1,2,0:1:0:0:
303,139,52370,1,0,0:0:0:0:
120,59,52538,1,2,0:1:0:0:
150,229,52707,1,8,0:0:0:0:
59,157,52875,1,2,0:1:0:0:
200,98,53044,6,0,L|305:91,1,80,2|2,0:0|0:1,0:1:0:0:
374,38,53381,1,8,0:0:0:0:
492,171,53549,1,2,0:1:0:0:
342,150,53718,1,0,0:0:0:0:
469,32,53886,1,2,0:1:0:0:
417,241,54055,2,0,L|419:376,1,120,8|0,0:0|0:0,0:0:0:0:
316,249,54392,6,0,P|354:225|402:220,1,80,6|0,0:0|0:0,0:0:0:0:
255,320,54729,2,0,L|145:315,1,80,8|2,0:0|0:1,0:0:0:0:
12,276,55066,1,0,0:0:0:0:
100,351,55235,1,2,0:1:0:0:
143,137,55403,1,8,0:0:0:0:
181,223,55572,1,2,0:1:0:0:
29,189,55740,2,0,P|3:145|12:112,1,80,0|2,0:0|0:1,0:0:0:0:
94,49,56077,2,0,P|139:38|197:58,1,80,8|2,0:0|0:1,0:0:0:0:
321,166,56415,1,2,0:0:0:0:
228,118,56583,1,2,0:1:0:0:
352,34,56752,1,4,0:0:0:0:
415,166,56920,6,0,L|417:259,1,80,2|6,0:1|0:0,0:0:0:0:
346,335,57257,1,2,0:1:0:0:
282,247,57426,2,0,L|196:262,1,80,10|2,0:0|0:1,0:0:0:0:
109,316,57763,1,0,0:0:0:0:
197,175,57931,1,2,0:1:0:0:
249,353,58100,1,8,0:0:0:0:
95,193,58268,2,0,B|84:148|84:148|94:111,1,80,2|0,0:1|0:1,0:1:0:0:
183,7,58606,1,2,0:1:0:0:
62,42,58774,1,8,0:0:0:0:
223,97,58943,2,0,L|365:55,1,120,2|0,1:0|0:0,0:0:0:0:
303,173,59280,2,0,P|255:161|235:110,1,80,2|8,0:1|0:0,0:0:0:0:
438,156,59617,5,2,0:1:0:0:
438,156,59701,1,0,0:0:0:0:
438,156,59785,2,0,B|454:226|431:281|431:281|399:240,1,160,6|8,0:0|0:0,0:0:0:0:
323,335,60291,1,2,0:1:0:0:
257,251,60459,2,0,L|168:257,1,80,2|2,0:0|0:1,0:0:0:0:
38,231,60797,1,8,0:0:0:0:
112,326,60965,1,2,0:1:0:0:
149,164,61134,2,0,P|179:127|189:83,1,80,2|2,0:0|0:1,0:0:0:0:
43,27,61471,2,0,P|72:71|108:82,1,80,10|2,0:0|1:0,0:0:0:0:
241,210,61808,5,0,0:0:0:0:
246,229,61892,1,0,0:0:0:0:
249,248,61976,2,0,L|260:309,1,40,2|0,0:1|0:0,0:0:0:0:
354,373,62145,1,8,0:0:0:0:
349,349,62229,1,0,0:0:0:0:
342,329,62313,2,0,L|334:289,1,40,2|0,0:1|0:0,0:0:0:0:
395,205,62482,6,0,P|405:158|375:109,1,80,6|0,0:0|0:0,0:0:0:0:
314,36,62819,1,8,0:0:0:0:
185,217,62988,1,2,0:1:0:0:
160,19,63156,1,0,0:0:0:0:
295,151,63325,1,2,0:1:0:0:
101,111,63493,2,0,L|7:100,1,80,8|2,0:0|0:1,0:0:0:0:
185,217,63830,2,0,L|264:226,1,80,2|2,0:0|0:1,0:0:0:0:
431,255,64167,1,8,0:0:0:0:
304,329,64336,1,2,0:1:0:0:
341,171,64504,2,0,P|358:126|352:73,1,80,2|2,0:0|0:1,0:0:0:0:
297,11,64842,1,8,0:0:0:0:
230,119,65010,1,2,0:1:0:0:
433,109,65179,6,0,L|513:101,1,80,6|2,0:0|0:1,0:0:0:0:
472,195,65516,1,8,0:0:0:0:
370,280,65684,2,0,P|317:312|204:299,1,160,2|2,0:1|0:1,0:0:0:0:
112,347,66190,1,8,0:0:0:0:
96,236,66358,2,0,P|77:192|110:104,1,120,4|0,0:0|0:0,0:0:0:0:
217,199,66695,2,0,P|177:249|112:241,1,120,4|0,0:0|0:0,0:0:0:0:
123,110,67033,2,0,L|247:99,1,120,4|0,0:0|0:0,0:0:0:0:
287,99,67370,2,0,P|303:137|300:181,1,80,6|8,0:0|0:0,0:0:0:0:
421,95,67707,1,2,0:1:0:0:
421,95,67791,1,0,0:0:0:0:
421,95,67875,6,0,L|506:84,1,80,6|2,0:0|0:1,0:0:0:0:
411,262,68212,1,8,0:0:0:0:
373,184,68381,1,2,0:1:0:0:
476,342,68549,2,0,P|412:366|376:364,1,80,2|2,0:0|0:1,0:0:0:0:
316,275,68886,1,8,0:0:0:0:
227,336,69055,6,0,P|146:334|136:244,1,160,6|2,0:1|0:1,0:1:0:0:
204,92,69561,1,8,0:0:0:0:
96,160,69729,1,2,0:1:0:0:
223,215,69898,2,0,L|317:209,1,80,6|2,0:0|0:1,0:0:0:0:
360,113,70235,5,0,0:0:0:0:
390,87,70319,1,0,0:0:0:0:
428,78,70403,1,2,0:1:0:0:
467,88,70487,1,0,0:0:0:0:
491,103,70572,6,0,P|497:148|479:206,1,80,6|0,0:0|0:0,0:0:0:0:
378,301,70909,1,0,0:0:0:0:
489,277,71077,1,6,0:1:0:0:
359,202,71246,1,0,0:0:0:0:
285,326,71415,2,0,L|159:329,1,120,6|0,0:0|0:0,0:0:0:0:
134,320,71752,6,0,P|123:271|128:221,1,80,6|0,0:0|0:0,0:0:0:0:
228,146,72089,1,6,0:0:0:0:
206,237,72257,1,0,0:0:0:0:
121,135,72426,2,0,L|34:111,1,80,4|0,0:0|0:0,0:0:0:0:
191,35,72763,2,0,L|276:27,1,80,6|8,0:0|0:0,0:0:0:0:
327,139,73100,1,0,0:0:0:0:
327,139,73184,1,0,0:0:0:0:
327,139,73268,6,0,P|313:198|331:248,1,88.000002685547,6|2,0:0|0:1,0:0:0:0:
390,302,73606,1,8,0:0:0:0:
283,338,73774,2,0,L|171:330,1,88.000002685547,2|0,0:1|0:0,0:0:0:0:
67,239,74111,1,2,0:1:0:0:
94,351,74280,1,8,0:0:0:0:
187,218,74448,6,0,L|204:119,1,88.000002685547,6|0,0:1|0:0,0:0:0:0:
89,95,74785,1,2,0:1:0:0:
279,182,74954,2,0,P|328:164|356:140,1,88.000002685547,8|2,0:0|0:1,0:0:0:0:
434,34,75291,1,0,0:0:0:0:
336,59,75459,1,2,0:1:0:0:
444,140,75628,2,0,L|437:235,1,88.000002685547,8|2,0:0|0:1,0:0:0:0:
400,329,75965,2,0,P|363:302|363:382,1,176.000005371094,6|8,0:0|0:0,0:0:0:0:
211,327,76471,5,2,0:1:0:0:
211,327,76555,1,0,0:0:0:0:
211,327,76639,2,0,L|122:319,1,88.000002685547,2|2,0:0|0:1,0:0:0:0:
9,350,76976,1,8,0:0:0:0:
59,250,77145,2,0,P|45:189|65:134,1,88.000002685547,6|0,0:1|0:0,0:0:0:0:
156,105,77482,1,2,0:1:0:0:
75,61,77651,1,8,0:0:0:0:
163,202,77819,2,0,P|219:175|244:141,1,88.000002685547,2|0,0:1|0:0,0:0:0:0:
254,131,78072,5,0,0:0:0:0:
293,113,78156,1,2,0:1:0:0:
336,121,78240,1,0,0:0:0:0:
359,141,78325,2,0,L|367:209,1,44.0000013427735,8|0,0:0|0:0,0:0:0:0:
463,293,78493,2,2,L|457:249,1,44.0000013427735,2|0,0:1|0:1,0:1:0:0:
350,284,78662,6,0,L|233:278,1,88.000002685547,6|0,0:0|0:0,0:0:0:0:
186,353,78999,1,8,0:0:0:0:
85,284,79167,1,2,0:1:0:0:
85,284,79252,1,0,0:0:0:0:
85,284,79336,2,0,P|74:224|87:185,1,88.000002685547,2|2,0:0|0:1,0:0:0:0:
143,105,79673,1,8,0:0:0:0:
228,189,79842,6,0,L|350:189,1,88.000002685547,6|0,0:1|0:0,0:0:0:0:
486,230,80179,1,2,0:1:0:0:
398,141,80347,1,8,0:0:0:0:
415,282,80516,1,2,0:1:0:0:
485,105,80684,2,0,P|494:57|488:15,2,88.000002685547,0|2|8,0:0|0:1|0:0,0:0:0:0:
325,47,81190,6,0,B|265:43|265:43|213:63|213:63|148:61,1,176.000005371094,6|2,0:1|0:1,0:1:0:0:
55,138,81695,2,0,P|40:194|58:234,1,88.000002685547,10|2,0:0|0:1,0:0:0:0:
152,324,82033,1,0,0:0:0:0:
43,317,82201,1,2,0:1:0:0:
43,317,82285,1,0,0:0:0:0:
43,317,82370,1,8,0:0:0:0:
178,233,82538,6,0,L|272:230,1,88.000002685547,6|0,0:1|0:0,0:0:0:0:
346,320,82875,1,2,0:1:0:0:
406,228,83044,1,8,0:0:0:0:
426,189,83128,1,8,0:0:0:0:
433,146,83212,1,8,0:0:0:0:
426,102,83296,1,0,0:0:0:0:
406,64,83381,1,0,0:0:0:0:
367,84,83465,1,0,0:0:0:0:
323,91,83549,6,0,L|128:62,1,176.000005371094,6|0,0:0|0:0,0:0:0:0:
108,84,83971,1,2,0:0:0:0:
108,84,84055,1,2,0:0:0:0:
159,284,84224,1,0,0:0:0:0:
45,179,84392,1,8,0:0:0:0:
191,179,84561,1,0,0:0:0:0:
77,317,84729,1,8,0:0:0:0:
77,317,84898,2,0,L|219:305,1,120,8|0,0:0|0:0,0:0:0:0:
30,306,85235,5,4,0:0:0:0:
256,192,85319,12,0,88353,0:0:0:0:
