osu file format v14

[General]
AudioFilename: audio.mp3
AudioLeadIn: 0
PreviewTime: 0
Countdown: 0
SampleSet: Soft
StackLeniency: 0.4
Mode: 0
LetterboxInBreaks: 0
WidescreenStoryboard: 1

[Editor]
Bookmarks: 8549,19336,30122,40909,51695,62482,73268,84055
DistanceSpacing: 0.6
BeatDivisor: 4
GridSize: 16
TimelineZoom: 1

[Metadata]
Title:ambiguous (TV Size ver.)
TitleUnicode:ambiguous (TV Size ver.)
Artist:GARNiDELiA
ArtistUnicode:GARNiDELiA
Creator:_83
Version:Insane
Source:キルラキル
Tags:kill la kill Aeril bor opening Katou Yuu Trigger meg rock toku MARiA Matoi Ryuko Senketsu
BeatmapID:1368401
BeatmapSetID:645817

[Difficulty]
HPDrainRate:6
CircleSize:4
OverallDifficulty:8
ApproachRate:9
SliderMultiplier:1.7
SliderTickRate:1

[Events]
//Background and Video events
0,0,"thumb-1920-532401.jpg",0,0
//Break Periods
//Storyboard Layer 0 (Background)
//Storyboard Layer 1 (Fail)
//Storyboard Layer 2 (Pass)
//Storyboard Layer 3 (Foreground)
//Storyboard Sound Samples

[TimingPoints]
460,337.078651685393,4,2,0,40,1,0
460,-200,4,2,0,40,0,0
7875,-57.1428571428571,4,2,0,70,0,0
19336,-66.6666666666667,4,3,0,50,0,0
29785,-57.1428571428571,4,2,0,60,0,0
40740,-80,4,2,0,50,0,0
50347,-57.1428571428571,4,2,0,50,0,0
51358,-50,4,2,0,50,0,0
51695,-50,4,2,0,70,0,1
73268,-66.6666666666667,4,2,0,60,0,0
88353,-66.6666666666667,4,2,0,5,0,0

[Colours]
Combo1 : 128,128,255
Combo2 : 255,128,192
Combo3 : 128,128,192
Combo4 : 128,255,128

[HitObjects]
111,31,460,6,0,P|156:150|143:322,1,297.5,2|0,0:0|0:0,0:0:0:0:
52,351,1808,2,0,L|185:339,2,127.5,2|2|0,0:0|0:0|0:0,0:0:0:0:
19,278,3156,6,0,P|72:301|314:297,1,297.5,2|0,0:0|0:0,0:0:0:0:
343,217,4504,2,0,P|292:189|181:177,1,170,2|2,0:0|0:0,0:0:0:0:
432,352,5853,6,0,B|400:272|428:197|432:192|434:185|464:112|432:16,1,340,2|0,0:0|0:0,0:0:0:0:
414,32,8044,1,4,3:0:0:0:
252,98,8212,2,0,L|-18:62,1,223.125002127886,0|0,1:0|0:0,0:0:0:0:
33,26,8549,5,4,0:0:0:0:
57,164,8718,2,0,P|86:57|20:26,1,148.750001418591,4|0,3:0|1:0,0:0:0:0:
0,240,9055,2,0,L|205:252,1,148.750001418591,2|0,0:0|0:0,0:0:0:0:
278,300,9392,1,4,3:0:0:0:
158,384,9561,1,0,1:0:0:0:
142,216,9729,6,0,P|190:128|266:132,1,148.750001418591,4|0,0:0|0:0,0:0:0:0:
315,160,10066,1,4,3:0:0:0:
489,121,10235,2,0,L|307:145,1,148.750001418591,2|0,1:2|3:0,0:0:0:0:
256,102,10488,1,0,3:0:0:0:
250,79,10572,1,0,3:0:0:0:
385,34,10740,1,4,3:0:0:0:
462,166,10909,2,0,L|447:358,1,148.750001418591,0|0,1:0|0:0,0:0:0:0:
193,319,11246,6,0,P|230:243|310:251,1,148.750001418591,4|0,0:0|0:0,0:0:0:0:
341,380,11583,2,0,L|336:176,1,148.750001418591,0|0,1:0|3:0,0:0:0:0:
289,133,11836,1,0,3:0:0:0:
280,120,11920,1,4,3:0:0:0:
133,75,12089,2,0,P|194:130|272:106,1,148.750001418591,4|0,3:0|1:0,0:0:0:0:
113,1,12426,6,0,L|92:200,1,148.750001418591,4|0,0:0|0:0,0:0:0:0:
131,312,12763,1,4,3:0:0:0:
221,214,12931,1,0,1:0:0:0:
124,124,13100,1,0,0:0:0:0:
208,230,13268,1,2,0:0:0:0:
145,330,13437,1,4,3:0:0:0:
321,286,13606,1,4,3:0:0:0:
363,284,13690,1,8,3:0:0:0:
401,301,13774,1,8,3:0:0:0:
428,333,13858,1,0,1:0:0:0:
438,374,13943,5,4,0:0:0:0:
273,365,14111,2,0,L|306:167,1,148.750001418591,0|0,0:0|1:0,0:0:0:0:
433,111,14448,1,0,3:0:0:0:
433,111,14533,1,0,3:0:0:0:
433,111,14617,2,0,P|375:187|280:188,1,148.750001418591,6|4,3:0|3:0,0:0:0:0:
239,88,14954,1,0,1:0:0:0:
176,244,15122,6,0,P|227:139|198:76,1,148.750001418591,4|0,0:0|0:0,0:0:0:0:
62,93,15459,1,4,3:0:0:0:
170,0,15628,2,0,L|350:20,1,148.750001418591,0|0,1:0|3:0,0:0:0:0:
444,78,15881,1,0,3:0:0:0:
422,92,15965,1,4,3:0:0:0:
297,149,16134,1,0,0:0:0:0:
339,289,16302,2,0,P|260:306|248:375,1,148.750001418591,0|0,1:0|0:0,0:0:0:0:
459,384,16639,6,0,L|418:212,1,148.750001418591,4|0,0:0|0:0,0:0:0:0:
441,94,16976,1,0,1:0:0:0:
307,31,17145,1,0,3:0:0:0:
307,31,17229,1,0,3:0:0:0:
307,31,17313,2,0,P|326:101|230:147,1,148.750001418591,4|0,3:0|0:0,0:0:0:0:
134,165,17651,1,0,1:0:0:0:
196,2,17819,6,0,L|172:191,1,148.750001418591,6|0,0:0|0:0,0:0:0:0:
197,293,18156,1,2,0:0:0:0:
40,309,18325,1,2,1:2:0:0:
134,165,18493,1,2,0:0:0:0:
291,149,18662,1,2,0:0:0:0:
201,21,18830,1,2,0:0:0:0:
509,367,19336,6,0,P|480:318|405:316,3,127.500004863739,4|0|4|0,3:0|3:0|3:0|3:0,3:0:0:0:
322,383,20010,2,0,L|165:374,1,127.500004863739,2|0,0:2|0:0,0:0:0:0:
87,297,20347,1,4,0:0:0:0:
11,384,20516,6,0,P|27:295|86:272,2,127.500004863739,2|4|0,0:2|0:0|0:0,0:0:0:0:
165,368,21021,1,2,0:2:0:0:
174,228,21190,2,0,L|162:97,2,127.500004863739,2|4|0,0:2|0:0|0:0,0:0:0:0:
34,254,21695,1,2,0:2:0:0:
28,124,21864,6,0,P|49:74|-28:35,1,127.500004863739,2|4,0:2|0:0,0:0:0:0:
146,0,22201,2,0,L|292:16,4,127.500004863739,2|4|0|4|0,0:2|0:0|0:0|0:0|0:0,0:0:0:0:
13,0,23044,1,2,0:2:0:0:
54,110,23212,1,2,0:2:0:0:
181,111,23381,6,0,P|217:152|198:231,1,127.500004863739,2|0,0:2|0:0,0:0:0:0:
120,368,23718,2,0,P|84:327|103:248,1,127.500004863739,2|0,0:2|0:0,0:0:0:0:
237,357,24055,2,0,L|382:369,1,127.500004863739,2|0,0:2|0:0,0:0:0:0:
442,241,24392,2,0,L|314:230,1,127.500004863739,2|0,0:2|0:0,0:0:0:0:
307,92,24729,6,0,P|270:154|301:231,2,127.500004863739,2|0|4,0:2|0:0|0:0,0:0:0:0:
385,15,25235,2,0,L|523:3,3,127.500004863739,2|4|0|4,0:2|0:0|0:0|0:0,0:0:0:0:
499,123,25909,1,0,3:0:0:0:
499,123,25993,1,0,3:0:0:0:
499,123,26077,6,0,P|467:192|503:227,5,127.500004863739,4|0|4|0|4|0,0:0|0:0|0:0|0:0|0:0|0:0,0:0:0:0:
497,348,27089,1,2,0:2:0:0:
375,348,27257,1,0,0:0:0:0:
375,348,27342,1,0,0:0:0:0:
375,348,27426,6,0,L|369:208,1,127.500004863739,2|0,0:2|0:0,0:0:0:0:
305,63,27763,2,0,P|274:112|316:179,3,127.500004863739,2|0|4|0,0:2|0:0|0:0|0:0,0:0:0:0:
425,162,28437,1,2,0:2:0:0:
285,54,28606,1,0,0:0:0:0:
272,58,28690,1,0,0:0:0:0:
259,62,28774,6,0,L|124:44,1,127.500004863739,4|0,0:0|0:0,0:0:0:0:
9,153,29111,2,0,L|135:169,1,127.500004863739,4|0,0:0|0:0,0:0:0:0:
176,339,29448,2,0,P|218:287|205:220,1,127.500004863739,4|0,0:0|0:0,0:0:0:0:
0,355,29785,2,0,B|67:334|67:334|245:362,1,223.125002127886,4|0,3:0|0:0,0:0:0:0:
246,377,30122,6,0,L|424:349,1,148.750001418591,2|0,0:0|0:0,0:0:0:0:
512,254,30459,2,0,L|334:226,1,148.750001418591,0|0,1:0|0:0,0:0:0:0:
263,248,30712,1,0,3:0:0:0:
241,264,30797,2,0,P|249:218|240:174,2,74.3750007092953,0|0|0,3:0|3:0|3:0,3:0:0:0:
346,124,31134,1,0,1:0:0:0:
483,154,31302,1,0,3:0:0:0:
483,154,31386,1,0,3:0:0:0:
483,154,31471,6,0,P|487:53|445:42,1,148.750001418591,4|0,0:3|0:0,0:0:0:0:
327,24,31808,1,0,1:0:0:0:
320,163,31976,1,0,3:0:0:0:
320,163,32061,1,0,3:0:0:0:
320,163,32145,2,0,P|333:198|332:247,2,74.3750007092953,0|0|4,0:3|0:3|0:3,0:3:0:0:
183,154,32482,1,0,1:0:0:0:
213,279,32651,6,0,L|203:104,1,148.750001418591,2|4,0:0|0:3,0:0:0:0:
73,72,32988,2,0,L|81:220,1,148.750001418591,2|0,0:0|1:0,0:0:0:0:
196,303,33325,1,0,3:0:0:0:
196,303,33409,1,0,3:0:0:0:
196,303,33493,2,0,L|285:326,2,74.3750007092953,0|0|4,3:0|3:0|3:0,3:0:0:0:
77,383,33830,1,2,1:2:0:0:
53,231,33999,1,2,0:0:0:0:
185,155,34167,6,0,P|226:84|195:26,1,148.750001418591,4|0,3:0|0:0,0:0:0:0:
70,13,34504,2,0,P|29:71|55:138,1,148.750001418591,0|0,1:0|0:0,0:0:0:0:
193,162,34842,1,0,3:0:0:0:
193,162,34926,1,0,3:0:0:0:
193,162,35010,1,4,3:0:0:0:
364,167,35179,2,0,L|216:187,1,148.750001418591,2|0,1:3|0:0,0:0:0:0:
151,311,35516,6,0,P|216:283|243:215,1,148.750001418591,4|0,0:0|0:0,0:0:0:0:
377,281,35853,1,0,1:0:0:0:
484,256,36021,1,0,0:0:0:0:
460,148,36190,2,0,P|456:105|474:46,2,74.3750007092953,0|0|4,3:0|3:0|3:0,3:0:0:0:
488,260,36527,1,2,1:2:0:0:
381,285,36695,1,2,0:0:0:0:
298,200,36864,5,4,3:0:0:0:
191,175,37032,1,2,0:0:0:0:
191,175,37201,1,0,1:0:0:0:
100,82,37370,1,0,3:0:0:0:
100,82,37454,1,0,3:0:0:0:
100,82,37538,2,0,P|59:142|104:191,1,148.750001418591,0|4,3:0|3:0,0:0:0:0:
217,200,37875,1,2,1:2:0:0:
228,85,38044,1,2,0:0:0:0:
350,8,38212,6,0,L|331:163,1,148.750001418591,4|0,0:3|0:0,0:0:0:0:
502,210,38549,2,0,P|465:120|369:131,1,148.750001418591,0|0,1:0|0:0,0:0:0:0:
353,248,38886,1,0,3:0:0:0:
353,248,38971,1,0,3:0:0:0:
353,248,39055,1,4,3:0:0:0:
424,190,39224,1,2,1:2:0:0:
500,305,39392,6,0,B|429:288|429:288|197:304,1,297.500002837181,2|0,0:0|0:0,0:0:0:0:
79,365,39898,2,0,P|155:347|169:280,1,148.750001418591,0|0,1:0|0:0,0:0:0:0:
80,205,40235,1,0,3:0:0:0:
80,205,40319,1,0,3:0:0:0:
80,205,40403,1,4,3:0:0:0:
30,124,40572,1,0,1:0:0:0:
101,21,40740,6,0,L|107:251,1,212.5,4|0,0:1|0:0,0:0:0:0:
263,236,41246,2,0,P|238:179|175:164,1,106.25,4|4,3:0|3:0,0:0:0:0:
73,206,41583,1,0,1:0:0:0:
296,369,41920,1,2,0:0:0:0:
317,279,42089,2,0,L|324:35,1,212.5,2|0,0:0|0:0,0:0:0:0:
459,56,42594,2,0,P|378:120|285:64,1,212.5,4|0,3:0|1:0,0:0:0:0:
66,26,43268,1,2,0:0:0:0:
148,19,43437,6,0,P|185:71|74:139,1,212.5,4|0,0:2|0:0,0:0:0:0:
0,291,43943,2,0,L|20:183,1,106.25,2|4,0:0|3:0,0:0:0:0:
149,270,44280,2,0,L|136:155,2,106.25,2|0|2,1:2|0:0|0:0,0:0:0:0:
202,365,44785,2,0,P|204:264|311:240,1,212.5,4|0,0:0|0:0,0:0:0:0:
355,312,45291,2,0,L|503:328,1,106.25,4|0,3:0|0:0,0:0:0:0:
493,357,45628,2,0,L|464:139,1,212.5,2|0,1:2|0:0,0:0:0:0:
495,11,46134,6,0,P|529:70|412:123,1,212.5,4|0,0:0|0:0,0:0:0:0:
315,93,46639,2,0,P|301:32|353:-11,1,106.25,2|4,0:0|3:0,0:0:0:0:
402,146,46976,2,0,L|379:273,2,106.25,0|0|2,1:0|0:0|0:0,0:0:0:0:
356,8,47482,2,0,L|216:19,1,106.25,6|0,0:0|0:0,0:0:0:0:
150,48,47819,2,0,L|10:37,1,106.25,2|4,0:0|3:0,0:0:0:0:
16,142,48156,2,0,L|156:131,1,106.25,2|0,0:0|1:0,0:0:0:0:
222,102,48493,2,0,L|362:113,1,106.25,2|0,0:0|0:0,0:0:0:0:
445,56,48830,6,0,P|377:62|396:182,1,212.5,4|0,0:0|0:0,0:0:0:0:
491,181,49336,1,4,3:0:0:0:
491,181,49504,1,4,3:0:0:0:
497,282,49673,2,0,P|522:327|491:395,1,106.25,8|0,1:3|0:0,0:0:0:0:
387,379,50010,1,0,0:0:0:0:
471,268,50179,1,6,0:0:0:0:
214,363,50516,5,0,3:0:0:0:
35,313,50684,1,0,3:0:0:0:
85,134,50853,1,0,3:0:0:0:
264,184,51021,2,0,P|238:273|175:255,1,148.750001418591,0|0,1:0|0:0,0:0:0:0:
12,280,51358,6,0,B|62:217|62:217|235:250,1,255,8|0,1:0|0:0,0:0:0:0:
272,277,51695,6,0,P|314:199|239:147,1,170,4|0,0:1|0:0,0:0:0:0:
127,198,52033,1,2,1:2:0:0:
124,12,52201,2,0,L|96:179,1,170,2|4,0:0|3:0,0:0:0:0:
343,167,52538,2,0,L|315:0,1,170,2|4,0:0|3:3,0:0:0:0:
167,0,52875,6,0,P|231:62|313:31,1,170,2|4,0:0|3:0,0:0:0:0:
465,28,53212,2,0,P|387:9|329:71,1,170,2|0,0:0|1:0,0:0:0:0:
447,252,53549,6,0,L|409:87,1,170,2|4,0:0|3:0,0:0:0:0:
167,0,53886,2,0,L|128:165,1,170,2|4,0:0|3:0,0:0:0:0:
163,337,54224,1,0,0:0:0:0:
24,381,54392,6,0,P|44:320|170:360,1,170,6|0,0:0|0:0,0:0:0:0:
298,384,54729,1,0,1:0:0:0:
359,275,54898,2,0,L|337:101,1,170,2|4,0:0|3:0,0:0:0:0:
184,168,55235,2,0,L|162:336,1,170,2|0,0:0|1:0,0:0:0:0:
61,309,55572,6,0,P|140:266|137:155,1,170,2|4,0:0|3:0,0:0:0:0:
66,108,55909,1,2,3:0:0:0:
66,108,56077,1,4,3:0:0:0:
154,22,56246,2,0,L|342:43,1,170,2|4,0:0|3:0,0:0:0:0:
459,116,56499,1,0,3:0:0:0:
489,94,56583,5,2,3:0:0:0:
489,94,56752,2,0,L|283:118,1,170,4|2,1:2|0:0,0:0:0:0:
247,267,57089,6,0,P|310:190|248:101,1,170,4|0,3:0|0:0,0:0:0:0:
230,33,57426,1,0,1:0:0:0:
230,33,57594,1,2,0:0:0:0:
90,143,57763,2,0,L|268:148,2,170,2|2|4,0:0|3:0|3:0,0:0:0:0:
46,299,58268,6,0,P|126:209|88:141,2,170,2|4|2,0:0|3:0|3:0,0:0:0:0:
157,384,58774,1,4,3:0:0:0:
227,282,58943,1,2,0:0:0:0:
227,282,59027,1,2,0:0:0:0:
227,282,59111,5,6,3:0:0:0:
97,196,59280,1,2,0:0:0:0:
132,368,59448,1,2,0:0:0:0:
310,309,59617,1,2,0:0:0:0:
483,382,59785,6,0,P|425:273|352:308,1,170,6|2,0:0|3:0,0:0:0:0:
284,324,60122,1,0,1:0:0:0:
203,192,60291,2,0,P|240:235|228:371,1,170,2|4,0:0|3:0,0:0:0:0:
72,261,60628,2,0,P|91:204|149:166,1,85,2|0,0:0|0:0,0:0:0:0:
222,173,60797,1,0,1:0:0:0:
483,116,60965,6,0,L|272:136,1,170,2|4,0:0|3:0,0:0:0:0:
185,0,61302,1,0,1:0:0:0:
401,45,61471,1,0,1:0:0:0:
512,0,61639,1,2,0:0:0:0:
494,215,61808,6,0,P|468:149|364:128,1,170,4|0,3:0|3:0,0:0:0:0:
372,259,62061,1,0,3:0:0:0:
400,216,62145,1,0,3:0:0:0:
373,172,62229,1,0,3:0:0:0:
352,125,62313,1,0,1:0:0:0:
361,74,62398,1,0,1:0:0:0:
391,33,62482,6,0,P|318:120|253:108,1,170,4|0,1:0|0:0,0:0:0:0:
161,27,62819,1,0,1:0:0:0:
194,184,62988,2,0,L|162:373,1,170,2|4,0:0|3:0,0:0:0:0:
340,358,63325,2,0,P|279:268|160:284,1,170,2|0,0:0|1:0,0:0:0:0:
21,349,63662,6,0,L|218:334,1,170,2|4,0:0|3:0,0:0:0:0:
299,254,63999,2,0,L|496:239,1,170,2|4,0:0|3:0,0:0:0:0:
493,66,64336,6,0,P|451:118|461:252,1,170,2|4,0:0|3:0,0:0:0:0:
276,384,64673,2,0,P|318:332|308:198,1,170,2|0,0:0|1:0,0:0:0:0:
221,142,65010,1,2,3:0:0:0:
344,13,65179,6,0,L|529:36,1,170,6|0,0:0|0:0,0:0:0:0:
326,105,65516,1,0,1:0:0:0:
179,53,65684,2,0,L|-43:70,1,170,2|4,0:0|3:0,0:0:0:0:
231,127,66021,2,0,P|255:172|243:241,1,85,2|2,0:0|3:0,0:0:0:0:
170,311,66190,1,0,1:0:0:0:
170,311,66358,6,0,L|199:143,1,170,6|0,0:0|0:0,0:0:0:0:
402,23,66695,2,0,L|420:129,1,85,4|2,3:0|3:0,0:0:0:0:
436,217,66864,1,0,1:0:0:0:
141,292,67033,6,0,L|170:124,1,170,6|0,0:0|0:0,0:0:0:0:
431,4,67370,2,0,L|454:139,1,85,4|2,3:0|3:0,0:0:0:0:
475,240,67538,1,0,1:0:0:0:
257,319,67707,1,8,3:0:0:0:
257,319,67791,1,4,3:0:0:0:
257,319,67875,6,0,P|260:236|338:218,1,170,4|0,0:0|0:0,0:0:0:0:
450,327,68212,2,0,L|265:339,1,170,4|0,3:0|3:0,0:0:0:0:
148,364,68465,1,0,3:0:0:0:
119,384,68549,1,0,1:0:0:0:
119,384,68718,1,4,3:0:0:0:
172,227,68886,1,2,1:2:0:0:
32,191,69055,6,0,P|96:269|168:213,1,170,6|0,0:0|0:0,0:0:0:0:
230,120,69392,1,4,3:0:0:0:
230,120,69476,1,4,3:0:0:0:
230,120,69561,1,0,1:0:0:0:
83,46,69729,1,2,3:0:0:0:
130,28,69813,1,2,3:0:0:0:
178,11,69898,5,2,1:0:0:0:
129,177,70066,1,8,3:0:0:0:
294,191,70235,1,0,1:0:0:0:
341,174,70319,1,0,1:0:0:0:
374,135,70403,1,8,3:0:0:0:
376,83,70488,1,8,3:0:0:0:
345,42,70572,5,4,0:1:0:0:
323,219,70740,1,2,0:0:0:0:
499,231,70908,1,2,0:0:0:0:
512,55,71077,1,6,0:0:0:0:
512,55,71415,1,6,0:0:0:0:
408,211,71583,1,0,1:0:0:0:
397,364,71752,6,0,P|423:263|363:229,1,170,2|0,0:2|0:0,0:0:0:0:
255,299,72089,2,0,L|69:310,1,170,6|0,0:0|0:0,0:0:0:0:
0,160,72426,2,0,L|169:149,1,170,6|0,0:0|0:0,0:0:0:0:
281,0,72763,6,0,P|303:51|272:99,1,85,6|2,0:0|3:0,0:0:0:0:
264,106,72931,2,0,L|284:303,1,170,8|0,1:0|0:0,0:0:0:0:
481,289,73268,5,6,0:0:0:0:
348,227,73437,1,2,0:0:0:0:
336,78,73606,1,4,3:0:0:0:
201,45,73774,1,0,3:0:0:0:
201,45,73858,1,0,3:0:0:0:
201,45,73943,1,0,1:0:0:0:
140,155,74111,2,0,P|180:84|148:46,1,127.500004863739,4|0,3:0|1:0,0:0:0:0:
32,44,74448,6,0,L|55:320,1,255.000009727478,4|4,0:0|3:0,0:0:0:0:
177,365,74954,2,0,P|217:312|279:318,1,127.500004863739,0|0,1:0|3:0,0:0:0:0:
359,356,75207,1,0,3:0:0:0:
375,384,75291,1,4,3:0:0:0:
447,300,75459,1,4,3:0:0:0:
341,228,75628,2,0,P|343:152|394:127,1,127.500004863739,0|0,1:0|0:0,0:0:0:0:
512,145,75965,6,0,L|326:161,1,127.500004863739,4|2,0:0|0:0,0:0:0:0:
221,170,76302,1,0,1:2:0:0:
289,38,76471,1,0,3:0:0:0:
289,38,76555,1,0,3:0:0:0:
289,38,76639,1,0,1:0:0:0:
308,218,76808,2,0,P|277:269|189:281,1,127.500004863739,4|0,3:0|1:0,0:0:0:0:
61,255,77145,6,0,B|150:256|150:256|311:301,1,255.000009727478,4|4,0:1|3:0,0:0:0:0:
415,372,77566,1,4,3:0:0:0:
438,384,77651,2,0,P|447:296|424:267,1,127.500004863739,0|0,1:0|0:0,0:0:0:0:
294,271,77988,5,2,0:0:0:0:
453,197,78156,1,0,1:0:0:0:
415,203,78240,1,0,1:0:0:0:
377,209,78325,1,8,3:0:0:0:
339,216,78409,1,8,3:0:0:0:
301,223,78493,1,4,3:0:0:0:
263,230,78577,1,4,3:0:0:0:
225,237,78662,6,0,P|192:174|234:107,1,127.500004863739,4|0,1:0|0:0,0:0:0:0:
348,103,78999,1,0,1:0:0:0:
409,1,79167,2,0,L|370:157,1,127.500004863739,2|4,0:0|3:0,0:0:0:0:
226,147,79504,1,4,3:0:0:0:
291,12,79673,1,0,1:0:0:0:
126,23,79842,6,0,L|-23:37,1,127.500004863739,4|0,0:0|0:0,0:0:0:0:
16,183,80179,1,4,3:0:0:0:
164,129,80347,2,0,P|185:184|130:240,1,127.500004863739,0|0,1:0|0:0,0:0:0:0:
25,281,80600,1,2,3:0:0:0:
0,299,80684,2,0,L|161:322,1,127.500004863739,2|4,2:0|3:0,0:0:0:0:
272,338,81021,1,0,1:0:0:0:
240,199,81190,1,0,3:0:0:0:
240,199,81274,1,0,3:0:0:0:
240,199,81358,6,0,P|213:257|245:332,1,127.500004863739,4|4,0:0|3:0,0:0:0:0:
378,360,81695,1,0,1:0:0:0:
361,223,81864,1,0,3:0:0:0:
361,223,81948,1,0,3:0:0:0:
361,223,82033,1,4,3:0:0:0:
500,172,82201,2,0,P|512:99|476:48,1,127.500004863739,4|0,3:0|1:0,0:0:0:0:
309,0,82538,6,0,L|331:271,1,255.000009727478,4|0,0:0|1:0,0:0:0:0:
217,337,83044,1,0,1:0:0:0:
218,298,83128,1,0,1:0:0:0:
234,263,83212,1,8,3:0:0:0:
266,241,83297,1,8,3:0:0:0:
303,234,83381,1,4,3:0:0:0:
311,328,83549,6,2,B|235:355|235:355|45:305,1,255.000009727478,2|4,1:0|3:0,0:1:0:0:
17,214,83971,1,4,3:0:0:0:
54,199,84055,5,4,3:0:0:0:
242,254,84225,1,0,1:0:0:0:
190,52,84393,1,0,1:0:0:0:
137,124,84561,1,4,3:0:0:0:
344,216,84730,1,0,1:0:0:0:
292,14,84898,1,0,1:0:0:0:
69,345,85235,5,4,0:1:0:0:
256,192,85319,12,0,88353,0:0:0:0:
