osu file format v14

[General]
AudioFilename: audio.mp3
AudioLeadIn: 0
PreviewTime: 0
Countdown: 0
SampleSet: None
StackLeniency: 0.4
Mode: 0
LetterboxInBreaks: 0
WidescreenStoryboard: 1

[Editor]
Bookmarks: 8549,19336,30122,40909,51695,62482,73268,84055
DistanceSpacing: 1.2
BeatDivisor: 4
GridSize: 16
TimelineZoom: 1

[Metadata]
Title:ambiguous (TV Size ver.)
TitleUnicode:ambiguous (TV Size ver.)
Artist:GARNiDELiA
ArtistUnicode:GARNiDELiA
Creator:_83
Version:Hard
Source:キルラキル
Tags:kill la kill Aeril bor opening Katou Yuu Trigger meg rock toku MARiA Matoi Ryuko Senketsu
BeatmapID:1368458
BeatmapSetID:645817

[Difficulty]
HPDrainRate:4.5
CircleSize:4
OverallDifficulty:7
ApproachRate:8
SliderMultiplier:1.4
SliderTickRate:1

[Events]
//Background and Video events
0,0,"thumb-1920-532401.jpg",0,0
//Break Periods
//Storyboard Layer 0 (Background)
//Storyboard Layer 1 (Fail)
//Storyboard Layer 2 (Pass)
//Storyboard Layer 3 (Foreground)
//Storyboard Sound Samples

[TimingPoints]
460,337.078651685393,4,2,0,40,1,0
460,-133.333333333333,4,2,0,40,0,0
7201,-117.647058823529,4,2,0,40,0,0
7875,-100,4,2,0,70,0,0
19336,-100,4,3,0,50,0,0
29785,-100,4,2,0,60,0,0
40740,-133.333333333333,4,2,0,50,0,0
50347,-100,4,2,0,50,0,0
51358,-100,4,2,0,50,0,0
51695,-83.3333333333333,4,2,0,70,0,1
73268,-83.3333333333333,4,2,0,60,0,0
88353,-100,4,2,0,5,0,0

[Colours]
Combo1 : 128,128,255
Combo2 : 255,128,192
Combo3 : 128,128,192
Combo4 : 128,255,128

[HitObjects]
82,61,460,6,0,B|114:113|75:166|75:166|40:223|69:288|150:285|163:223,1,315.000012016297,2|0,0:0|0:0,0:0:0:0:
210,139,1808,2,0,P|195:197|275:219,2,157.500006008148,2|2|0,0:0|0:0|0:0,0:0:0:0:
267,69,3156,6,0,L|494:108,1,210.000008010865,2|0,0:0|0:0,0:0:0:0:
512,275,4504,2,0,L|285:314,1,210.000008010865,2|2,0:0|0:0,0:0:0:0:
237,379,5516,1,0,0:0:0:0:
160,315,5853,6,0,P|97:194|66:364,1,420.000016021729,2|0,0:0|0:0,0:0:0:0:
57,362,8044,1,4,3:0:0:0:
106,283,8212,2,0,L|114:183,1,70,0|0,1:0|0:0,0:0:0:0:
70,135,8549,6,0,L|-6:144,2,70,4|4|0,0:0|3:0|1:0,0:0:0:0:
140,79,9055,2,0,L|237:97,1,70,2|0,0:0|0:0,0:0:0:0:
296,86,9392,1,4,3:0:0:0:
358,154,9561,1,0,1:0:0:0:
358,154,9729,6,0,L|386:8,1,140,4|4,0:0|3:0,0:0:0:0:
467,52,10235,2,0,L|479:141,1,70,2|0,1:2|3:0,0:0:0:0:
439,202,10572,2,0,L|473:209,2,35,0|0|4,3:0|0:0|3:0,0:0:0:0:
378,139,10909,1,0,1:0:0:0:
480,292,11246,6,0,L|379:308,1,70,4|0,0:0|0:0,0:0:0:0:
333,263,11583,1,0,1:0:0:0:
268,326,11752,2,0,L|277:365,2,35,0|0|4,3:0|3:0|3:0,0:0:0:0:
192,277,12089,2,0,L|174:357,1,70,4|0,3:0|1:0,0:0:0:0:
90,358,12426,6,0,P|97:314|21:275,1,140,4|4,0:0|3:0,0:0:0:0:
11,185,12931,2,0,L|109:198,1,70,0|0,1:0|0:0,0:0:0:0:
168,153,13268,2,0,L|237:143,1,70,2|4,0:0|3:0,0:0:0:0:
297,88,13606,2,0,L|286:46,3,35,4|8|8|0,3:0|3:0|3:0|1:0,0:0:0:0:
309,32,13943,6,0,L|401:44,2,70,4|0|0,0:0|0:0|1:0,0:0:0:0:
225,0,14448,2,0,L|130:17,1,70,0|6,3:0|3:0,0:0:0:0:
67,10,14785,1,4,3:0:0:0:
19,85,14954,1,0,1:0:0:0:
19,85,15122,6,0,L|159:107,1,140,4|4,0:0|3:0,0:0:0:0:
197,184,15628,2,0,L|122:187,1,70,0|0,1:0|3:0,0:0:0:0:
60,239,15965,2,0,L|14:229,2,35,4|0|0,3:0|0:0|0:0,0:0:0:0:
110,309,16302,1,0,1:0:0:0:
277,370,16639,6,0,P|272:311|344:272,1,140,4|0,0:0|1:0,0:0:0:0:
412,314,17145,2,0,L|407:358,2,35,0|0|4,3:0|3:0|3:0,0:0:0:0:
455,237,17482,2,0,L|451:165,1,70,0|0,0:0|1:0,0:0:0:0:
508,100,17819,1,6,0:0:0:0:
354,9,18156,5,2,0:0:0:0:
354,9,18325,1,2,1:2:0:0:
315,94,18493,2,0,L|323:178,2,70,2|2|2,0:0|0:0|0:0,0:0:0:0:
55,35,19336,6,0,P|130:38|194:82,1,140,4|4,3:0|3:0,0:0:0:0:
187,244,20010,2,0,P|111:240|48:197,1,140,2|4,0:2|0:0,0:0:0:0:
44,118,20516,1,2,0:2:0:0:
92,194,20684,6,0,P|100:267|75:334,1,140,4|2,0:0|0:2,0:0:0:0:
0,365,21190,2,0,L|157:361,1,140,2|0,0:2|0:0,0:0:0:0:
219,320,21695,1,2,0:2:0:0:
219,320,21864,6,0,L|300:331,1,70,2|4,0:2|0:0,0:0:0:0:
366,370,22201,2,0,L|435:360,1,70,2|4,0:2|0:0,0:0:0:0:
435,359,22707,1,4,0:0:0:0:
498,187,23044,2,0,P|493:222|462:273,1,70,2|2,0:2|0:2,0:0:0:0:
389,257,23381,6,0,P|403:192|483:181,1,140,2|2,0:2|0:2,0:0:0:0:
510,0,24055,2,0,P|474:64|399:89,1,140,2|2,0:2|0:2,0:0:0:0:
343,42,24561,1,0,0:0:0:0:
343,42,24729,6,0,L|204:56,1,140,2|4,0:2|0:0,0:0:0:0:
125,25,25235,1,2,0:0:0:0:
41,17,25403,2,0,L|75:162,1,140,0|4,0:2|3:0,0:0:0:0:
0,187,25909,1,0,3:0:0:0:
0,187,25993,1,0,3:0:0:0:
0,187,26077,6,0,L|150:199,1,140,4|4,0:0|0:0,0:0:0:0:
139,198,26752,1,4,0:0:0:0:
204,256,26920,2,0,L|250:248,2,35,0|0|2,0:0|0:0|0:2,0:0:0:0:
159,335,27257,1,0,0:0:0:0:
159,335,27342,1,0,0:0:0:0:
159,335,27426,6,0,L|301:358,1,140,2|2,0:2|0:2,0:0:0:0:
463,300,28100,2,0,P|465:240|381:210,1,140,4|2,0:0|0:2,0:0:0:0:
312,206,28606,2,0,L|320:154,1,35,0|0,0:0|0:0,0:0:0:0:
306,151,28774,6,0,P|348:121|336:39,1,140,4|4,0:0|0:0,0:0:0:0:
161,11,29448,2,0,L|142:175,1,140,4|4,0:0|3:0,0:0:0:0:
332,196,30122,6,0,L|486:179,1,140,2|0,0:0|1:0,0:0:0:0:
512,262,30628,2,0,L|499:305,1,35,0|0,0:0|3:0,0:0:0:0:
484,306,30797,2,0,L|326:296,1,140,0|0,3:0|1:0,0:0:0:0:
268,343,31302,1,0,3:0:0:0:
198,287,31471,6,0,P|149:275|108:357,1,140,4|0,0:3|1:0,0:0:0:0:
10,350,31976,2,0,L|45:208,1,140,0|4,3:0|0:3,0:0:0:0:
29,126,32482,1,0,1:0:0:0:
92,64,32651,6,0,P|140:75|170:94,1,70,2|4,0:0|0:3,0:0:0:0:
208,160,32988,2,0,P|239:174|273:181,1,70,2|0,0:0|1:0,0:0:0:0:
457,97,33493,1,0,3:0:0:0:
499,284,33830,2,0,P|483:246|457:217,1,70,2|2,1:2|0:0,0:0:0:0:
386,258,34167,6,0,L|240:273,1,140,4|0,3:0|1:0,0:0:0:0:
175,327,34673,1,0,0:0:0:0:
88,298,34842,2,0,L|94:343,2,35,0|0|4,3:0|3:0|3:0,0:0:0:0:
37,231,35179,2,0,P|51:166|70:147,1,70,2|0,1:3|0:0,0:0:0:0:
125,109,35516,6,0,P|134:55|55:20,1,140,4|0,0:0|1:0,0:0:0:0:
1,103,36021,2,0,L|156:139,1,140,0|4,0:0|3:0,0:0:0:0:
216,104,36527,1,2,1:2:0:0:
389,12,36864,6,0,L|307:-3,1,70,4|2,3:0|0:0,0:0:0:0:
232,20,37201,1,0,1:0:0:0:
232,20,37370,1,0,3:0:0:0:
296,183,37707,1,4,3:0:0:0:
380,219,37875,2,0,P|389:252|381:306,1,70,2|2,1:2|0:0,0:0:0:0:
319,346,38212,6,0,P|340:290|415:277,1,140,4|0,0:3|1:0,0:0:0:0:
491,120,38886,1,0,3:0:0:0:
491,120,38971,1,0,3:0:0:0:
491,120,39055,1,4,3:0:0:0:
413,177,39224,2,0,L|319:170,1,70,2|2,1:2|0:0,0:0:0:0:
270,107,39561,6,0,P|203:86|129:128,1,140,0|0,0:0|1:0,0:0:0:0:
76,279,40235,2,0,L|6:296,2,70,0|4|0,3:0|3:0|1:0,0:0:0:0:
156,308,40740,6,0,P|214:303|281:324,1,105.000004005432,4|0,0:1|0:0,0:0:0:0:
329,367,41246,1,4,3:0:0:0:
419,267,41583,2,0,L|443:101,2,157.500006008148,0|2|4,1:0|0:0|3:0,0:0:0:0:
329,367,42931,1,0,1:0:0:0:
165,251,43437,6,0,P|134:305|123:360,1,105.000004005432,4|0,0:2|0:0,0:0:0:0:
201,384,43943,1,2,0:0:0:0:
288,284,44280,2,0,L|443:319,2,157.500006008148,2|4|4,1:2|0:0|3:0,0:0:0:0:
201,384,45628,1,2,1:2:0:0:
149,189,46134,6,0,P|170:140|148:86,1,105.000004005432,4|0,0:0|0:0,0:0:0:0:
83,37,46639,1,2,0:0:0:0:
220,28,46976,2,0,L|277:34,2,52.5000020027161,0|0|2,1:0|0:0|0:0,0:0:0:0:
154,93,47482,1,6,0:0:0:0:
274,175,47819,1,2,0:0:0:0:
173,281,48156,1,2,0:0:0:0:
278,179,48493,1,2,0:0:0:0:
446,215,48830,6,0,P|447:170|389:121,1,105.000004005432,4|0,0:0|0:0,0:0:0:0:
328,104,49336,2,0,L|263:109,1,52.5000020027161,4|4,3:0|3:0,0:0:0:0:
206,154,49673,2,0,L|153:160,2,52.5000020027161,8|0|0,1:3|0:0|0:0,0:0:0:0:
275,209,50179,1,6,0:0:0:0:
181,344,50516,5,0,3:0:0:0:
112,288,50684,2,0,L|25:297,2,70,0|0|0,3:0|3:0|1:0,0:0:0:0:
283,342,51358,2,0,P|283:300|338:272,1,105,8|0,1:0|0:0,0:0:0:0:
350,277,51695,6,0,L|446:266,1,83.9999974365235,4|0,0:1|0:0,0:0:0:0:
501,201,52033,1,2,1:2:0:0:
441,130,52201,2,0,L|325:142,1,83.9999974365235,2|4,0:0|3:0,0:0:0:0:
266,178,52538,2,0,L|150:166,1,83.9999974365235,2|4,0:0|3:3,0:0:0:0:
101,112,52875,6,0,P|91:62|112:20,1,83.9999974365235,2|4,0:0|3:0,0:0:0:0:
207,12,53212,2,0,P|218:51|208:91,1,83.9999974365235,2|0,0:0|1:0,0:0:0:0:
161,179,53549,2,0,L|148:281,1,83.9999974365235,2|4,0:0|3:0,0:0:0:0:
243,301,53886,2,0,L|256:403,1,83.9999974365235,2|4,0:0|3:0,0:0:0:0:
446,300,54392,6,0,L|347:282,1,83.9999974365235,6|0,0:0|0:0,0:0:0:0:
263,312,54729,1,0,1:0:0:0:
165,271,54898,2,0,P|138:299|83:309,1,83.9999974365235,2|4,0:0|3:0,0:0:0:0:
22,230,55235,2,0,P|49:202|104:192,1,83.9999974365235,2|0,0:0|1:0,0:0:0:0:
202,173,55572,6,0,P|234:129|166:26,1,167.999994873047,2|2,0:0|3:0,0:0:0:0:
192,34,56077,1,4,3:0:0:0:
284,81,56246,2,0,L|388:85,1,83.9999974365235,2|4,0:0|3:0,0:0:0:0:
441,133,56583,2,0,P|460:165|452:228,1,83.9999974365235,2|4,3:0|1:2,0:0:0:0:
379,264,56920,1,2,0:0:0:0:
379,264,57004,1,0,0:0:0:0:
379,264,57089,6,0,P|372:329|483:360,1,167.999994873047,4|0,3:0|1:0,0:0:0:0:
504,306,57594,1,2,0:0:0:0:
426,356,57763,2,0,L|320:374,1,83.9999974365235,2|2,0:0|3:0,0:0:0:0:
254,347,58100,1,4,3:0:0:0:
157,383,58268,6,0,P|176:323|143:216,1,167.999994873047,2|2,0:0|3:0,0:0:0:0:
78,156,58774,2,0,L|73:73,1,83.9999974365235,4|2,3:0|0:0,0:0:0:0:
81,60,59027,1,2,0:0:0:0:
89,48,59111,2,0,P|132:47|188:70,1,83.9999974365235,6|2,3:0|0:0,0:0:0:0:
245,124,59448,1,2,0:0:0:0:
245,124,59617,1,2,0:0:0:0:
328,58,59785,6,0,L|339:237,1,167.999994873047,6|0,0:0|1:0,0:0:0:0:
426,280,60291,2,0,L|437:179,1,83.9999974365235,2|4,0:0|3:0,0:0:0:0:
479,107,60628,2,0,P|458:65|409:48,1,83.9999974365235,2|0,0:0|1:0,0:0:0:0:
330,86,60965,6,0,L|158:68,1,167.999994873047,2|0,0:0|1:0,0:0:0:0:
67,2,61471,1,0,1:0:0:0:
19,72,61639,1,2,0:0:0:0:
72,139,61808,2,0,L|62:228,1,83.9999974365235,4|0,3:0|3:0,0:0:0:0:
7,307,62145,1,0,3:0:0:0:
7,307,62229,1,0,3:0:0:0:
7,307,62313,1,0,1:0:0:0:
7,307,62398,1,0,1:0:0:0:
7,307,62482,6,0,L|181:333,1,167.999994873047,4|0,1:0|1:0,0:0:0:0:
270,292,62988,2,0,L|373:284,1,83.9999974365235,2|4,0:0|3:0,0:0:0:0:
450,259,63325,2,0,P|463:217|461:165,1,83.9999974365235,2|0,0:0|1:0,0:0:0:0:
399,103,63662,6,0,L|299:113,1,83.9999974365235,2|4,0:0|3:0,0:0:0:0:
228,136,63999,2,0,P|237:72|219:30,1,83.9999974365235,2|4,0:0|3:0,0:0:0:0:
123,3,64336,2,0,L|138:97,1,83.9999974365235,2|4,0:0|3:0,0:0:0:0:
84,176,64673,2,0,L|69:270,1,83.9999974365235,2|0,0:0|1:0,0:0:0:0:
264,370,65179,6,0,P|260:309|164:293,1,167.999994873047,6|0,0:0|1:0,0:0:0:0:
79,341,65684,2,0,L|70:241,1,83.9999974365235,2|4,0:0|3:0,0:0:0:0:
21,173,66021,1,2,0:0:0:0:
21,173,66190,1,0,1:0:0:0:
85,95,66358,6,0,L|183:119,1,83.9999974365235,6|0,0:0|0:0,0:0:0:0:
250,74,66695,1,4,3:0:0:0:
250,74,66864,1,0,1:0:0:0:
348,6,67033,2,0,L|330:110,1,83.9999974365235,6|0,0:0|0:0,0:0:0:0:
394,160,67370,1,4,3:0:0:0:
394,160,67538,1,0,1:0:0:0:
488,115,67707,1,8,3:0:0:0:
488,115,67791,1,4,3:0:0:0:
488,115,67875,6,0,P|430:160|443:268,1,167.999994873047,4|4,0:0|3:0,0:0:0:0:
293,382,68549,2,0,P|301:329|295:285,2,83.9999974365235,0|4|2,1:0|3:0|1:2,0:0:0:0:
210,358,69055,6,0,L|24:368,1,167.999994873047,6|4,0:0|3:0,0:0:0:0:
11,273,69561,1,0,1:0:0:0:
11,273,69645,1,0,0:0:0:0:
11,273,69729,2,0,L|58:263,1,41.9999987182618,2|2,3:0|3:0,0:0:0:0:
77,244,69898,1,2,1:0:0:0:
21,168,70066,2,0,L|13:119,5,41.9999987182618,8|0|0|0|8|8,3:0|0:0|1:0|1:0|3:0|3:0,0:0:0:0:
40,95,70572,6,0,L|132:120,1,83.9999974365235,4|2,0:1|0:0,0:0:0:0:
219,89,70909,1,2,0:0:0:0:
168,177,71077,2,0,L|161:268,1,83.9999974365235,6|0,0:0|0:0,0:0:0:0:
255,301,71415,2,0,L|262:392,1,83.9999974365235,6|0,0:0|1:0,0:0:0:0:
367,366,71752,6,0,P|406:340|421:297,1,83.9999974365235,2|0,0:2|0:0,0:0:0:0:
416,214,72089,2,0,P|390:175|347:160,1,83.9999974365235,6|0,0:0|0:0,0:0:0:0:
273,221,72426,2,0,L|171:225,1,83.9999974365235,6|0,0:0|0:0,0:0:0:0:
111,167,72763,1,6,0:0:0:0:
161,88,72931,1,8,1:0:0:0:
355,9,73268,6,0,L|367:103,2,83.9999974365235,6|2|4,0:0|0:0|3:0,0:0:0:0:
262,64,73774,2,0,L|146:71,1,83.9999974365235,0|0,3:0|1:0,0:0:0:0:
104,120,74111,2,0,L|-12:113,1,83.9999974365235,4|0,3:0|1:0,0:0:0:0:
20,209,74448,6,0,P|97:206|132:280,1,167.999994873047,4|4,0:0|3:0,0:0:0:0:
150,371,74954,2,0,P|154:329|170:278,1,83.9999974365235,0|0,1:0|3:0,0:0:0:0:
243,228,75291,2,0,L|230:177,2,41.9999987182618,4|0|4,3:0|0:0|3:0,0:0:0:0:
295,310,75628,1,0,1:0:0:0:
489,366,75965,6,0,L|512:286,2,83.9999974365235,4|2|0,0:0|0:0|1:2,0:0:0:0:
391,349,76471,2,0,L|338:357,2,41.9999987182618,0|0|0,3:0|3:0|1:0,0:0:0:0:
419,269,76808,2,0,P|429:213|401:155,1,83.9999974365235,4|0,3:0|1:0,0:0:0:0:
352,117,77145,6,0,P|323:175|344:282,1,167.999994873047,4|4,0:1|3:0,0:0:0:0:
338,273,77566,1,4,3:0:0:0:
338,273,77651,1,0,1:0:0:0:
481,129,77988,1,2,0:0:0:0:
481,129,78072,1,0,0:0:0:0:
481,129,78156,2,0,L|414:135,5,41.9999987182618,0|0|8|8|4|4,1:0|1:0|3:0|3:0|3:0|3:0,0:0:0:0:
414,153,78662,6,0,P|351:122|336:82,2,83.9999974365235,4|0|0,1:0|0:0|1:0,0:0:0:0:
460,236,79167,2,0,L|358:246,1,83.9999974365235,2|4,0:0|3:0,0:0:0:0:
308,193,79504,2,0,L|206:183,1,83.9999974365235,4|0,3:0|1:0,0:0:0:0:
132,221,79842,6,0,P|153:140|169:35,1,167.999994873047,4|4,0:0|3:0,0:0:0:0:
62,20,80347,2,0,P|64:64|71:110,1,83.9999974365235,0|0,1:0|0:0,0:0:0:0:
125,177,80684,2,0,P|123:233|67:334,1,167.999994873047,2|0,2:0|1:0,0:0:0:0:
0,285,81190,1,0,3:0:0:0:
0,285,81274,1,0,3:0:0:0:
0,285,81358,6,0,P|42:290|102:320,1,83.9999974365235,4|4,0:0|3:0,0:0:0:0:
151,373,81695,2,0,L|246:366,1,83.9999974365235,0|0,1:0|3:0,0:0:0:0:
313,290,82033,2,0,P|347:274|407:276,2,83.9999974365235,4|4|0,3:0|3:0|1:0,0:0:0:0:
257,384,82538,1,4,0:0:0:0:
186,238,82875,5,0,1:0:0:0:
186,238,82959,1,0,0:0:0:0:
186,238,83044,2,0,L|195:184,3,41.9999987182618,0|0|8|8,1:0|1:0|3:0|3:0,0:0:0:0:
222,176,83381,1,4,3:0:0:0:
173,98,83549,1,2,1:0:0:0:
335,0,83886,1,4,3:0:0:0:
335,0,83971,1,4,3:0:0:0:
335,0,84055,6,0,L|338:87,1,83.9999974365235,4|0,3:0|1:0,0:0:0:0:
412,151,84392,2,0,L|401:248,1,83.9999974365235,0|4,1:0|3:0,0:0:0:0:
323,290,84729,1,0,1:0:0:0:
323,290,84898,1,0,1:0:0:0:
507,159,85235,1,4,0:1:0:0:
256,192,85319,12,0,88353,0:0:0:0:
