osu file format v14

[General]
AudioFilename: killme.mp3
AudioLeadIn: 0
PreviewTime: 51358
Countdown: 0
SampleSet: Soft
StackLeniency: 0.7
Mode: 2
LetterboxInBreaks: 0
WidescreenStoryboard: 0

[Editor]
Bookmarks: 122
DistanceSpacing: 1.7
BeatDivisor: 4
GridSize: 8
TimelineZoom: 2.4

[Metadata]
Title:ambiguous (TV Size ver.)
TitleUnicode:ambiguous (TV Size ver.)
Artist:GARNiDELiA
ArtistUnicode:GARNiDELiA
Creator:Sakary
Version:Salad
Source:キルラキル
Tags:kill la opening toku maria matoi hi_hello
BeatmapID:848655
BeatmapSetID:389134

[Difficulty]
HPDrainRate:4
CircleSize:3.2
OverallDifficulty:6.5
ApproachRate:6.5
SliderMultiplier:1.6
SliderTickRate:2

[Events]
//Background and Video events
0,0,"kill.jpg",0,0
//Break Periods
//Storyboard Layer 0 (Background)
//Storyboard Layer 1 (Fail)
//Storyboard Layer 2 (Pass)
//Storyboard Layer 3 (Foreground)
//Storyboard Layer 4 (Overlay)
//Storyboard Sound Samples

[TimingPoints]
460,337.078651685393,4,2,1,50,1,0
460,-133.333333333333,4,2,1,50,0,0
8044,-66.6666666666667,4,1,1,70,0,0
8549,-100,4,2,1,70,0,0
18830,-133.333333333333,4,2,1,70,0,0
24729,-90.9090909090909,4,2,1,70,0,0
25066,-90.9090909090909,4,2,2,70,0,0
25235,-90.9090909090909,4,2,1,70,0,0
26415,-90.9090909090909,4,2,2,70,0,0
26583,-90.9090909090909,4,2,1,70,0,0
29785,-90.9090909090909,4,2,1,70,0,0
40740,-100,4,2,1,70,0,0
41583,-100,4,2,2,70,0,0
41667,-100,4,2,1,70,0,0
45291,-100,4,2,2,70,0,0
45375,-100,4,2,1,70,0,0
49673,-100,4,2,1,90,0,0
49842,-100,4,2,1,70,0,0
51358,-111.111111111111,4,1,1,70,0,0
51443,-111.111111111111,4,2,1,70,0,0
51695,-83.3333333333333,4,2,3,70,0,1
51780,-83.3333333333333,4,2,1,90,0,1
54224,-83.3333333333333,4,2,2,90,0,1
54308,-83.3333333333333,4,2,1,90,0,1
54982,-100,4,2,1,90,0,1
59448,-100,4,2,1,90,0,1
59617,-100,4,2,1,90,0,1
61302,-100,4,2,2,90,0,1
61639,-100,4,2,1,90,0,1
61808,-100,4,2,1,90,0,0
61892,-100,4,2,2,90,0,0
62145,-100,4,2,2,90,0,0
62229,-100,4,2,1,90,0,0
62482,-100,4,2,1,90,0,1
68212,-100,4,2,2,90,0,1
68381,-100,4,2,1,90,0,1
68549,-100,4,2,2,90,0,1
68718,-100,4,2,1,90,0,1
69561,-100,4,2,2,90,0,1
69729,-100,4,2,1,90,0,1
69898,-100,4,2,2,90,0,1
70066,-100,4,2,1,90,0,1
70235,-100,4,2,2,90,0,1
70403,-100,4,2,1,90,0,1
72930,-76.9230769230769,4,1,1,90,0,1
73183,-90.9090909090909,4,2,1,90,0,1
73268,-100,4,2,1,90,0,0
73437,-100,4,2,1,70,0,0
82875,-100,4,2,1,70,0,0
83044,-100,4,2,1,70,0,0
84813,-181.818181818181,4,2,1,70,0,0

[Colours]
Combo1 : 255,128,0
Combo2 : 192,192,192
Combo3 : 255,0,0
Combo4 : 128,128,128

[HitObjects]
304,344,460,6,0,P|392:296|280:64,1,420.000016021729,2|0,0:0|0:0,0:0:0:0:
128,64,1808,2,0,P|80:104|256:136,1,420.000016021729,2|0,0:0|0:0,0:0:0:0:
184,96,3156,6,0,P|104:96|168:320,1,420.000016021729,2|0,0:0|0:0,0:0:0:0:
304,304,4504,2,0,P|368:248|312:152,1,180.000006866455,2|0,0:0|0:0,0:0:0:0:
256,168,5179,2,0,L|112:48,1,180.000006866455,2|0,0:0|0:0,0:0:0:0:
32,32,5853,5,2,0:0:0:0:
256,192,6190,8,8,8212,0:0:0:0:
352,320,8549,6,0,L|368:128,1,160,4|0,0:0|0:0,0:0:0:0:
248,128,9055,2,0,L|264:304,1,160,8|0,0:0|0:0,0:0:0:0:
376,320,9561,1,0,0:0:0:0:
456,304,9729,6,8,P|480:200|408:144,1,160,8|0,0:0|0:0,0:0:0:0:
336,152,10235,2,8,L|232:144,1,80
160,72,10572,2,0,L|272:56,1,80
320,152,10909,2,8,L|224:144,1,80
120,136,11246,6,0,P|80:208|128:288,1,160,2|8,0:0|0:0,0:0:0:0:
200,296,11752,2,0,L|336:280,1,80
368,272,12089,2,0,L|464:264,1,80
288,248,12426,6,0,P|248:176|320:112,1,160,8|0,0:0|0:0,0:0:0:0:
392,128,12931,2,0,L|368:24,1,80,8|0,0:0|0:0,0:0:0:0:
272,40,13268,2,0,L|296:152,1,80,2|2,0:0|0:0,0:0:0:0:
424,120,13606,2,8,L|400:8,1,80
272,40,13943,6,0,L|312:216,1,160,4|8,0:0|0:0,0:0:0:0:
171,129,14617,2,0,L|152:288,1,160,2|2,0:0|0:0,0:0:0:0:
280,144,15122,6,0,P|312:224|264:296,1,160,8|0,0:0|0:0,0:0:0:0:
192,248,15628,2,8,L|88:240,1,80,8|0,0:0|0:0,0:0:0:0:
160,328,15965,2,0,L|264:336,1,80,2|0,0:0|0:0,0:0:0:0:
160,240,16302,2,8,L|64:232,1,80
232,248,16639,6,0,P|272:184|200:112,1,160,2|8,0:0|0:0,0:0:0:0:
128,112,17145,2,0,L|8:120,1,80
184,32,17482,2,8,L|280:24,1,80
360,24,17819,6,0,P|418:122|384:176,1,160,4|10,0:0|0:0,0:0:0:0:
328,216,18325,1,0,0:0:0:0:
224,232,18493,1,0,0:0:0:0:
96,248,18662,2,8,L|208:240,1,80
432,320,19336,6,0,L|416:144,1,120.000004577637,4|0,0:0|0:0,0:0:0:0:
248,256,20010,2,2,L|264:112,1,120.000004577637
344,112,20516,2,8,L|328:256,1,120.000004577637
248,256,21021,1,0,0:0:0:0:
160,248,21190,6,0,P|128:176|216:112,1,180.000006866455,2|0,0:0|0:0,0:0:0:0:
280,128,21864,1,0,0:0:0:0:
368,128,22033,6,0,L|360:0,1,120.000004577637,2|2,0:0|0:0,0:0:0:0:
232,128,22707,2,0,L|248:8,1,120.000004577637,2|2,0:0|0:0,0:0:0:0:
416,72,23381,6,0,L|392:208,1,120.000004577637,8|0,0:0|0:0,0:0:0:0:
216,192,24055,2,0,L|232:328,1,120.000004577637,2|0,0:0|0:0,0:0:0:0:
432,320,24729,6,0,P|464:176|336:104,1,264.000008056641,4|0,0:0|0:0,0:0:0:0:
296,192,25403,2,0,L|312:88,1,88.000002685547
216,192,25740,2,8,L|203:104,1,88.000002685547
304,256,26077,6,0,P|336:168|184:88,1,264.000008056641
128,128,26752,2,0,L|152:0,1,88.000002685547
253,118,27089,2,8,L|240:32,1,88.000002685547
144,32,27426,6,0,P|88:96|152:184,1,176.000005371094,0|8,0:0|0:0,0:0:0:0:
208,184,27931,2,0,L|392:168,1,176.000005371094
472,168,28437,2,8,L|440:72,1,88.000002685547
352,80,28774,6,0,P|264:104|248:192,2,176.000005371094,0|8|0,0:0|0:0|0:0,0:0:0:0:
464,88,29785,1,2,0:0:0:0:
336,208,30122,6,0,L|352:16,1,176.000005371094,4|8,0:0|0:0,0:0:0:0:
440,40,30628,2,0,P|496:136|432:192,1,176.000005371094
376,176,31134,2,0,L|256:168,1,88.000002685547,8|0,0:0|0:0,0:0:0:0:
200,160,31471,6,0,P|120:216|184:304,1,176.000005371094,0|8,0:0|0:0,0:0:0:0:
216,312,31976,2,0,P|280:280|280:184,1,176.000005371094
192,176,32482,2,0,L|72:168,1,88.000002685547,8|0,0:0|0:0,0:0:0:0:
192,168,32819,6,0,P|240:96|144:40,1,176.000005371094,0|8,0:0|0:0,0:0:0:0:
104,32,33325,2,0,P|64:104|144:168,1,176.000005371094
208,168,33830,1,8,0:0:0:0:
296,176,33999,1,0,0:0:0:0:
384,184,34167,6,0,L|352:-8,1,176.000005371094,2|8,0:0|0:0,0:0:0:0:
184,48,34842,2,0,L|224:248,1,176.000005371094,2|8,0:0|0:0,0:0:0:0:
304,240,35347,1,0,0:0:0:0:
392,248,35516,6,0,P|432:160|360:104,1,176.000005371094,4|8,0:0|0:0,0:0:0:0:
296,112,36021,2,0,L|96:128,1,176.000005371094
32,136,36527,2,0,L|56:16,1,88.000002685547,8|0,0:0|0:0,0:0:0:0:
136,40,36864,6,0,P|192:104|120:176,1,176.000005371094,2|8,0:0|0:0,0:0:0:0:
64,192,37370,1,0,0:0:0:0:
232,240,37707,1,0,0:0:0:0:
320,248,37875,1,8,0:0:0:0:
408,264,38044,6,0,P|432:176|280:112,1,264.000008056641,0|8,0:0|0:0,0:0:0:0:
128,112,38886,2,0,L|344:104,1,176.000005371094,2|8,0:0|0:0,0:0:0:0:
384,136,39392,6,0,L|168:144,1,176.000005371094,2|2,0:0|0:0,0:0:0:0:
120,160,39898,2,0,L|128:48,1,88.000002685547,8|0,0:0|0:0,0:0:0:0:
216,56,40235,2,2,L|232:176,1,88.000002685547
312,128,40572,1,8,0:0:0:0:
400,96,40740,6,0,P|456:192|176:192,1,560,4|2,0:0|0:0,0:0:0:0:
144,152,42089,2,0,P|160:72|288:224,1,400,8|8,0:0|0:0,0:0:0:0:
136,296,43437,6,0,P|32:192|184:96,1,320,4|2,0:0|0:0,0:0:0:0:
208,80,44280,2,0,L|376:72,1,160,8|8,0:0|0:0,0:0:0:0:
448,72,44785,2,0,P|504:176|296:296,1,400,2|8,0:0|0:0,0:0:0:0:
104,328,46134,6,0,P|64:232|256:136,1,320,4|0,0:0|0:0,0:0:0:0:
288,120,46976,2,0,P|360:200|312:280,1,160,8|0,0:0|0:0,0:0:0:0:
304,312,47482,2,0,P|216:304|296:80,1,400,4|8,0:0|0:0,0:0:0:0:
416,80,48662,5,0,0:0:0:0:
336,64,48830,2,0,P|208:88|168:304,1,320,4|0,0:0|0:0,0:0:0:0:
216,312,49673,2,0,P|312:320|408:168,1,240,8|4,0:0|0:0,0:0:0:0:
224,200,50516,6,0,L|216:96,1,80,2|8,0:0|0:0,0:0:0:0:
312,64,50853,2,0,L|320:176,1,80,2|8,0:0|0:0,0:0:0:0:
224,200,51358,1,8,0:0:0:0:
384,272,51695,6,0,L|368:144,1,95.9999970703126,2|0,0:0|0:0,0:0:0:0:
272,176,52033,2,0,L|136:184,1,95.9999970703126,8|0,0:0|0:0,0:0:0:0:
80,184,52370,2,0,L|96:56,1,95.9999970703126
184,64,52707,1,8,0:0:0:0:
280,56,52875,6,0,P|344:144|280:256,1,191.999994140625
232,224,53381,2,0,L|104:216,1,95.9999970703126,8|0,0:0|0:0,0:0:0:0:
184,304,53718,2,0,L|304:312,1,95.9999970703126
184,304,54055,2,0,P|120:192|208:120,1,191.999994140625,8|2,0:0|0:0,0:0:0:0:
240,136,54561,5,0,0:0:0:0:
336,144,54729,2,0,L|464:136,1,95.9999970703126,8|0,0:0|0:0,0:0:0:0:
360,104,55066,2,0,L|280:112,1,80
200,120,55403,1,8,0:0:0:0:
120,136,55572,2,0,P|88:208|184:288,1,160
208,288,56077,2,0,L|232:176,1,80,8|0,0:0|0:0,0:0:0:0:
304,216,56415,6,0,L|320:120,1,80
400,128,56752,2,8,L|432:224,1,80
344,216,57089,6,0,P|256:160|272:96,1,160,4|8,0:0|0:0,0:0:0:0:
304,48,57594,1,0,0:0:0:0:
384,32,57763,2,0,L|488:40,2,80,0|0|8,0:0|0:0|0:0,0:0:0:0:
304,48,58268,2,0,P|240:128|264:208,1,160
296,240,58774,2,0,P|344:272|448:256,1,160,8|0,0:0|0:0,0:0:0:0:
480,192,59280,6,0,L|472:72,1,80,0|8,0:0|0:0,0:0:0:0:
400,96,59617,1,8,0:0:0:0:
320,96,59785,6,0,L|104:104,1,160,4|8,0:0|0:0,0:0:0:0:
104,160,60291,2,0,L|272:152,1,160,0|8,0:0|0:0,0:0:0:0:
336,176,60797,1,8,0:0:0:0:
248,224,60965,6,0,P|208:128|392:48,1,320,8|8,0:0|0:0,0:0:0:0:
440,64,61808,2,0,P|464:144|328:248,1,240,8|8,0:0|0:0,0:0:0:0:
272,272,62482,6,0,L|296:160,1,80,4|0,0:0|0:0,0:0:0:0:
368,200,62819,2,0,L|392:96,1,80,8|0,0:0|0:0,0:0:0:0:
304,104,63156,2,0,L|280:192,1,80
200,192,63493,1,8,0:0:0:0:
120,192,63662,6,0,P|80:104|160:64,1,160,2|2,0:0|0:0,0:0:0:0:
192,72,64167,2,0,L|168:176,1,80,8|0,0:0|0:0,0:0:0:0:
256,144,64504,2,0,L|264:232,1,80
184,224,64842,2,8,L|160:328,1,80
240,328,65179,6,0,P|312:264|248:168,1,160,4|8,0:0|0:0,0:0:0:0:
224,200,65684,2,0,P|184:128|264:64,1,160
304,56,66190,1,8,0:0:0:0:
416,40,66358,5,4,0:0:0:0:
416,40,66695,1,2,0:0:0:0:
304,56,67033,1,4,0:0:0:0:
304,56,67370,1,2,0:0:0:0:
408,128,67707,1,4,0:0:0:0:
304,136,67875,6,0,P|120:168|304:304,1,480,4|0,0:0|0:0,0:0:0:0:
352,328,69055,2,0,P|400:240|120:288,1,640,4|0,0:0|0:0,0:0:0:0:
192,296,70572,6,0,L|360:288,1,160,4|8,0:0|0:0,0:0:0:0:
456,264,71077,2,0,L|280:256,1,160,2|2,0:0|0:0,0:0:0:0:
144,192,71752,2,0,L|336:168,1,160,8|2,0:0|0:0,0:0:0:0:
440,104,72426,2,0,L|264:88,1,160,8|2,0:0|0:0,0:0:0:0:
160,320,72931,1,8,0:0:0:0:
160,320,73268,6,0,L|144:128,1,160,4|0,0:0|0:0,0:0:0:0:
264,128,73774,2,0,L|248:304,1,160,8|0,0:0|0:0,0:0:0:0:
152,320,74280,1,0,0:0:0:0:
56,304,74448,6,8,P|32:200|104:144,1,160,8|0,0:0|0:0,0:0:0:0:
176,152,74954,2,8,L|280:144,1,80
352,72,75291,2,0,L|240:56,1,80
192,152,75628,2,8,L|288:144,1,80
392,136,75965,6,0,P|432:208|384:288,1,160,2|8,0:0|0:0,0:0:0:0:
312,296,76471,2,0,L|176:280,1,80
144,272,76808,2,0,L|48:264,1,80
152,264,77145,6,0,P|192:192|120:128,1,160,8|0,0:0|0:0,0:0:0:0:
48,144,77650,2,0,L|72:40,1,80,8|0,0:0|0:0,0:0:0:0:
168,48,77987,2,0,L|136:160,1,80,2|2,0:0|0:0,0:0:0:0:
48,144,78325,2,8,L|72:32,1,80
160,80,78662,6,0,L|120:256,1,160,4|8,0:0|0:0,0:0:0:0:
341,129,79336,2,0,L|360:288,1,160,2|2,0:0|0:0,0:0:0:0:
232,144,79841,6,0,P|200:224|248:296,1,160,8|0,0:0|0:0,0:0:0:0:
320,248,80347,2,8,L|424:240,1,80,8|0,0:0|0:0,0:0:0:0:
352,328,80684,2,0,L|248:336,1,80,2|0,0:0|0:0,0:0:0:0:
352,240,81021,2,8,L|448:232,1,80
280,248,81358,6,0,P|240:184|312:112,1,160,2|8,0:0|0:0,0:0:0:0:
384,112,81864,2,0,L|504:120,1,80
376,32,82201,2,8,L|280:24,1,80
184,32,82538,6,0,P|96:64|80:144,4,160,4|8|4|8|8,0:0|0:0|0:0|0:0|0:0,0:0:0:0:
240,40,83971,1,8,0:0:0:0:
296,48,84055,6,0,L|312:152,1,80,2|2,0:0|0:0,0:0:0:0:
208,144,84392,2,0,L|192:248,1,80,2|0,0:0|0:0,0:0:0:0:
304,256,84729,2,2,L|312:352,1,80
256,192,85235,8,0,88437,0:0:0:0:
