osu file format v14

[General]
AudioFilename: killme.mp3
AudioLeadIn: 0
PreviewTime: 51358
Countdown: 0
SampleSet: Soft
StackLeniency: 0.7
Mode: 2
LetterboxInBreaks: 0
WidescreenStoryboard: 0

[Editor]
Bookmarks: 122
DistanceSpacing: 1.7
BeatDivisor: 4
GridSize: 8
TimelineZoom: 2.4

[Metadata]
Title:ambiguous (TV Size ver.)
TitleUnicode:ambiguous (TV Size ver.)
Artist:GARNiDELiA
ArtistUnicode:GARNiDELiA
Creator:Sakary
Version:Rain
Source:キルラキル
Tags:kill la opening toku maria matoi hi_hello
BeatmapID:979428
BeatmapSetID:389134

[Difficulty]
HPDrainRate:5
CircleSize:3.8
OverallDifficulty:9
ApproachRate:9
SliderMultiplier:1.8
SliderTickRate:2

[Events]
//Background and Video events
0,0,"kill.jpg",0,0
//Break Periods
//Storyboard Layer 0 (Background)
//Storyboard Layer 1 (Fail)
//Storyboard Layer 2 (Pass)
//Storyboard Layer 3 (Foreground)
//Storyboard Layer 4 (Overlay)
//Storyboard Sound Samples

[TimingPoints]
460,337.078651685393,4,2,1,50,1,0
460,-133.333333333333,4,2,1,50,0,0
8044,-66.6666666666667,4,1,1,70,0,0
8549,-83.3333333333333,4,2,1,70,0,0
18830,-133.333333333333,4,2,1,70,0,0
24729,-90.9090909090909,4,2,1,70,0,0
29785,-90.9090909090909,4,2,1,70,0,0
41415,-100,4,2,1,70,0,0
51358,-111.111111111111,4,1,1,70,0,0
51443,-111.111111111111,4,2,1,70,0,0
51695,-83.3333333333333,4,2,3,70,0,1
51780,-83.3333333333333,4,2,1,70,0,1
54982,-100,4,2,1,70,0,1
61808,-100,4,2,1,70,0,0
62482,-100,4,2,1,70,0,1
72930,-76.9230769230769,4,1,1,70,0,1
73183,-90.9090909090909,4,2,1,70,0,1
73268,-90.9090909090909,4,2,1,70,0,0
73437,-90.9090909090909,4,2,1,70,0,0
84813,-181.818181818181,4,2,1,70,0,0

[Colours]
Combo1 : 255,128,0
Combo2 : 192,192,192
Combo3 : 255,0,0
Combo4 : 128,128,128

[HitObjects]
200,312,460,6,0,P|128:272|96:232,1,135.000005149841,8|0,0:0|0:0,0:0:0:0:
256,224,965,2,0,P|312:200|384:152,1,135.000005149841
56,136,1639,2,0,L|192:136,1,135.000005149841
448,96,2313,2,0,L|296:96,1,135.000005149841
96,96,2988,5,0,0:0:0:0:
344,104,3156,2,0,P|416:88|480:40,1,135.000005149841,8|0,0:0|0:0,0:0:0:0:
280,40,3662,2,0,L|120:40,1,135.000005149841
320,168,4336,6,0,P|384:152|456:104,1,135.000005149842,8|0,0:0|0:0,0:0:0:0:
208,64,5010,2,0,L|352:64,1,135.000005149842,8|0,0:0|0:0,0:0:0:0:
160,56,5684,1,0,0:0:0:0:
360,48,5853,1,4,0:0:0:0:
256,192,5937,8,0,7875,0:0:0:0:
256,192,8212,5,4,0:0:0:0:
56,192,8549,6,0,L|184:184,1,107.999996704102,4|0,0:0|0:0,0:0:0:0:
296,152,8886,2,0,L|160:144,1,107.999996704102,8|0,0:0|0:0,0:0:0:0:
304,96,9224,1,2,0:0:0:0:
352,80,9308,1,2,0:0:0:0:
408,56,9392,1,10,0:0:0:0:
240,24,9561,1,0,0:0:0:0:
504,120,9729,6,0,L|248:112,1,215.999993408203,8|0,0:0|0:0,0:0:0:0:
144,168,10235,2,0,L|264:160,1,107.999996704102,8|0,0:0|0:0,0:0:0:0:
424,272,10572,1,10,0:0:0:0:
368,264,10656,1,2,0:0:0:0:
328,232,10740,1,2,0:0:0:0:
304,184,10825,1,0,0:0:0:0:
320,128,10909,1,10,0:0:0:0:
376,96,10993,1,2,0:0:0:0:
424,80,11077,1,2,0:0:0:0:
488,72,11162,1,0,0:0:0:0:
256,152,11246,6,0,P|208:128|152:72,1,107.999996704102,4|0,0:0|0:0,0:0:0:0:
280,56,11583,1,8,0:0:0:0:
144,48,11752,1,0,0:0:0:0:
304,64,11920,1,2,0:0:0:0:
264,40,12004,1,2,0:0:0:0:
208,24,12088,1,10,0:0:0:0:
88,32,12257,1,0,0:0:0:0:
328,128,12426,6,0,L|104:136,1,215.999993408203,8|0,0:0|0:0,0:0:0:0:
408,128,12931,2,0,L|536:136,1,107.999996704102,8|0,0:0|0:0,0:0:0:0:
192,296,13268,1,10,0:0:0:0:
144,304,13353,1,2,0:0:0:0:
96,288,13437,1,2,0:0:0:0:
56,256,13521,1,0,0:0:0:0:
40,192,13606,1,10,0:0:0:0:
72,144,13690,1,2,0:0:0:0:
128,104,13774,1,2,0:0:0:0:
192,88,13858,1,0,0:0:0:0:
384,48,13943,6,0,L|272:0,1,107.999996704102,4|0,0:0|0:0,0:0:0:0:
144,80,14280,2,0,L|256:16,1,107.999996704102,8|0,0:0|0:0,0:0:0:0:
488,176,14617,1,2,0:0:0:0:
448,200,14701,1,2,0:0:0:0:
392,208,14785,1,10,0:0:0:0:
272,200,14954,1,0,0:0:0:0:
448,288,15122,6,0,L|208:272,1,215.999993408203,8|0,0:0|0:0,0:0:0:0:
120,272,15628,2,0,L|248:256,1,107.999996704102,8|0,0:0|0:0,0:0:0:0:
384,216,15965,1,10,0:0:0:0:
424,176,16049,1,2,0:0:0:0:
424,112,16134,1,2,0:0:0:0:
384,64,16218,1,0,0:0:0:0:
320,56,16302,1,10,0:0:0:0:
264,96,16386,1,2,0:0:0:0:
248,152,16471,1,2,0:0:0:0:
272,208,16555,1,0,0:0:0:0:
480,256,16639,6,0,L|320:248,1,107.999996704102,4|0,0:0|0:0,0:0:0:0:
80,272,16976,2,0,L|200:256,1,107.999996704102,8|0,0:0|0:0,0:0:0:0:
368,304,17313,1,8,0:0:0:0:
328,264,17398,1,8,0:0:0:0:
280,240,17482,1,8,0:0:0:0:
168,240,17651,1,8,0:0:0:0:
416,240,17819,6,0,P|480:208|448:64,1,215.999993408203,6|0,0:0|0:0,0:0:0:0:
224,88,18325,1,8,0:0:0:0:
320,64,18493,1,2,0:0:0:0:
184,48,18662,1,8,0:0:0:0:
464,24,18830,1,0,0:0:0:0:
64,160,19336,6,0,L|160:160,1,67.5000025749208,4|0,0:0|0:0,0:0:0:0:
16,240,19673,2,0,L|112:240,1,67.5000025749208,2|0,0:0|0:0,0:0:0:0:
224,272,20010,2,0,L|128:272,3,67.5000025749208,2|0|2|0,0:0|0:0|0:0|0:0,0:0:0:0:
280,272,20684,6,0,L|368:272,1,67.5000025749208,2|0,0:0|0:0,0:0:0:0:
160,240,21021,2,0,L|92:240,1,67.5000025749208,2|0,0:0|0:0,0:0:0:0:
200,216,21358,2,0,L|288:216,1,67.5000025749208,2|0,0:0|0:0,0:0:0:0:
368,200,21695,2,0,L|280:200,1,67.5000025749208,2|0,0:0|0:0,0:0:0:0:
448,192,22033,6,0,L|368:192,3,67.5000025749208,2|0|2|0,0:0|0:0|0:0|0:0,0:0:0:0:
256,192,22707,2,0,L|336:192,1,67.5000025749208,2|0,0:0|0:0,0:0:0:0:
168,192,23044,2,0,L|248:192,1,67.5000025749208,2|8,0:0|0:0,0:0:0:0:
384,184,23297,1,8,0:0:0:0:
432,168,23381,6,0,P|416:136|368:112,1,67.5000025749208,2|0,0:0|0:0,0:0:0:0:
232,120,23718,2,0,L|312:120,1,67.5000025749208,2|0,0:0|0:0,0:0:0:0:
64,112,24055,2,0,L|8:72,1,67.5000025749208,2|0,0:0|0:0,0:0:0:0:
200,48,24392,2,0,L|104:48,1,67.5000025749208,2|8,0:0|0:0,0:0:0:0:
80,48,24645,1,8,0:0:0:0:
384,96,24729,6,0,L|496:96,1,99.0000030212403,4|0,0:0|0:0,0:0:0:0:
168,192,25066,2,0,L|48:192,1,99.0000030212403,8|0,0:0|0:0,0:0:0:0:
184,224,25403,2,0,L|80:224,1,99.0000030212403
208,256,25740,2,0,L|72:256,1,99.0000030212403,8|2,0:0|0:0,0:0:0:0:
352,288,25993,1,2,0:0:0:0:
400,288,26077,6,0,L|504:288,1,99.0000030212403,4|0,0:0|0:0,0:0:0:0:
360,264,26415,2,0,L|464:264,1,99.0000030212403,8|0,0:0|0:0,0:0:0:0:
328,232,26752,2,0,L|448:232,1,99.0000030212403
288,208,27089,2,0,L|408:208,1,99.0000030212403,8|2,0:0|0:0,0:0:0:0:
144,240,27342,1,2,0:0:0:0:
88,208,27426,6,0,L|72:88,1,99.0000030212403,4|0,0:0|0:0,0:0:0:0:
256,200,27763,2,0,L|256:88,1,99.0000030212403,8|0,0:0|0:0,0:0:0:0:
416,200,28100,2,0,L|440:96,1,99.0000030212403
88,208,28437,2,0,L|72:96,1,99.0000030212403,8|0,0:0|0:0,0:0:0:0:
296,168,28774,6,0,L|184:168,1,99.0000030212403
352,184,29111,2,0,L|376:64,1,99.0000030212403,8|0,0:0|0:0,0:0:0:0:
160,160,29448,1,2,0:0:0:0:
80,64,29617,1,2,0:0:0:0:
360,48,29785,2,0,L|528:40,1,148.50000453186,8|0,0:0|0:0,0:0:0:0:
248,112,30122,6,0,L|120:104,1,99.0000030212403,4|0,0:0|0:0,0:0:0:0:
408,160,30459,2,0,L|520:144,1,99.0000030212403,8|0,0:0|0:0,0:0:0:0:
176,232,30797,1,0,0:0:0:0:
296,224,30965,1,2,0:0:0:0:
256,176,31049,1,2,0:0:0:0:
192,152,31134,1,8,0:0:0:0:
56,160,31302,1,0,0:0:0:0:
352,152,31471,6,0,L|368:32,1,99.0000030212403
184,136,31808,2,0,L|168:8,1,99.0000030212403,8|0,0:0|0:0,0:0:0:0:
320,56,32145,1,2,0:0:0:0:
264,32,32229,1,2,0:0:0:0:
192,24,32313,1,2,0:0:0:0:
448,40,32482,1,8,0:0:0:0:
344,32,32651,1,0,0:0:0:0:
104,160,32819,6,0,L|224:144,1,99.0000030212403,2|0,0:0|0:0,0:0:0:0:
376,136,33156,1,8,0:0:0:0:
128,296,33325,2,0,P|72:240|144:144,1,198.000006042481,2|0,0:0|0:0,0:0:0:0:
392,160,33830,1,10,0:0:0:0:
440,144,33915,1,2,0:0:0:0:
496,112,33999,1,2,0:0:0:0:
152,160,34167,6,0,L|24:168,3,99.0000030212403,0|0|8|0,0:0|0:0|0:0|0:0,0:0:0:0:
344,160,34842,2,0,L|448:168,3,99.0000030212403,2|2|8|0,0:0|0:0|0:0|0:0,0:0:0:0:
56,152,35516,6,0,P|96:88|240:40,1,198.000006042481,4|8,0:0|0:0,0:0:0:0:
488,152,36021,2,0,P|456:96|328:32,1,198.000006042481,2|2,0:0|0:0,0:0:0:0:
112,48,36527,2,0,L|-8:56,1,99.0000030212403,8|0,0:0|0:0,0:0:0:0:
320,216,36864,6,0,P|432:192|512:128,1,198.000006042481,2|8,0:0|0:0,0:0:0:0:
208,208,37370,2,2,P|136:184|48:88,1,198.000006042481
384,48,37875,2,0,L|496:48,1,99.0000030212403,8|0,0:0|0:0,0:0:0:0:
184,112,38212,6,0,L|304:112,3,99.0000030212403,4|0|8|0,0:0|0:0|0:0|0:0,0:0:0:0:
144,112,38886,1,2,0:0:0:0:
88,104,38971,1,2,0:0:0:0:
40,72,39055,1,2,0:0:0:0:
160,40,39224,1,8,0:0:0:0:
424,56,39392,1,0,0:0:0:0:
136,256,39561,5,2,0:0:0:0:
88,224,39645,1,2,0:0:0:0:
88,160,39729,1,2,0:0:0:0:
128,112,39813,1,0,0:0:0:0:
176,104,39898,2,0,L|264:88,1,49.5000015106202,8|0,0:0|0:0,0:0:0:0:
432,80,40066,2,0,L|504:64,1,49.5000015106202
224,264,40235,5,8,0:0:0:0:
160,232,40319,1,0,0:0:0:0:
144,168,40403,1,8,0:0:0:0:
184,120,40488,1,0,0:0:0:0:
240,96,40572,1,8,0:0:0:0:
304,80,40656,1,0,0:0:0:0:
512,72,40740,6,0,L|200:64,1,297.000009063721,4|0,0:0|0:0,0:0:0:0:
64,72,41415,1,0,0:0:0:0:
264,136,41583,2,0,L|448:120,1,180,2|0,0:0|0:0,0:0:0:0:
192,192,42089,2,0,L|-8:208,1,180,2|0,0:0|0:0,0:0:0:0:
304,240,42594,2,0,L|496:216,2,180,2|8|0,0:0|0:0|0:0,0:0:0:0:
56,304,43437,6,0,L|256:328,1,180,4|0,0:0|0:0,0:0:0:0:
352,328,43943,1,0,0:0:0:0:
248,256,44111,1,0,0:0:0:0:
240,136,44280,1,8,0:0:0:0:
320,64,44448,1,0,0:0:0:0:
448,64,44617,1,0,0:0:0:0:
184,64,44785,6,0,L|-8:64,1,180,2|0,0:0|0:0,0:0:0:0:
320,144,45291,2,0,L|512:144,1,180,2|8,0:0|0:0,0:0:0:0:
248,144,45965,1,0,0:0:0:0:
496,200,46134,6,0,L|288:200,1,180,4|0,0:0|0:0,0:0:0:0:
160,192,46639,2,0,L|48:192,2,90,0|0|8,0:0|0:0|0:0,0:0:0:0:
296,272,47145,2,0,L|400:272,1,90
144,336,47482,6,0,P|80:280|56:168,1,180,2|0,0:0|0:0,0:0:0:0:
176,192,47988,1,0,0:0:0:0:
368,208,48325,2,0,P|448:160|496:88,1,180,8|0,0:0|0:0,0:0:0:0:
176,96,48830,6,0,L|376:96,1,180,2|0,0:0|0:0,0:0:0:0:
504,96,49504,1,0,0:0:0:0:
136,200,49673,2,0,P|64:160|32:48,1,180,2|0,0:0|0:0,0:0:0:0:
376,176,50179,2,0,L|192:176,1,180,4|0,0:0|0:0,0:0:0:0:
320,152,50684,5,2,0:0:0:0:
184,144,50853,1,2,0:0:0:0:
456,112,51021,2,0,P|480:160|448:240,1,135,2|0,0:0|0:0,0:0:0:0:
64,240,51358,2,0,P|48:168|88:104,1,121.499996292114,8|0,0:0|0:0,0:0:0:0:
336,120,51695,6,0,L|216:88,1,107.999996704102,6|2,0:0|0:0,0:0:0:0:
112,72,52033,1,10,0:0:0:0:
240,56,52201,1,2,0:0:0:0:
280,40,52285,1,0,0:0:0:0:
344,32,52370,1,0,0:0:0:0:
488,40,52538,1,2,0:0:0:0:
184,32,52707,1,8,0:0:0:0:
320,64,52875,6,0,L|440:72,1,107.999996704102,2|0,0:0|0:0,0:0:0:0:
128,128,53212,2,0,L|0:144,1,107.999996704102,2|8,0:0|0:0,0:0:0:0:
152,192,53549,2,0,L|272:208,1,107.999996704102,2|0,0:0|0:0,0:0:0:0:
488,216,53886,1,2,0:0:0:0:
240,304,54055,1,8,0:0:0:0:
208,264,54139,1,0,0:0:0:0:
192,208,54224,1,2,0:0:0:0:
224,152,54308,1,2,0:0:0:0:
280,112,54392,5,6,0:0:0:0:
408,104,54561,1,2,0:0:0:0:
144,64,54729,2,0,L|8:56,1,107.999996704102,8|2,0:0|0:0,0:0:0:0:
224,168,55066,2,0,L|352:160,1,90,0|2,0:0|0:0,0:0:0:0:
184,232,55403,1,8,0:0:0:0:
464,304,55572,6,2,P|512:232|440:160,1,180
200,160,56077,2,0,L|88:168,1,90,8|2,0:0|0:0,0:0:0:0:
400,240,56415,1,0,0:0:0:0:
440,200,56499,1,0,0:0:0:0:
456,144,56583,1,2,0:0:0:0:
448,80,56667,1,0,0:0:0:0:
408,40,56752,1,8,0:0:0:0:
352,16,56836,1,0,0:0:0:0:
112,32,56920,2,2,L|24:32,1,45
320,304,57089,6,0,L|264:184,1,90,4|0,0:0|0:0,0:0:0:0:
136,232,57426,2,0,L|184:128,1,90,8|2,0:0|0:0,0:0:0:0:
216,128,57679,1,2,0:0:0:0:
272,104,57763,1,2,0:0:0:0:
384,88,57931,1,0,0:0:0:0:
128,72,58100,1,8,0:0:0:0:
368,80,58268,6,0,P|408:144|328:224,1,180,2|2,0:0|0:0,0:0:0:0:
128,208,58774,2,0,L|8:192,1,90,8|2,0:0|0:0,0:0:0:0:
384,256,59111,2,0,L|496:240,1,90,0|2,0:0|0:0,0:0:0:0:
224,264,59448,1,8,0:0:0:0:
344,216,59617,1,2,0:0:0:0:
96,296,59785,6,0,L|64:192,1,90,6|2,0:0|0:0,0:0:0:0:
256,304,60122,2,0,L|256:200,1,90,8|2,0:0|0:0,0:0:0:0:
400,304,60459,2,0,L|432:200,1,90
96,296,60797,2,0,L|64:208,1,90,8|0,0:0|0:0,0:0:0:0:
408,320,61134,5,10,0:0:0:0:
432,264,61218,1,8,0:0:0:0:
448,200,61302,1,8,0:0:0:0:
432,144,61386,1,0,0:0:0:0:
400,96,61471,1,8,0:0:0:0:
352,64,61555,1,0,0:0:0:0:
288,56,61639,1,10,0:0:0:0:
224,64,61724,1,0,0:0:0:0:
64,72,61808,6,8,L|8:80,1,45
304,136,61976,2,0,L|368:128,1,45,8|0,0:0|0:0,0:0:0:0:
104,304,62145,1,8,0:0:0:0:
64,256,62229,1,8,0:0:0:0:
80,192,62313,1,8,0:0:0:0:
136,160,62398,1,0,0:0:0:0:
440,184,62482,6,0,L|320:168,1,90,4|2,0:0|0:0,0:0:0:0:
232,168,62819,1,8,0:0:0:0:
344,120,62988,1,2,0:0:0:0:
304,80,63072,1,0,0:0:0:0:
256,56,63156,1,0,0:0:0:0:
160,48,63325,1,2,0:0:0:0:
400,32,63493,1,8,0:0:0:0:
120,128,63662,6,0,L|8:120,1,90,2|0,0:0|0:0,0:0:0:0:
384,184,63999,2,0,L|496:176,1,90,2|8,0:0|0:0,0:0:0:0:
208,256,64336,1,2,0:0:0:0:
160,248,64420,1,0,0:0:0:0:
104,224,64504,1,0,0:0:0:0:
64,152,64673,1,2,0:0:0:0:
256,184,64842,5,8,0:0:0:0:
312,160,64926,1,0,0:0:0:0:
360,136,65010,1,2,0:0:0:0:
400,96,65094,1,2,0:0:0:0:
440,48,65179,6,0,L|416:168,1,90,4|2,0:0|0:0,0:0:0:0:
304,120,65516,2,0,L|336:232,1,90,8|2,0:0|0:0,0:0:0:0:
424,248,65853,1,0,0:0:0:0:
392,272,65937,1,0,0:0:0:0:
344,296,66021,1,2,0:0:0:0:
248,312,66190,1,8,0:0:0:0:
472,256,66358,6,0,L|264:240,3,180,4|0|4|0,0:0|0:0|0:0|0:0,0:0:0:0:
240,240,67454,1,2,0:0:0:0:
184,240,67538,1,10,0:0:0:0:
264,160,67707,1,0,0:0:0:0:
416,136,67875,6,0,L|440:40,1,90,4|0,0:0|0:0,0:0:0:0:
64,168,68212,2,0,L|40:56,1,90,8|2,0:0|0:0,0:0:0:0:
168,64,68549,1,8,0:0:0:0:
216,40,68634,1,8,0:0:0:0:
272,24,68718,1,0,0:0:0:0:
416,32,68886,1,8,0:0:0:0:
192,136,69055,6,0,P|144:176|192:232,1,135,4|0,0:0|0:0,0:0:0:0:
232,232,69392,1,2,0:0:0:0:
288,224,69476,1,2,0:0:0:0:
352,208,69561,1,10,0:0:0:0:
456,176,69729,1,0,0:0:0:0:
200,328,69898,5,10,0:0:0:0:
152,312,69982,1,10,0:0:0:0:
112,280,70066,1,2,0:0:0:0:
80,232,70151,1,0,0:0:0:0:
56,176,70235,5,8,0:0:0:0:
48,120,70319,1,0,0:0:0:0:
56,56,70403,1,8,0:0:0:0:
88,8,70488,1,0,0:0:0:0:
288,32,70572,6,0,L|480:32,1,180,4|0,0:0|0:0,0:0:0:0:
224,96,71077,2,0,L|24:96,1,180,8|0,0:0|0:0,0:0:0:0:
368,136,71752,1,4,0:0:0:0:
144,168,72089,1,8,0:0:0:0:
320,216,72426,1,4,0:0:0:0:
88,240,72763,1,2,0:0:0:0:
336,304,72931,6,0,P|400:280|504:144,1,233.999989288331,8|4,0:0|0:0,0:0:0:0:
368,136,73437,1,0,0:0:0:0:
240,128,73606,1,10,0:0:0:0:
192,112,73690,1,2,0:0:0:0:
152,80,73774,1,2,0:0:0:0:
48,40,73943,2,0,L|184:16,1,99.0000030212403
272,8,74280,1,2,0:0:0:0:
96,96,74448,6,0,P|48:152|128:240,1,198.000006042481,8|0,0:0|0:0,0:0:0:0:
376,224,74954,2,0,L|480:208,1,99.0000030212403,8|0,0:0|0:0,0:0:0:0:
216,328,75291,5,10,0:0:0:0:
176,288,75375,1,2,0:0:0:0:
152,224,75459,1,2,0:0:0:0:
160,168,75544,1,0,0:0:0:0:
192,112,75628,1,8,0:0:0:0:
232,72,75712,1,0,0:0:0:0:
288,40,75797,1,0,0:0:0:0:
344,24,75881,1,0,0:0:0:0:
408,16,75965,6,0,L|528:16,1,99.0000030212403,4|0,0:0|0:0,0:0:0:0:
272,136,76302,2,0,L|160:136,1,99.0000030212403,8|0,0:0|0:0,0:0:0:0:
400,200,76639,2,0,L|512:200,1,99.0000030212403,8|0,0:0|0:0,0:0:0:0:
184,256,76976,1,0,0:0:0:0:
472,272,77145,6,0,P|424:216|288:144,1,198.000006042481,8|0,0:0|0:0,0:0:0:0:
120,152,77651,2,0,L|16:144,1,99.0000030212403,8|0,0:0|0:0,0:0:0:0:
256,336,77988,1,8,0:0:0:0:
288,288,78072,1,0,0:0:0:0:
280,232,78156,1,0,0:0:0:0:
248,192,78240,1,0,0:0:0:0:
216,144,78325,1,8,0:0:0:0:
192,96,78409,1,0,0:0:0:0:
200,48,78493,1,0,0:0:0:0:
240,8,78577,1,0,0:0:0:0:
296,8,78662,6,0,L|424:8,1,99.0000030212403,4|0,0:0|0:0,0:0:0:0:
224,88,78999,2,0,L|104:88,1,99.0000030212403,8|0,0:0|0:0,0:0:0:0:
328,160,79336,1,8,0:0:0:0:
368,144,79420,1,0,0:0:0:0:
408,112,79504,1,0,0:0:0:0:
480,48,79673,1,0,0:0:0:0:
224,144,79842,6,0,L|24:136,1,198.000006042481,8|0,0:0|0:0,0:0:0:0:
96,176,80347,2,0,L|240:176,1,99.0000030212403,8|0,0:0|0:0,0:0:0:0:
368,312,80684,1,8,0:0:0:0:
304,296,80768,1,0,0:0:0:0:
264,256,80853,1,0,0:0:0:0:
256,200,80937,1,0,0:0:0:0:
272,136,81021,1,8,0:0:0:0:
320,104,81106,1,0,0:0:0:0:
384,80,81190,1,0,0:0:0:0:
448,72,81274,1,0,0:0:0:0:
504,72,81358,5,4,0:0:0:0:
344,184,81527,1,0,0:0:0:0:
168,288,81695,2,0,L|152:184,1,99.0000030212403,8|0,0:0|0:0,0:0:0:0:
320,184,82033,2,2,L|200:184,1,99.0000030212403,10|2,0:0|0:0,0:0:0:0:
392,184,82370,2,0,L|416:64,1,99.0000030212403,8|4,0:0|0:0,0:0:0:0:
192,72,82875,5,8,0:0:0:0:
336,64,83044,1,2,0:0:0:0:
312,48,83128,1,2,0:0:0:0:
272,32,83212,1,2,0:0:0:0:
136,24,83381,1,2,0:0:0:0:
400,24,83549,1,8,0:0:0:0:
200,144,84055,5,8,0:0:0:0:
304,144,84224,1,8,0:0:0:0:
184,192,84392,1,0,0:0:0:0:
328,192,84561,1,0,0:0:0:0:
160,248,84729,1,8,0:0:0:0:
344,240,84898,2,0,L|352:152,1,74.2500022659302,2|0,0:0|0:0,0:0:0:0:
144,296,85235,5,12,0:0:0:0:
256,192,85403,8,0,88437,0:0:0:0:
