osu file format v14

[General]
AudioFilename: killme.mp3
AudioLeadIn: 0
PreviewTime: 51358
Countdown: 0
SampleSet: Soft
StackLeniency: 0.7
Mode: 2
LetterboxInBreaks: 0
WidescreenStoryboard: 0

[Editor]
Bookmarks: 122
DistanceSpacing: 1.7
BeatDivisor: 2
GridSize: 8
TimelineZoom: 2.4

[Metadata]
Title:ambiguous (TV Size ver.)
TitleUnicode:ambiguous (TV Size ver.)
Artist:GARNiDELiA
ArtistUnicode:GARNiDELiA
Creator:Sakary
Version:Cup
Source:キルラキル
Tags:kill la opening toku maria matoi hi_hello
BeatmapID:848651
BeatmapSetID:389134

[Difficulty]
HPDrainRate:3
CircleSize:2.8
OverallDifficulty:5.5
ApproachRate:5.5
SliderMultiplier:1.4
SliderTickRate:2

[Events]
//Background and Video events
0,0,"kill.jpg",0,0
//Break Periods
//Storyboard Layer 0 (Background)
//Storyboard Layer 1 (Fail)
//Storyboard Layer 2 (Pass)
//Storyboard Layer 3 (Foreground)
//Storyboard Layer 4 (Overlay)
//Storyboard Sound Samples

[TimingPoints]
460,337.078651685393,4,2,1,50,1,0
460,-133.333333333333,4,2,1,50,0,0
8044,-66.6666666666667,4,1,1,70,0,0
8549,-100,4,2,1,70,0,0
18830,-133.333333333333,4,2,1,70,0,0
24729,-90.9090909090909,4,2,1,70,0,0
25066,-90.9090909090909,4,2,2,70,0,0
25235,-90.9090909090909,4,2,1,70,0,0
26415,-90.9090909090909,4,2,2,70,0,0
26583,-90.9090909090909,4,2,1,70,0,0
29785,-90.9090909090909,4,2,1,70,0,0
40740,-100,4,2,1,70,0,0
49673,-100,4,2,2,70,0,0
49842,-100,4,2,1,70,0,0
51358,-111.111111111111,4,1,1,70,0,0
51695,-83.3333333333333,4,2,3,70,0,1
51780,-83.3333333333333,4,2,1,90,0,1
54982,-100,4,2,1,90,0,1
59448,-100,4,2,2,90,0,1
59617,-100,4,2,1,90,0,1
61302,-100,4,2,2,90,0,1
61808,-100,4,2,2,90,0,0
62145,-100,4,2,1,90,0,0
62482,-100,4,2,1,90,0,1
68212,-100,4,2,2,90,0,1
68381,-100,4,2,1,90,0,1
68549,-100,4,2,2,90,0,1
68718,-100,4,2,1,90,0,1
69561,-100,4,2,2,90,0,1
69729,-100,4,2,1,90,0,1
69898,-100,4,2,2,90,0,1
70066,-100,4,2,1,90,0,1
70235,-100,4,2,2,90,0,1
70403,-100,4,2,1,90,0,1
72930,-76.9230769230769,4,1,1,90,0,1
73183,-90.9090909090909,4,2,1,90,0,1
73268,-100,4,2,1,90,0,0
73437,-100,4,2,1,70,0,0
82875,-100,4,2,2,70,0,0
83044,-100,4,2,1,70,0,0
84813,-181.818181818181,4,2,1,70,0,0

[Colours]
Combo1 : 255,128,0
Combo2 : 192,192,192
Combo3 : 255,0,0
Combo4 : 128,128,128

[HitObjects]
232,360,460,6,0,B|304:264|240:208|240:208|168:136|288:24,1,367.500014019013,2|0,0:0|0:0,0:0:0:0:
328,32,1808,2,0,P|368:88|176:192,1,367.500014019013,2|0,0:0|0:0,0:0:0:0:
152,160,3156,6,0,P|160:104|296:216,1,367.500014019013,2|0,0:0|0:0,0:0:0:0:
248,216,4504,1,2,0:0:0:0:
152,216,5179,1,0,0:0:0:0:
56,216,5853,1,2,0:0:0:0:
256,192,6190,8,8,8212,0:0:0:0:
368,280,8549,6,0,L|344:112,1,140,4|8,0:0|0:0,0:0:0:0:
192,264,9224,2,0,L|221:128,1,140,2|0,0:0|0:0,0:0:0:0:
312,128,9729,6,0,P|384:112|480:-8,1,210,8|8,0:0|0:0,0:0:0:0:
288,104,10572,2,0,L|304:256,1,140,2|2,0:0|0:0,0:0:0:0:
432,168,11246,6,0,L|417:308,1,140,2|8,0:0|0:0,0:0:0:0:
272,96,11920,2,0,L|296:264,1,140,2|0,0:0|0:0,0:0:0:0:
384,248,12426,6,0,P|424:168|344:88,1,210,8|8,0:0|0:0,0:0:0:0:
192,96,13268,2,0,L|32:104,1,140,2|2,0:0|0:0,0:0:0:0:
192,296,13943,6,0,L|216:128,1,140,4|8,0:0|0:0,0:0:0:0:
360,240,14618,2,0,L|332:104,1,140,2|0,0:0|0:0,0:0:0:0:
248,248,15123,6,0,P|176:232|80:112,1,210,8|8,0:0|0:0,0:0:0:0:
240,104,15966,2,0,L|224:256,1,140,2|2,0:0|0:0,0:0:0:0:
104,164,16640,6,0,L|120:304,1,140,2|8,0:0|0:0,0:0:0:0:
240,96,17313,2,0,L|216:264,1,140,2|2,0:0|0:0,0:0:0:0:
128,256,17820,6,0,P|88:176|168:96,1,210,8|8,0:0|0:0,0:0:0:0:
312,88,18662,2,0,L|368:136,1,70,2|8,0:0|0:0,0:0:0:0:
312,208,19336,5,4,0:0:0:0:
208,216,19673,1,0,0:0:0:0:
208,216,20010,2,0,L|192:88,1,105.000004005432,2|0,0:0|0:0,0:0:0:0:
288,104,20516,2,0,P|352:152|320:216,1,157.500006008148,8|8,0:0|0:0,0:0:0:0:
240,232,21190,2,0,L|80:200,1,157.500006008148,2|8,0:0|0:0,0:0:0:0:
232,312,22033,6,0,P|320:288|232:152,1,315.000012016297,2|8,0:0|0:0,0:0:0:0:
160,152,23212,1,8,0:0:0:0:
88,144,23381,6,0,L|216:152,1,105.000004005432,2|8,0:0|0:0,0:0:0:0:
328,208,24055,2,0,L|224:216,1,105.000004005432,2|8,0:0|0:0,0:0:0:0:
376,312,24729,6,0,P|448:264|336:104,1,308.000009399414,4|0,0:0|0:0,0:0:0:0:
256,88,25740,1,8,0:0:0:0:
144,96,26077,6,0,P|72:152|192:304,1,308.000009399414
320,296,27089,1,8,0:0:0:0:
408,296,27257,6,0,P|440:240|344:112,1,231.000007049561,2|8,0:0|0:0,0:0:0:0:
256,112,28100,1,0,0:0:0:0:
128,128,28437,1,8,0:0:0:0:
224,144,28606,6,0,P|264:192|184:312,1,231.000007049561,2|8,0:0|0:0,0:0:0:0:
96,320,29448,1,2,0:0:0:0:
96,320,29785,1,8,0:0:0:0:
96,320,30122,6,0,L|72:136,1,154.000004699707,4|8,0:0|0:0,0:0:0:0:
176,144,30628,2,0,P|224:192|160:328,1,231.000007049561,2|8,0:0|0:0,0:0:0:0:
336,320,31471,6,0,L|504:288,1,154.000004699707,2|8,0:0|0:0,0:0:0:0:
360,224,32145,2,0,L|208:176,1,154.000004699707,0|8,0:0|0:0,0:0:0:0:
384,64,32819,6,0,P|352:120|328:56,1,154.000004699707,2|8,0:0|0:0,0:0:0:0:
400,64,33325,2,0,P|424:112|304:208,1,231.000007049561,2|8,0:0|0:0,0:0:0:0:
184,192,34167,5,0,0:0:0:0:
56,168,34504,1,8,0:0:0:0:
192,128,34842,5,0,0:0:0:0:
320,96,35179,1,8,0:0:0:0:
440,48,35516,6,0,P|440:136|392:192,1,154.000004699707,2|8,0:0|0:0,0:0:0:0:
304,200,36021,2,0,L|136:192,1,154.000004699707,2|0,0:0|0:0,0:0:0:0:
40,192,36527,1,8,0:0:0:0:
176,264,36864,6,8,L|336:272,1,154.000004699707,2|8,0:0|0:0,0:0:0:0:
416,272,37370,2,0,P|456:200|408:136,1,154.000004699707,2|0,0:0|0:0,0:0:0:0:
320,144,37875,1,8,0:0:0:0:
168,160,38212,6,0,L|184:0,1,154.000004699707,0|8,0:0|0:0,0:0:0:0:
320,96,38886,2,0,L|304:264,1,154.000004699707,2|8,0:0|0:0,0:0:0:0:
184,304,39561,6,0,L|200:144,1,154.000004699707,2|8,0:0|0:0,0:0:0:0:
304,168,40235,2,0,P|336:232|208:288,1,231.000007049561,2|4,0:0|0:0,0:0:0:0:
64,320,41583,6,0,L|128:96,1,210,8|4,0:0|0:0,0:0:0:0:
256,72,42931,1,8,0:0:0:0:
464,352,43437,6,0,L|384:8,1,350,4|8,0:0|0:0,0:0:0:0:
240,64,44785,2,0,P|224:176|264:64,1,350,4|8,0:0|0:0,0:0:0:0:
112,48,46134,6,0,P|72:136|240:304,1,350,4|8,0:0|0:0,0:0:0:0:
376,368,47482,2,0,L|216:48,1,350,4|8,0:0|0:0,0:0:0:0:
328,32,48830,2,0,P|408:72|184:200,1,560,4|0,0:0|0:0,0:0:0:0:
256,192,50516,8,0,51358,0:0:0:0:
304,312,51695,6,0,L|320:112,1,167.999994873047,2|8,0:0|0:0,0:0:0:0:
176,256,52370,2,0,L|160:80,1,167.999994873047,2|8,0:0|0:0,0:0:0:0:
280,56,53044,6,0,L|304:240,1,167.999994873047,0|8,0:0|0:0,0:0:0:0:
176,152,53718,2,0,L|200:344,1,167.999994873047,2|8,0:0|0:0,0:0:0:0:
328,336,54392,6,0,P|392:232|320:160,1,167.999994873047,4|8,0:0|0:0,0:0:0:0:
264,200,55066,2,0,L|104:208,1,140,2|8,0:0|0:0,0:0:0:0:
256,256,55740,6,0,L|224:80,1,140,0|8,0:0|0:0,0:0:0:0:
112,120,56415,2,0,L|144:288,1,140,2|8,0:0|0:0,0:0:0:0:
248,296,57089,6,0,L|424:272,1,140,4|8,0:0|0:0,0:0:0:0:
480,224,57763,2,0,L|496:72,1,140,2|8,0:0|0:0,0:0:0:0:
392,24,58437,6,0,L|368:192,1,140,0|8,0:0|0:0,0:0:0:0:
272,128,59111,2,0,P|232:168|368:328,1,280,2|4,0:0|0:0,0:0:0:0:
432,336,60122,1,8,0:0:0:0:
432,336,60459,6,0,L|456:176,1,140,0|8,0:0|0:0,0:0:0:0:
320,96,61134,2,0,P|192:120|344:264,1,420,2|8,0:0|0:0,0:0:0:0:
456,240,62482,6,0,L|288:232,1,140,4|8,0:0|0:0,0:0:0:0:
216,232,63156,2,0,L|248:48,1,140,2|8,0:0|0:0,0:0:0:0:
360,48,63830,6,0,L|328:208,1,140,0|8,0:0|0:0,0:0:0:0:
176,192,64504,2,0,L|208:32,1,140,2|8,0:0|0:0,0:0:0:0:
304,112,65179,6,0,L|272:280,1,140,4|8,0:0|0:0,0:0:0:0:
176,280,65853,2,0,L|8:312,1,140,2|8,0:0|0:0,0:0:0:0:
38,306,66358,1,4,0:0:0:0:
168,320,67033,1,4,0:0:0:0:
296,328,67707,1,8,0:0:0:0:
384,336,67875,6,0,P|432:288|248:80,1,420,4|8,0:0|0:0,0:0:0:0:
184,104,69055,2,0,P|128:176|376:168,1,560
352,120,70572,6,0,L|304:296,1,140,4|8,0:0|0:0,0:0:0:0:
232,272,71077,2,0,L|280:112,1,140,2|8,0:0|0:0,0:0:0:0:
392,112,71752,5,2,0:0:0:0:
488,80,72089,1,8,0:0:0:0:
336,64,72426,5,2,0:0:0:0:
184,48,72763,2,0,L|136:112,1,70,8|4,0:0|0:0,0:0:0:0:
296,280,73268,6,0,L|272:112,1,140,4|8,0:0|0:0,0:0:0:0:
152,264,73943,2,0,L|181:128,1,140,0|8,0:0|0:0,0:0:0:0:
272,136,74448,6,0,P|344:120|440:0,1,210,8|8,0:0|0:0,0:0:0:0:
288,104,75291,2,0,L|304:256,1,140,2|8,0:0|0:0,0:0:0:0:
432,168,75965,6,0,L|417:308,1,140,4|8,0:0|0:0,0:0:0:0:
272,96,76639,2,0,L|296:264,1,140,0|8,0:0|0:0,0:0:0:0:
384,248,77145,6,0,P|424:168|344:88,1,210,8|8,0:0|0:0,0:0:0:0:
192,96,77988,2,0,L|32:104,1,140,2|8,0:0|0:0,0:0:0:0:
192,296,78662,6,0,L|216:128,1,140,4|8,0:0|0:0,0:0:0:0:
360,240,79336,2,0,L|332:104,1,140,2|8,0:0|0:0,0:0:0:0:
248,248,79842,6,0,P|176:232|80:112,1,210,8|8,0:0|0:0,0:0:0:0:
240,104,80685,2,0,L|224:256,1,140,2|8,0:0|0:0,0:0:0:0:
104,164,81359,6,0,L|120:304,1,140,0|8,0:0|0:0,0:0:0:0:
240,96,82033,2,0,L|216:264,1,140,2|8,0:0|0:0,0:0:0:0:
128,256,82539,6,0,P|88:176|168:96,1,210,2|0,0:0|0:0,0:0:0:0:
240,96,83212,1,0,0:0:0:0:
320,96,83381,2,0,L|400:96,1,70,8|2,0:0|0:0,0:0:0:0:
248,272,84055,5,8,0:0:0:0:
168,248,84224,1,8,0:0:0:0:
144,168,84392,5,0,0:0:0:0:
192,96,84561,1,0,0:0:0:0:
280,88,84729,5,8,0:0:0:0:
368,88,84898,1,8,0:0:0:0:
496,88,85235,1,4,0:0:0:0:
256,192,85572,8,0,88437,0:0:0:0:
