osu file format v14

[General]
AudioFilename: audio.mp3
AudioLeadIn: 0
PreviewTime: 135590
Countdown: 0
SampleSet: Soft
StackLeniency: 0.7
Mode: 0
LetterboxInBreaks: 0
WidescreenStoryboard: 0

[Editor]
Bookmarks: 116423,140590
DistanceSpacing: 0.9
BeatDivisor: 6
GridSize: 4
TimelineZoom: 2.3

[Metadata]
Title:Yakusoku -Promise code-
TitleUnicode:約束 -Promise code-
Artist:GARNiDELiA
ArtistUnicode:GARNiDELiA
Creator:Yasaija 714
Version:Extra
Source:クオリディア・コード
Tags:Qualidea Code ed2 Meg image-- _kotachi_ Mir Kyuukai
BeatmapID:1536487
BeatmapSetID:727714

[Difficulty]
HPDrainRate:6
CircleSize:4
OverallDifficulty:8
ApproachRate:9.2
SliderMultiplier:1.7
SliderTickRate:1

[Events]
//Background and Video events
0,0,"yakusoku.jpg",0,0
//Break Periods
2,44502,53399
2,117229,126126
2,187532,196459
//Storyboard Layer 0 (Background)
//Storyboard Layer 1 (Fail)
//Storyboard Layer 2 (Pass)
//Storyboard Layer 3 (Foreground)
//Storyboard Sound Samples

[TimingPoints]
666,303.030303030303,4,2,3,50,1,0
10059,-133.333333333333,4,2,4,50,0,0
14908,-200,4,2,1,60,0,0
15211,-100,4,2,1,60,0,0
23847,-83.3333333333333,4,2,1,60,0,0
24302,-133.333333333333,4,2,1,60,0,0
24908,-111.111111111111,4,2,1,60,0,0
33696,-83.3333333333333,4,2,1,60,0,0
33999,-100,4,2,1,60,0,0
34605,-100,4,2,1,60,0,0
44302,-200,4,2,1,50,0,0
53999,-200,4,2,4,60,0,0
58847,-100,4,2,1,60,0,0
59453,-100,4,2,1,60,0,0
63696,-83.3333333333333,4,2,1,70,0,1
81726,-66.6666666666667,4,2,1,70,0,1
82029,-83.3333333333333,4,2,1,70,0,1
86726,-100,4,2,1,70,0,1
87938,-100,4,2,1,60,0,0
92181,-76.9230769230769,4,2,1,60,0,0
92787,-100,4,2,1,60,0,0
97029,-200,4,2,1,60,0,0
97635,-200,4,2,4,60,0,0
106120,-133.333333333333,4,2,4,60,0,0
106878,-100,4,2,1,60,0,0
107332,-100,4,2,1,60,0,0
111726,-133.333333333333,4,2,1,60,0,0
112181,-100,4,2,1,60,0,0
117029,-100,4,2,1,50,0,0
121272,-100,4,2,1,50,0,0
126726,-200,4,2,4,50,0,0
131575,-100,4,2,1,60,0,0
136423,-83.3333333333333,4,2,1,70,0,1
154453,-66.6666666666667,4,2,1,70,0,1
154756,-83.3333333333333,4,2,1,70,0,1
159453,-100,4,2,1,70,0,1
160665,-100,4,2,1,60,0,0
160969,-90.9090909090909,4,2,1,60,0,0
161272,-100,4,2,1,60,0,0
162787,-83.3333333333333,4,2,1,60,0,0
163090,-100,4,2,1,60,0,0
164302,-76.9230769230769,4,2,1,60,0,0
164908,-76.9230769230769,4,2,1,60,0,0
165211,-66.6666666666667,4,2,1,60,0,0
165514,-100,4,2,1,60,0,0
166120,-76.9230769230769,4,2,1,60,0,0
166423,-66.6666666666667,4,2,1,60,0,0
166726,-100,4,2,1,60,0,0
167029,-90.9090909090909,4,2,1,60,0,0
167332,-83.3333333333333,4,2,1,60,0,0
167635,-66.6666666666667,4,2,1,60,0,0
167938,-76.9230769230769,4,2,1,60,0,0
169150,-100,4,2,1,60,0,0
172181,-72.992700729927,4,2,2,60,0,0
172484,-100,4,2,1,60,0,0
173999,-100,4,2,2,60,0,0
174302,-100,4,2,1,60,0,0
180059,-100,4,2,1,60,0,0
197029,-200,4,2,1,60,0,0
200665,-100,4,2,1,60,0,0
201878,-100,4,2,1,60,0,0
204302,-133.333333333333,4,2,1,60,0,0
206726,-100,4,2,1,60,0,0
209150,-80,4,2,1,80,0,1
219150,-66.6666666666667,4,2,1,80,0,1
219302,-80,4,2,1,80,0,1
220362,-66.6666666666667,4,2,1,80,0,1
220514,-80,4,2,1,80,0,1
227181,-59.8802395209581,4,2,1,80,0,1
227484,-66.6666666666667,4,2,1,80,0,1
227635,-80,4,2,1,80,0,1
228544,-80,4,2,1,80,0,1
233393,-80,4,2,1,80,0,1
238241,-133.333333333333,4,2,1,70,0,0
242635,-83.3333333333333,4,2,1,70,0,0
243090,-100,4,2,1,70,0,0
247332,-76.9230769230769,4,2,1,70,0,0
247938,-100,4,2,1,70,0,0
251423,-100,4,2,1,70,0,0
251878,-100,4,2,1,30,0,0

[Colours]
Combo1 : 107,151,104
Combo2 : 193,172,210
Combo3 : 194,156,114
Combo4 : 153,170,183

[HitObjects]
340,96,10059,6,0,L|344:168,1,63.7500024318696,0|0,0:0|0:0,0:0:0:0:
240,192,10362,2,0,L|252:60,1,127.500004863739,2|0,0:0|0:0,0:0:0:0:
380,17,10817,2,0,P|430:75|421:130,1,127.500004863739,2|0,0:0|0:0,0:0:0:0:
349,203,11272,1,0,0:0:0:0:
349,203,11423,2,0,L|360:329,1,127.500004863739,2|0,0:0|0:0,0:0:0:0:
457,368,11878,2,0,P|474:341|486:295,1,63.7500024318696,0|2,0:0|0:0,0:0:0:0:
443,232,12181,1,0,0:0:0:0:
282,290,12332,2,0,P|213:305|149:292,1,127.500004863739,2|0,0:0|0:0,0:0:0:0:
86,225,12787,6,0,P|74:129|161:116,1,191.250007295609,2|2,0:0|0:0,0:0:0:0:
149,109,13393,2,0,P|238:122|304:110,1,127.500004863739,2|0,0:0|0:0,0:0:0:0:
332,91,13847,2,0,P|298:110|263:119,1,63.7500024318696,2|2,0:0|0:0,0:0:0:0:
54,40,14908,6,0,L|65:118,1,63.75,8|0,0:0|0:0,0:0:0:0:
50,201,15211,6,0,P|105:179|146:177,1,85,6|0,0:0|0:0,0:0:0:0:
272,180,15514,2,0,P|257:274|257:328,1,127.5,8|0,0:0|0:0,0:0:0:0:
302,372,15817,1,2,0:0:0:0:
164,285,15969,1,2,0:0:0:0:
342,219,16120,2,0,P|348:261|350:313,1,85,8|2,0:0|0:0,0:0:0:0:
200,366,16423,5,0,0:0:0:0:
120,212,16575,2,0,P|160:200|212:213,2,85,2|8|0,0:0|0:0|0:0,0:0:0:0:
30,347,17029,2,0,P|16:296|11:253,1,85,2|2,0:0|0:0,0:0:0:0:
74,84,17332,2,0,P|60:135|55:178,1,85,8|0,0:0|0:0,0:0:0:0:
128,327,17635,5,2,0:0:0:0:
120,212,17787,1,0,0:0:0:0:
226,340,17938,2,0,P|281:317|325:314,1,85,8|0,0:0|0:0,0:0:0:0:
503,316,18241,2,0,P|448:339|404:342,1,85,2|2,0:0|0:0,0:0:0:0:
268,229,18544,1,8,0:0:0:0:
428,58,18696,6,0,P|449:124|419:218,1,170,2|2,0:0|0:0,0:0:0:0:
285,310,19150,2,0,P|267:250|268:219,1,85,8|0,0:0|0:0,0:0:0:0:
327,146,19453,1,2,0:0:0:0:
383,334,19605,1,2,0:0:0:0:
196,285,19756,1,8,0:0:0:0:
419,217,19908,2,0,L|372:206,1,42.5,8|8,0:0|0:0,0:0:0:0:
246,141,20059,6,0,P|260:80|276:53,1,85,6|0,0:0|0:0,0:0:0:0:
479,108,20362,2,0,P|419:126|387:126,1,85,8|0,0:0|0:0,0:0:0:0:
270,60,20666,1,2,0:0:0:0:
239,227,20817,1,2,0:0:0:0:
419,217,20969,1,8,0:0:0:0:
246,141,21120,6,0,P|180:141|75:170,1,170,2|2,0:0|0:0,0:0:0:0:
16,370,21575,1,8,0:0:0:0:
110,245,21726,1,0,0:0:0:0:
293,363,21878,1,2,0:0:0:0:
199,238,22029,1,2,0:0:0:0:
16,370,22181,2,0,P|8:320|11:262,1,85,8|2,0:0|0:0,0:0:0:0:
367,137,22635,5,8,0:0:0:0:
293,363,22787,1,8,0:0:0:0:
481,221,22938,1,2,0:0:0:0:
161,195,23090,5,8,0:0:0:0:
434,309,23241,1,2,0:0:0:0:
309,69,23393,1,8,0:0:0:0:
293,363,23544,6,0,P|231:349|133:364,1,127.5,0|0,1:0|0:0,0:0:0:0:
89,305,23847,6,0,P|189:274|257:277,1,152.999995330811,0|0,1:0|0:0,0:0:0:0:
345,299,24150,1,2,0:0:0:0:
180,184,24302,6,0,P|263:174|216:274,1,223.125008511544,4|0,0:0|0:0,0:0:0:0:
107,238,24908,6,0,P|92:200|95:152,1,76.4999976654053,6|0,0:0|0:0,0:0:0:0:
140,71,25211,2,0,L|226:77,1,76.4999976654053,2|0,0:0|0:0,0:0:0:0:
289,154,25514,2,0,L|375:148,1,76.4999976654053,2|0,0:0|0:0,0:0:0:0:
451,87,25817,1,2,0:0:0:0:
448,218,25969,1,0,0:0:0:0:
370,68,26120,6,0,L|293:62,1,76.4999976654053,2|0,0:0|0:0,0:0:0:0:
209,153,26423,2,0,P|209:191|224:226,1,76.4999976654053,2|0,0:0|0:0,0:0:0:0:
337,271,26726,2,0,P|336:309|321:344,1,76.4999976654053,2|0,0:0|0:0,0:0:0:0:
204,374,27029,1,2,0:0:0:0:
114,290,27181,1,0,0:0:0:0:
114,290,27256,1,2,0:0:0:0:
114,290,27332,6,0,L|38:297,1,76.4999976654053,2|0,0:0|0:0,0:0:0:0:
147,219,27635,2,0,L|223:226,1,76.4999976654053,2|0,0:0|0:0,0:0:0:0:
337,271,27938,2,0,P|329:219|331:179,1,76.4999976654053,2|0,0:0|0:0,0:0:0:0:
398,95,28241,1,2,0:0:0:0:
473,192,28393,1,0,0:0:0:0:
314,101,28544,6,0,P|258:116|230:117,1,76.4999976654053,2|0,0:0|0:0,0:0:0:0:
134,43,28847,2,0,P|138:80|150:117,1,76.4999976654053,2|0,0:0|0:0,0:0:0:0:
223,226,29150,1,2,0:0:0:0:
92,195,29302,2,0,P|36:180|8:179,1,76.4999976654053,2|2,3:0|0:0,0:0:0:0:
1,296,29605,1,0,0:0:0:0:
1,296,29681,1,2,0:0:0:0:
1,296,29756,6,0,P|43:291|87:292,1,76.4999976654053,6|0,0:0|0:0,0:0:0:0:
172,360,30059,2,0,P|169:302|175:251,1,76.4999976654053,2|0,0:0|0:0,0:0:0:0:
224,149,30362,2,0,P|221:207|227:258,1,76.4999976654053,2|0,0:0|0:0,0:0:0:0:
266,344,30665,1,2,0:0:0:0:
318,216,30817,1,0,0:0:0:0:
318,216,30893,1,2,0:0:0:0:
318,216,30969,6,0,P|360:221|404:220,1,76.4999976654053,2|0,0:0|0:0,0:0:0:0:
470,124,31272,1,2,0:0:0:0:
492,266,31423,1,0,0:0:0:0:
356,133,31575,2,0,P|317:133|279:137,1,76.4999976654053,2|0,0:0|0:0,0:0:0:0:
279,137,31802,1,0,0:0:0:0:
279,137,31878,1,2,0:0:0:0:
213,247,32029,1,0,0:0:0:0:
213,247,32105,1,0,0:0:0:0:
213,247,32181,6,0,P|220:286|228:326,1,76.4999976654053,2|0,0:0|0:0,0:0:0:0:
110,361,32484,2,0,P|117:323|124:285,1,76.4999976654053,2|0,0:0|0:0,0:0:0:0:
173,176,32787,2,0,P|99:195|18:178,1,152.999995330811,2|2,0:0|0:0,0:0:0:0:
0,88,33241,1,0,0:0:0:0:
0,88,33317,1,0,0:0:0:0:
0,88,33393,6,0,P|36:82|78:74,1,76.4999976654053,2|0,0:0|0:0,0:0:0:0:
172,23,33696,2,0,P|170:110|173:181,1,152.999995330811,2|0,3:0|0:0,0:0:0:0:
214,252,33999,5,8,0:0:0:0:
246,236,34075,1,8,0:0:0:0:
283,230,34150,1,8,0:0:0:0:
320,236,34226,1,8,0:0:0:0:
352,256,34302,1,8,0:0:0:0:
214,252,34605,6,0,P|203:195|201:156,1,85,6|0,0:0|0:0,0:0:0:0:
285,56,34908,1,8,0:0:0:0:
289,157,35059,1,0,0:0:0:0:
172,23,35211,2,0,P|98:26|56:40,1,85,2|2,0:0|0:0,0:0:0:0:
18,158,35514,1,8,0:0:0:0:
112,274,35665,6,0,P|194:253|298:261,1,170,0|0,0:0|0:0,0:0:0:0:
401,365,36120,2,0,P|378:329|360:290,1,85,8|0,0:0|0:0,0:0:0:0:
393,130,36423,2,0,P|373:167|348:201,1,85,2|2,0:0|0:0,0:0:0:0:
212,215,36726,1,8,0:0:0:0:
212,358,36878,1,0,0:0:0:0:
212,358,36953,1,0,0:0:0:0:
212,358,37029,6,0,P|256:349|299:350,1,85,2|0,0:0|0:0,0:0:0:0:
401,365,37332,1,8,0:0:0:0:
278,256,37484,1,0,0:0:0:0:
432,229,37635,1,2,0:0:0:0:
295,349,37787,1,2,0:0:0:0:
342,167,37938,2,0,P|332:114|319:73,1,85,8|0,0:0|0:0,0:0:0:0:
176,34,38241,5,2,0:0:0:0:
212,182,38393,1,0,0:0:0:0:
69,88,38544,1,8,0:0:0:0:
33,236,38696,1,0,0:0:0:0:
222,280,38847,2,0,P|269:268|314:268,1,85,2|2,0:0|0:0,0:0:0:0:
376,355,39150,1,8,0:0:0:0:
202,367,39302,1,0,0:0:0:0:
202,367,39378,1,0,0:0:0:0:
202,367,39453,6,0,P|152:358|112:349,1,85,6|0,0:0|0:0,0:0:0:0:
34,235,39756,1,8,0:0:0:0:
136,166,39908,1,0,0:0:0:0:
30,75,40059,2,0,P|37:119|43:163,1,85,2|2,0:0|0:0,0:0:0:0:
103,331,40362,2,0,P|108:288|115:246,1,85,8|0,0:0|0:0,0:0:0:0:
244,159,40665,5,2,0:0:0:0:
256,292,40817,1,0,0:0:0:0:
136,166,40969,1,8,0:0:0:0:
103,331,41120,1,0,0:0:0:0:
298,364,41272,2,0,P|332:327|337:283,1,85,2|2,0:0|0:0,0:0:0:0:
168,265,41575,1,8,0:0:0:0:
220,371,41726,2,0,L|226:308,1,42.5,0|0,0:0|0:0,0:0:0:0:
244,159,41878,6,0,P|314:163|362:155,1,85,2|0,0:0|0:0,0:0:0:0:
213,65,42181,1,8,0:0:0:0:
136,166,42332,1,0,0:0:0:0:
328,161,42484,2,0,L|381:231,1,85,2|2,0:0|0:0,0:0:0:0:
84,233,42787,2,0,L|136:166,1,85,8|0,0:0|0:0,0:0:0:0:
235,305,43090,5,2,0:0:0:0:
88,352,43241,1,0,0:0:0:0:
245,220,43393,2,0,L|234:309,1,85,8|0,0:0|0:0,0:0:0:0:
55,214,43696,5,8,0:0:0:0:
88,352,43847,1,8,0:0:0:0:
169,204,43999,1,2,0:0:0:0:
10,145,44150,1,8,0:0:0:0:
201,97,44302,5,2,0:1:0:0:
300,107,53999,6,0,P|188:89|76:185,1,255,6|0,0:0|0:0,0:0:0:0:
150,204,55211,2,0,B|168:161|231:145|275:180|275:180|319:186|356:170|365:138,1,255,2|0,0:0|0:0,0:0:0:0:
300,107,56423,2,0,P|352:67|410:196,1,255,2|0,0:0|0:0,0:0:0:0:
387,283,57635,6,0,P|333:281|297:288,1,85,2|0,0:0|0:0,0:0:0:0:
223,317,58241,2,0,P|171:333|140:352,1,85,2|0,0:0|0:0,0:0:0:0:
61,338,58696,1,0,0:0:0:0:
61,338,58772,1,0,0:0:0:0:
61,338,58847,6,0,P|53:284|53:245,1,85,12|0,0:0|0:0,0:0:0:0:
85,139,59150,2,0,P|130:142|176:140,1,85,2|0,0:0|0:0,0:0:0:0:
275,32,59453,6,0,L|322:43,2,42.5,8|0|0,0:0|0:0|0:0,0:0:0:0:
429,102,59756,2,0,L|382:113,2,42.5,8|0|0,0:0|0:0|0:0,0:0:0:0:
240,160,60059,2,0,L|287:171,2,42.5,8|0|0,0:0|0:0|0:0,0:0:0:0:
464,230,60362,2,0,L|417:241,2,42.5,8|0|0,0:0|0:0|0:0,0:0:0:0:
205,288,60665,2,0,L|252:299,2,42.5,8|0|0,0:0|0:0|0:0,0:0:0:0:
499,358,60969,2,0,L|452:369,2,42.5,10|2|2,0:0|0:0|0:0,0:0:0:0:
174,383,61272,5,8,0:0:0:0:
464,230,61423,1,8,0:0:0:0:
499,358,61726,5,8,0:0:0:0:
205,288,61878,1,8,0:0:0:0:
240,160,62181,5,8,0:0:0:0:
429,102,62332,1,8,0:0:0:0:
275,32,63696,6,0,P|211:97|92:109,1,203.999993774414,6|8,0:0|0:0,0:0:0:0:
8,65,64150,1,0,0:0:0:0:
8,65,64226,1,0,0:0:0:0:
8,65,64302,2,0,P|9:117|18:168,1,101.999996887207,2|2,0:0|0:0,0:0:0:0:
107,298,64605,1,8,0:0:0:0:
256,177,64756,1,0,0:0:0:0:
84,19,64908,6,0,P|84:113|112:230,1,203.999993774414,2|8,0:0|0:0,0:0:0:0:
200,312,65362,1,0,0:0:0:0:
206,109,65514,2,0,P|258:97|311:113,1,101.999996887207,2|2,0:0|0:0,0:0:0:0:
471,227,65817,2,0,P|419:239|366:223,1,101.999996887207,8|0,0:0|0:0,0:0:0:0:
160,44,66120,6,0,P|244:20|361:53,1,203.999993774414,6|8,0:0|0:0,0:0:0:0:
421,149,66575,1,0,0:0:0:0:
256,177,66726,2,0,P|259:216|275:291,1,101.999996887207,2|2,0:0|0:0,0:0:0:0:
370,346,67029,1,8,0:0:0:0:
193,370,67181,1,0,0:0:0:0:
193,370,67256,1,0,0:0:0:0:
193,370,67332,6,0,P|137:356|88:357,1,101.999996887207,2|0,0:0|0:0,0:0:0:0:
5,256,67635,1,8,0:0:0:0:
154,156,67787,2,0,L|52:137,1,101.999996887207,0|2,0:0|0:0,0:0:0:0:
199,272,68090,1,2,0:0:0:0:
21,366,68241,1,8,0:0:0:0:
98,219,68393,1,0,0:0:0:0:
257,336,68544,6,0,B|304:360|304:360|354:364|401:316|401:252,1,203.999993774414,6|8,0:0|0:0,0:0:0:0:
345,117,68999,1,0,0:0:0:0:
150,214,69150,2,0,P|165:165|199:128,1,101.999996887207,2|2,0:0|0:0,0:0:0:0:
400,263,69453,2,0,P|385:312|351:349,1,101.999996887207,8|0,0:0|0:0,0:0:0:0:
186,357,69756,6,0,B|136:349|136:349|90:370|90:370|95:307|49:258,1,203.999993774414,2|8,0:0|0:0,0:0:0:0:
4,192,70211,1,0,0:0:0:0:
199,129,70362,2,0,P|157:158|129:200,1,101.999996887207,2|0,0:0|0:0,0:0:0:0:
90,370,70665,1,8,0:0:0:0:
236,298,70817,1,0,0:0:0:0:
128,102,70969,6,0,B|114:151|114:151|130:204,1,101.999996887207,6|0,0:0|0:0,0:0:0:0:
311,73,71272,2,0,B|325:122|325:122|310:170,1,101.999996887207,8|0,0:0|0:0,0:0:0:0:
150,296,71575,1,2,0:0:0:0:
300,272,71726,1,0,0:0:0:0:
129,277,71878,1,8,0:0:0:0:
308,251,72029,1,0,0:0:0:0:
88,350,72181,6,0,P|46:281|122:193,1,203.999993774414,2|8,0:0|0:0,0:0:0:0:
129,277,72635,1,0,0:0:0:0:
234,375,72787,5,8,0:0:0:0:
234,375,72862,1,8,0:0:0:0:
234,375,72938,2,0,L|240:313,1,50.9999984436036,8|0,0:0|0:0,0:0:0:0:
418,321,73090,1,8,0:0:0:0:
418,321,73165,1,8,0:0:0:0:
418,321,73241,2,0,L|412:259,1,50.9999984436036,8|0,0:0|0:0,0:0:0:0:
280,155,73393,6,0,B|230:138|188:157|188:157|170:149|170:149|126:173|73:155,1,203.999993774414,6|8,0:0|0:0,0:0:0:0:
117,45,73847,1,0,0:0:0:0:
233,239,73999,2,0,P|236:292|226:346,1,101.999996887207,2|2,0:0|0:0,0:0:0:0:
108,239,74302,1,8,0:0:0:0:
117,45,74453,1,0,0:0:0:0:
280,155,74605,6,0,P|382:169|470:111,1,203.999993774414,6|8,0:0|0:0,0:0:0:0:
351,22,75059,1,0,0:0:0:0:
197,108,75211,2,0,P|189:157|208:225,1,101.999996887207,2|2,0:0|0:0,0:0:0:0:
367,240,75514,2,0,P|375:289|356:357,1,101.999996887207,8|0,0:0|0:0,0:0:0:0:
193,360,75817,6,0,B|91:368|91:368|34:352,1,152.999995330811,6|0,0:0|0:0,0:0:0:0:
6,279,76120,1,8,0:0:0:0:
152,278,76272,2,0,L|269:288,2,101.999996887207,0|2|2,0:0|0:0|0:0,0:0:0:0:
58,201,76726,1,8,0:0:0:0:
197,108,76878,1,0,0:0:0:0:
21,59,77029,6,0,P|24:148|70:211,1,152.999995330811,6|0,0:0|0:0,0:0:0:0:
134,235,77332,2,0,P|234:207|292:220,1,152.999995330811,8|0,0:0|0:0,0:0:0:0:
355,258,77635,2,0,P|348:309|348:364,1,101.999996887207,2|2,0:0|0:0,0:0:0:0:
471,222,77938,2,0,P|478:171|478:116,1,101.999996887207,8|0,0:0|0:0,0:0:0:0:
349,22,78241,6,0,P|236:34|131:68,1,203.999993774414,6|8,0:0|0:0,0:0:0:0:
15,160,78696,1,0,0:0:0:0:
15,160,78847,2,0,P|84:172|135:191,1,101.999996887207,2|2,0:0|0:0,0:0:0:0:
304,245,79150,2,0,P|235:257|184:276,1,101.999996887207,8|0,0:0|0:0,0:0:0:0:
49,341,79453,5,2,0:0:0:0:
15,160,79605,1,0,0:0:0:0:
119,287,79756,1,8,0:0:0:0:
148,105,79908,1,0,0:0:0:0:
204,267,80059,2,0,P|253:252|304:245,1,101.999996887207,2|2,0:0|0:0,0:0:0:0:
422,302,80362,1,8,0:0:0:0:
442,109,80514,1,0,0:0:0:0:
442,109,80590,1,0,0:0:0:0:
442,109,80665,6,0,B|391:101|356:116|356:116|326:104|326:104|288:125|233:115,1,203.999993774414,6|8,0:0|0:0,0:0:0:0:
148,29,81120,1,0,0:0:0:0:
27,144,81272,1,8,0:0:0:0:
27,144,81347,1,8,0:0:0:0:
27,144,81423,2,0,L|34:201,1,50.9999984436036,8|8,0:0|0:0,0:0:0:0:
78,339,81575,1,8,0:0:0:0:
211,241,81726,6,0,P|205:168|165:229,1,191.250007295609,4|0,0:0|0:0,0:0:0:0:
163,334,82029,6,0,L|214:340,1,50.9999984436036,10|10,0:0|0:0,0:0:0:0:
350,360,82181,2,0,P|332:296|328:249,1,101.999996887207,8|2,0:0|0:0,0:0:0:0:
361,92,82484,5,8,0:0:0:0:
151,92,82635,1,2,0:0:0:0:
395,166,82787,1,10,0:0:0:0:
117,166,82938,1,2,0:0:0:0:
361,92,83090,6,0,P|430:94|449:228,1,203.999993774414,6|8,0:0|0:0,0:0:0:0:
350,360,83544,1,0,0:0:0:0:
395,166,83696,2,0,P|335:165|282:179,1,101.999996887207,2|2,0:0|0:0,0:0:0:0:
206,300,83999,1,8,0:0:0:0:
20,159,84150,6,0,P|132:153|225:183,1,203.999993774414,2|2,0:0|0:0,0:0:0:0:
285,323,84605,1,8,0:0:0:0:
124,286,84756,1,0,0:0:0:0:
306,246,84908,2,0,P|370:245|422:233,1,101.999996887207,2|2,0:0|0:0,0:0:0:0:
488,101,85211,2,0,B|393:81|393:81|337:98,1,152.999995330811,8|0,0:0|0:0,0:0:0:0:
294,174,85514,5,6,0:0:0:0:
330,372,85665,1,0,0:0:0:0:
176,195,85817,1,8,0:0:0:0:
413,282,85969,1,0,0:0:0:0:
170,350,86120,1,2,0:0:0:0:
294,174,86272,1,2,0:0:0:0:
89,43,86423,2,0,P|94:84|108:152,1,101.999996887207,8|0,0:0|0:0,0:0:0:0:
233,288,86726,5,6,0:0:0:0:
233,288,87938,6,0,P|227:222|229:190,1,85,6|0,0:0|0:0,0:0:0:0:
324,92,88241,2,0,P|281:92|239:86,1,85,8|0,0:0|0:0,0:0:0:0:
96,40,88544,1,2,0:0:0:0:
118,202,88696,1,2,0:0:0:0:
239,86,88847,2,0,L|228:182,1,85,8|0,0:0|0:0,0:0:0:0:
158,336,89150,5,2,0:0:0:0:
297,252,89302,2,0,P|339:252|381:263,2,85,0|8|0,0:0|0:0|0:0,0:0:0:0:
158,336,89756,2,0,P|116:336|74:325,1,85,2|2,0:0|0:0,0:0:0:0:
27,160,90059,2,0,P|16:201|16:243,1,85,8|0,0:0|0:0,0:0:0:0:
110,95,90362,5,2,0:0:0:0:
260,134,90514,1,0,0:0:0:0:
128,258,90665,2,0,P|117:217|117:174,1,85,8|0,0:0|0:0,0:0:0:0:
203,46,90969,1,2,0:0:0:0:
354,89,91120,1,2,0:0:0:0:
260,134,91272,1,8,0:0:0:0:
401,19,91423,6,0,P|436:74|389:167,1,170,0|0,0:0|0:0,0:0:0:0:
260,134,91878,1,8,0:0:0:0:
329,285,92029,1,2,0:0:0:0:
354,89,92181,6,0,B|301:104|301:104|248:88|248:88|193:99,1,165.749992412568,8|0,0:0|0:0,0:0:0:0:
111,185,92484,2,0,P|79:110|105:23,1,165.749992412568,8|0,0:0|0:0,0:0:0:0:
193,99,92787,5,2,0:0:0:0:
168,254,92938,1,0,0:0:0:0:
298,156,93090,2,0,P|340:146|393:145,1,85,8|0,0:0|0:0,0:0:0:0:
473,235,93393,1,2,0:0:0:0:
448,80,93544,1,2,0:0:0:0:
389,241,93696,2,0,P|347:251|294:252,1,85,8|0,0:0|0:0,0:0:0:0:
111,185,93999,5,2,0:0:0:0:
191,357,94150,1,0,0:0:0:0:
253,182,94302,1,8,0:0:0:0:
40,131,94453,1,0,0:0:0:0:
55,345,94605,2,0,P|80:310|92:269,1,85,2|2,0:0|0:0,0:0:0:0:
223,265,94908,2,0,P|210:209|187:177,1,85,8|0,0:0|0:0,0:0:0:0:
40,131,95211,1,2,0:0:0:0:
262,22,95362,5,8,0:0:0:0:
223,265,95514,1,2,0:0:0:0:
367,167,95665,1,8,0:0:0:0:
140,53,95817,5,8,0:0:0:0:
378,81,95969,1,0,0:0:0:0:
109,201,96120,1,8,0:0:0:0:
432,268,96272,5,8,0:0:0:0:
140,53,96575,1,10,0:0:0:0:
26,343,97029,6,0,P|71:331|186:344,1,127.5,4|0,0:0|0:0,0:0:0:0:
226,361,97635,2,0,P|289:365|351:351,1,127.5,4|0,0:0|0:0,0:0:0:0:
407,296,98241,2,0,L|401:209,1,85,2|0,0:0|0:0,0:0:0:0:
285,169,98847,2,0,L|279:253,1,85,0|0,0:0|0:0,0:0:0:0:
226,361,99453,1,2,0:0:0:0:
143,268,99756,1,0,0:0:0:0:
279,253,100059,6,0,P|349:247|407:218,1,127.5,0|0,0:0|0:0,0:0:0:0:
433,150,100665,1,2,0:0:0:0:
334,72,100969,1,0,0:0:0:0:
247,163,101272,2,0,P|177:157|119:128,1,127.5,0|0,0:0|0:0,0:0:0:0:
73,73,101878,1,2,0:0:0:0:
90,195,102181,1,0,0:0:0:0:
15,184,102332,1,0,0:0:0:0:
15,184,102408,1,0,0:0:0:0:
15,184,102484,6,0,L|26:275,1,85,2|0,0:0|0:0,0:0:0:0:
135,314,102938,1,0,0:0:0:0:
135,314,103014,1,2,0:0:0:0:
135,314,103090,2,0,L|145:229,1,85,2|0,0:0|0:0,0:0:0:0:
237,166,103544,1,0,0:0:0:0:
237,166,103620,1,2,0:0:0:0:
237,166,103696,5,2,0:0:0:0:
290,289,103999,1,0,0:0:0:0:
356,211,104150,1,0,0:0:0:0:
356,211,104226,1,2,0:0:0:0:
356,211,104302,1,2,0:0:0:0:
419,304,104453,1,0,0:0:0:0:
419,304,104529,1,2,0:0:0:0:
419,304,104605,1,2,0:0:0:0:
346,373,104756,1,0,0:0:0:0:
272,270,104908,5,0,0:0:0:0:
272,270,105059,2,0,P|216:282|173:272,1,85,2|0,0:0|0:0,0:0:0:0:
189,277,105438,1,0,0:0:0:0:
189,277,105514,1,0,0:0:0:0:
113,228,105665,2,0,L|121:130,1,85,2|4,0:0|0:3,0:0:0:0:
119,143,106044,1,4,0:3:0:0:
119,143,106120,6,0,P|158:128|216:130,2,85.0000032424928,4|4|4,0:3|0:3|0:3,0:0:0:0:
180,237,106726,1,8,0:3:0:0:
279,77,106878,6,0,B|290:118|290:118|282:160|282:160|300:200|300:200|282:248|304:293,1,212.5,4|0,0:0|0:0,0:0:0:0:
383,242,107332,6,0,P|436:238|481:245,1,85,6|0,0:0|0:0,0:0:0:0:
493,365,107635,1,0,0:0:0:0:
309,365,107787,1,0,0:0:0:0:
309,365,107862,1,0,0:0:0:0:
309,365,107938,2,0,L|298:277,1,85,2|4,0:0|0:3,0:0:0:0:
326,171,108241,1,0,0:0:0:0:
202,233,108393,1,0,0:0:0:0:
297,71,108544,6,0,P|335:81|384:87,1,85,8|4,0:3|0:3,0:0:0:0:
231,0,108847,1,0,0:0:0:0:
249,156,108999,1,0,0:0:0:0:
145,47,109150,2,0,P|107:57|58:63,1,85,4|4,0:3|0:3,0:0:0:0:
3,165,109453,1,0,0:0:0:0:
159,144,109605,1,2,0:0:0:0:
13,289,109756,6,0,P|51:279|100:273,1,85,4|0,0:3|0:0,0:0:0:0:
209,271,110059,2,0,P|251:276|292:286,1,85,2|8,0:0|0:3,0:0:0:0:
395,340,110362,1,8,0:3:0:0:
317,184,110514,1,0,0:0:0:0:
254,361,110665,1,0,0:0:0:0:
394,234,110817,1,2,0:0:0:0:
209,271,110969,6,0,P|200:224|199:178,1,85,2|4,0:0|0:3,0:0:0:0:
271,100,111272,1,0,3:0:0:0:
101,102,111423,1,0,0:0:0:0:
101,102,111499,1,0,0:0:0:0:
101,102,111575,2,0,L|168:111,1,42.5,2|0,0:0|0:0,0:0:0:0:
275,184,111726,6,0,L|417:160,1,127.500004863739,4|0,0:0|0:0,0:0:0:0:
471,64,112181,6,0,L|379:80,1,85,6|0,0:0|0:0,0:0:0:0:
271,100,112484,1,2,0:0:0:0:
400,162,112635,1,2,0:0:0:0:
292,298,112787,2,0,P|274:236|278:188,1,85,0|8,0:0|0:3,0:0:0:0:
418,305,113090,1,0,0:0:0:0:
242,373,113241,1,0,0:0:0:0:
292,134,113393,6,0,P|288:176|273:215,1,85,4|4,0:3|0:3,0:0:0:0:
122,268,113696,2,0,P|107:228|103:186,1,85,0|0,0:0|0:0,0:0:0:0:
174,80,113999,1,8,0:3:0:0:
207,261,114150,1,0,0:0:0:0:
36,231,114302,1,0,0:0:0:0:
163,368,114453,1,4,0:3:0:0:
103,186,114605,6,0,P|217:161|281:185,1,170,2|8,0:0|0:3,0:0:0:0:
371,262,115059,1,0,0:0:0:0:
371,262,115211,2,0,P|365:313|367:360,1,85,2|4,0:0|0:3,0:0:0:0:
424,189,115514,1,0,0:0:0:0:
463,358,115665,1,8,0:3:0:0:
268,286,115817,6,0,P|217:287|165:280,1,85,2|4,0:0|0:3,0:0:0:0:
66,176,116120,1,0,0:0:0:0:
89,340,116272,1,8,0:0:0:0:
137,102,116423,5,6,0:0:0:0:
424,189,116575,1,2,0:0:0:0:
137,102,117029,5,2,0:1:0:0:
448,193,126726,6,0,B|405:215|367:193|367:193|325:168|287:192|287:192|243:218|198:192,1,255,6|0,0:0|0:0,0:0:0:0:
242,125,127938,2,0,P|324:43|409:122,1,255,2|0,0:0|0:0,0:0:0:0:
326,260,129150,2,0,B|272:294|186:292|149:247|149:247|121:212|136:169,1,255,2|0,0:0|0:0,0:0:0:0:
183,130,130362,2,0,P|141:113|86:124,1,85,2|0,0:0|0:0,0:0:0:0:
91,42,130969,2,0,P|171:42|225:67,1,127.5,2|0,0:0|0:0,0:0:0:0:
261,125,131575,6,0,P|305:126|365:120,1,85,2|0,0:0|0:0,0:0:0:0:
463,55,131878,2,0,P|462:99|468:159,1,85,8|0,0:0|0:0,0:0:0:0:
386,303,132181,6,0,L|446:317,2,42.5,8|0|0,0:0|0:0|0:0,0:0:0:0:
170,317,132484,2,0,L|211:307,2,42.5,8|0|0,0:0|0:0|0:0,0:0:0:0:
418,223,132787,2,0,L|459:232,2,42.5,8|0|2,0:0|0:0|0:0,0:0:0:0:
138,237,133090,2,0,L|198:223,2,42.5,8|0|2,0:0|0:0|0:0,0:0:0:0:
450,143,133393,2,0,L|491:152,2,42.5,8|0|2,0:0|0:0|0:0,0:0:0:0:
105,156,133696,2,0,L|147:147,2,42.5,10|2|2,0:0|0:0|0:0,0:0:0:0:
450,143,133999,5,8,0:0:0:0:
170,317,134150,1,8,0:0:0:0:
418,223,134453,5,8,0:0:0:0:
138,237,134605,1,8,0:0:0:0:
386,303,134908,5,8,0:0:0:0:
105,156,135059,1,8,0:0:0:0:
386,303,136423,6,0,P|289:279|183:305,1,203.999993774414,6|8,0:0|0:0,0:0:0:0:
75,364,136878,1,0,0:0:0:0:
75,364,136953,1,0,0:0:0:0:
75,364,137029,2,0,B|57:317|57:317|64:265,1,101.999996887207,2|2,0:0|0:0,0:0:0:0:
121,140,137332,1,8,0:0:0:0:
243,214,137484,1,0,0:0:0:0:
22,198,137635,6,0,B|9:96|9:96|55:7,1,203.999993774414,2|8,0:0|0:0,0:0:0:0:
121,140,138090,1,0,0:0:0:0:
300,63,138241,2,0,P|310:113|303:164,1,101.999996887207,2|2,0:0|0:0,0:0:0:0:
134,325,138544,2,0,P|124:275|130:224,1,101.999996887207,8|0,0:0|0:0,0:0:0:0:
257,357,138847,6,0,B|356:293|355:398|480:331,1,203.999993774414,6|8,0:0|0:0,0:0:0:0:
494,219,139302,1,0,0:0:0:0:
303,163,139453,2,0,P|296:213|306:263,1,101.999996887207,2|2,0:0|0:0,0:0:0:0:
375,104,139756,1,8,0:0:0:0:
217,67,139908,1,0,0:0:0:0:
118,246,140059,6,0,P|184:236|227:226,1,101.999996887207,2|0,0:0|0:0,0:0:0:0:
375,104,140362,1,8,0:0:0:0:
372,294,140514,2,0,P|306:284|263:274,1,101.999996887207,0|2,0:0|0:0,0:0:0:0:
458,183,140817,1,2,0:0:0:0:
275,157,140969,1,8,0:0:0:0:
465,42,141120,1,0,0:0:0:0:
212,111,141272,6,0,B|181:152|181:152|78:154|78:154|38:101,1,203.999993774414,6|8,0:0|0:0,0:0:0:0:
128,14,141726,1,0,0:0:0:0:
275,157,141878,2,0,B|245:199|245:199|263:270,1,101.999996887207,2|2,0:0|0:0,0:0:0:0:
317,362,142181,1,8,0:0:0:0:
412,261,142332,1,0,0:0:0:0:
223,330,142484,6,0,B|120:294|123:376|20:331,1,203.999993774414,2|8,0:0|0:0,0:0:0:0:
2,199,142938,1,0,0:0:0:0:
225,248,143090,2,0,P|161:241|110:254,1,101.999996887207,2|0,0:0|0:0,0:0:0:0:
25,333,143393,1,8,0:0:0:0:
72,148,143544,1,0,0:0:0:0:
309,289,143696,6,0,B|328:242|314:189|265:164|265:164|312:156|344:138,1,203.999993774414,6|8,0:0|0:0,0:0:0:0:
413,60,144150,1,0,0:0:0:0:
232,40,144302,2,0,P|173:43|121:65,1,101.999996887207,2|2,0:0|0:0,0:0:0:0:
37,193,144605,2,0,P|40:252|62:304,1,101.999996887207,8|0,0:0|0:0,0:0:0:0:
234,342,144908,5,2,0:0:0:0:
137,162,145059,1,8,0:0:0:0:
137,162,145135,1,8,0:0:0:0:
137,162,145211,2,0,L|124:221,1,50.9999984436036,8|0,0:0|0:0,0:0:0:0:
255,254,145362,1,8,0:0:0:0:
255,254,145438,1,8,0:0:0:0:
255,254,145514,2,0,L|255:201,1,50.9999984436036,8|0,0:0|0:0,0:0:0:0:
375,162,145665,1,8,0:0:0:0:
375,162,145741,1,8,0:0:0:0:
375,162,145817,2,0,L|388:221,1,50.9999984436036,8|0,0:0|0:0,0:0:0:0:
475,358,145969,1,8,0:0:0:0:
475,358,146044,1,8,0:0:0:0:
475,358,146120,6,0,B|424:350|376:360|376:360|330:331|327:265,1,203.999993774414,6|8,0:0|0:0,0:0:0:0:
375,130,146575,1,0,0:0:0:0:
227,197,146726,2,0,P|176:202|123:197,1,101.999996887207,2|2,0:0|0:0,0:0:0:0:
29,340,147029,2,0,P|80:345|133:340,1,101.999996887207,8|0,0:0|0:0,0:0:0:0:
30,175,147332,6,0,P|12:92|88:8,1,203.999993774414,6|8,0:0|0:0,0:0:0:0:
224,20,147787,1,0,0:0:0:0:
124,196,147938,2,0,P|174:200|225:195,1,101.999996887207,2|2,0:0|0:0,0:0:0:0:
416,84,148241,2,0,P|365:79|314:83,1,101.999996887207,8|0,0:0|0:0,0:0:0:0:
488,184,148544,6,0,B|500:236|500:236|492:336,1,152.999995330811,6|0,0:0|0:0,0:0:0:0:
408,372,148847,1,8,0:0:0:0:
302,179,148999,2,0,P|368:186|413:185,2,101.999996887207,0|2|2,0:0|0:0|0:0,0:0:0:0:
174,104,149453,1,8,0:0:0:0:
199,309,149605,1,2,0:0:0:0:
31,140,149756,6,0,P|24:204|30:257,1,101.999996887207,4|0,0:0|0:0,0:0:0:0:
199,309,150059,2,0,B|214:258|214:258|210:209|210:209|225:149,1,152.999995330811,8|0,0:0|0:0,0:0:0:0:
240,76,150362,2,0,B|291:91|291:91|340:87|340:87|400:102,1,152.999995330811,2|0,0:0|0:0,0:0:0:0:
452,158,150665,2,0,B|464:208|464:208|450:266,1,101.999996887207,8|0,0:0|0:0,0:0:0:0:
336,359,150969,6,0,P|237:334|136:361,1,203.999993774414,2|8,0:0|0:0,0:0:0:0:
111,188,151423,1,0,0:0:0:0:
111,188,151575,2,0,P|180:161|208:130,1,101.999996887207,2|0,0:0|0:0,0:0:0:0:
342,25,151878,2,0,P|334:93|334:147,1,101.999996887207,8|0,0:0|0:0,0:0:0:0:
452,267,152181,5,2,0:0:0:0:
264,218,152332,1,0,0:0:0:0:
424,115,152484,1,8,0:0:0:0:
354,314,152635,1,0,0:0:0:0:
169,217,152787,2,0,P|158:282|158:335,1,101.999996887207,2|0,0:0|0:0,0:0:0:0:
333,126,153090,1,8,0:0:0:0:
354,314,153241,1,0,0:0:0:0:
354,314,153317,1,0,0:0:0:0:
354,314,153393,6,0,B|306:300|264:321|264:321|246:311|246:311|201:334|140:313,1,203.999993774414,6|8,0:0|0:0,0:0:0:0:
50,222,153847,1,2,0:0:0:0:
205,92,153999,1,8,0:0:0:0:
205,92,154075,1,8,0:0:0:0:
205,92,154150,2,0,L|191:174,1,50.9999984436036,8|8,0:0|0:0,0:0:0:0:
89,23,154302,1,8,0:0:0:0:
268,40,154453,6,0,P|344:75|447:19,1,191.250007295609,4|0,0:0|0:0,0:0:0:0:
470,136,154756,6,0,L|464:193,1,50.9999984436036,8|8,0:0|0:0,0:0:0:0:
354,314,154908,2,0,P|345:257|341:171,1,101.999996887207,8|2,0:0|0:0,0:0:0:0:
335,26,155211,5,8,0:0:0:0:
254,167,155362,1,0,0:0:0:0:
132,53,155514,1,10,0:0:0:0:
138,88,155590,1,2,0:0:0:0:
144,122,155665,1,2,0:0:0:0:
150,157,155741,1,2,0:0:0:0:
157,192,155817,6,0,P|228:166|349:223,1,203.999993774414,6|8,0:0|0:0,0:0:0:0:
424,351,156272,1,0,0:0:0:0:
293,268,156423,2,0,P|245:238|181:265,1,101.999996887207,2|2,0:0|0:0,0:0:0:0:
75,354,156726,1,8,0:0:0:0:
16,137,156878,6,0,B|117:97|115:182|229:135,1,203.999993774414,2|0,0:0|0:0,0:0:0:0:
324,32,157332,1,8,0:0:0:0:
341,213,157484,1,0,0:0:0:0:
202,40,157635,2,0,P|203:102|219:155,1,101.999996887207,2|2,0:0|0:0,0:0:0:0:
341,213,157938,2,0,B|441:190|441:190|396:237,1,152.999995330811,8|0,0:0|0:0,0:0:0:0:
318,292,158241,5,6,0:0:0:0:
362,90,158393,1,0,0:0:0:0:
481,263,158544,1,8,0:0:0:0:
260,185,158696,1,0,0:0:0:0:
372,368,158847,1,2,0:0:0:0:
442,190,158999,1,2,0:0:0:0:
251,325,159150,2,0,B|198:331|198:331|144:325,1,101.999996887207,8|2,0:0|0:0,0:0:0:0:
13,189,159453,5,8,0:0:0:0:
14,189,160665,6,0,P|98:175|154:184,1,127.5,6|0,0:0|0:0,0:0:0:0:
202,252,160969,6,0,P|228:204|227:156,2,62.3333352355958,8|0|0,0:0|0:0|0:0,0:0:0:0:
128,356,161272,6,0,L|99:257,1,85,2|0,0:0|0:0,0:0:0:0:
320,201,161575,2,0,L|296:282,1,85,8|0,0:0|0:0,0:0:0:0:
139,180,161878,6,0,P|206:179|279:131,1,127.5,2|0,0:0|0:0,0:0:0:0:
308,82,162181,2,0,P|375:83|448:131,1,127.5,8|0,0:0|0:0,0:0:0:0:
474,182,162484,1,2,0:0:0:0:
320,201,162635,1,2,0:0:0:0:
489,29,162787,6,0,L|473:188,1,152.999995330811,8|0,0:0|0:0,0:0:0:0:
487,277,163090,6,0,B|425:265|425:265|350:291,1,127.5,2|0,0:0|0:0,0:0:0:0:
294,335,163393,2,0,B|233:356|233:356|171:344,1,127.5,8|0,0:0|0:0,0:0:0:0:
100,300,163696,5,2,0:0:0:0:
122,143,163847,1,0,0:0:0:0:
3,315,163999,1,8,0:0:0:0:
202,245,164150,1,0,0:0:0:0:
23,75,164302,6,0,P|14:168|46:238,1,165.749992412568,2|0,0:0|0:0,0:0:0:0:
100,300,164605,1,8,0:0:0:0:
122,143,164756,1,0,0:0:0:0:
205,353,164908,6,0,B|258:341|258:341|315:350|315:350|372:333,1,165.749992412568,2|0,0:0|0:0,0:0:0:0:
369,244,165211,6,0,B|308:261|308:261|246:252|246:252|178:272,1,191.250007295609,8|0,0:0|0:0,0:0:0:0:
65,358,165514,6,0,P|59:304|59:245,1,85,6|0,0:0|0:0,0:0:0:0:
122,143,165817,2,0,P|164:149|223:144,1,85,8|0,0:0|0:0,0:0:0:0:
321,76,166120,6,0,P|374:103|325:170,1,165.749992412568,2|0,0:0|0:0,0:0:0:0:
251,25,166423,6,0,P|198:42|279:111,1,191.250007295609,8|0,0:0|0:0,0:0:0:0:
391,230,166726,6,0,B|383:315|383:315|362:357,1,127.5,2|0,0:0|0:0,0:0:0:0:
141,235,167029,6,0,P|238:218|307:230,1,140.25000428009,8|0,0:0|0:0,0:0:0:0:
70,320,167332,6,0,P|33:221|51:172,1,152.999995330811,2|0,0:0|0:0,0:0:0:0:
262,1,167635,6,0,L|249:135,1,127.500004863739,8|0,0:0|0:0,0:0:0:0:
455,312,167938,6,0,P|374:357|268:278,1,220.999989883423,6|8,0:0|0:0,0:0:0:0:
369,250,168393,1,2,0:0:0:0:
273,295,168544,2,0,P|187:233|91:278,1,220.999989883423,2|8,0:0|0:0,0:0:0:0:
178,341,168999,1,2,0:0:0:0:
28,197,169150,5,4,0:0:0:0:
224,93,169302,1,8,0:0:0:0:
224,93,169378,1,0,0:0:0:0:
224,93,169453,2,0,L|214:150,1,42.5,2|2,0:0|0:0,0:0:0:0:
102,164,169605,2,0,L|109:122,1,42.5,2|2,0:0|0:0,0:0:0:0:
225,40,169756,5,8,0:0:0:0:
256,27,169832,1,8,0:0:0:0:
289,23,169908,1,8,0:0:0:0:
321,33,169984,1,8,0:0:0:0:
345,55,170059,1,8,0:0:0:0:
368,79,170135,1,8,0:0:0:0:
400,89,170211,1,8,0:0:0:0:
433,84,170287,1,8,0:0:0:0:
461,66,170362,6,0,P|454:113|460:162,1,85,6|0,0:0|0:0,0:0:0:0:
484,282,170665,1,8,0:0:0:0:
342,210,170817,1,0,0:0:0:0:
369,370,170969,2,0,P|316:356|268:353,1,85,2|2,0:0|0:0,0:0:0:0:
120,333,171272,2,0,P|173:319|221:316,1,85,8|0,0:0|0:0,0:0:0:0:
342,210,171575,6,0,B|308:184|308:184|272:208|272:208|236:188|236:188|200:212|200:212|164:200,1,170,2|8,0:0|0:0,0:0:0:0:
200,211,172029,1,0,0:0:0:0:
202,315,172181,6,0,B|238:339|238:339|274:319|274:319|310:343|310:343|349:312,1,174.675004930859,2|0,1:0|0:0,1:0:0:0:
430,281,172484,1,8,0:0:0:0:
430,281,172559,1,0,0:0:0:0:
430,281,172635,1,0,0:0:0:0:
426,127,172787,6,0,P|338:133|233:94,1,170,2|8,0:0|0:0,0:0:0:0:
219,30,173165,2,0,L|160:49,1,42.5,0|0,0:0|0:0,0:0:0:0:
22,191,173393,2,0,P|77:180|138:179,1,85,2|2,0:0|0:0,0:0:0:0:
260,367,173696,2,0,P|249:312|248:251,1,85,8|0,0:0|0:0,0:0:0:0:
344,56,173999,6,0,B|358:76|358:76|346:97|346:97|361:115|361:115|349:133|349:133|364:150|364:150|353:168|353:168|365:186|365:186|357:206|357:206|367:226|367:226|356:247|356:247|366:266|366:266|362:274|362:274,1,255,2|8,1:0|0:0,1:0:0:0:
120,314,174605,1,8,0:0:0:0:
120,314,174681,1,8,0:0:0:0:
120,314,174756,2,0,L|112:272,1,42.5,8|0,0:0|0:0,0:0:0:0:
251,242,174908,1,8,0:0:0:0:
251,242,174984,1,8,0:0:0:0:
251,242,175059,2,0,L|259:200,1,42.5,8|0,0:0|0:0,0:0:0:0:
120,125,175211,5,6,0:0:0:0:
306,60,175362,2,0,L|314:13,2,42.5,0|0|2,0:0|0:0|0:0,0:0:0:0:
224,126,175665,1,0,0:0:0:0:
224,126,175741,1,0,0:0:0:0:
224,126,175817,2,0,L|240:213,1,85,8|0,0:0|0:0,0:0:0:0:
239,209,176044,1,0,0:0:0:0:
239,209,176120,1,2,0:0:0:0:
330,287,176272,1,0,0:0:0:0:
195,345,176423,5,8,0:0:0:0:
152,343,176498,1,0,0:0:0:0:
112,329,176574,1,0,0:0:0:0:
77,305,176650,1,0,0:0:0:0:
51,272,176726,1,2,0:0:0:0:
35,233,176801,1,0,0:0:0:0:
32,190,176877,1,0,0:0:0:0:
40,149,176953,1,0,0:0:0:0:
60,111,177029,6,0,B|188:163|186:50|326:111,1,255,8|0,0:0|0:0,0:0:0:0:
410,144,177635,5,2,0:0:0:0:
358,332,177787,2,0,L|341:195,1,127.5,4|0,0:0|0:0,0:0:0:0:
410,144,178090,1,2,0:0:0:0:
450,281,178241,1,8,0:0:0:0:
306,103,178393,1,0,0:0:0:0:
250,317,178544,1,2,0:0:0:0:
342,205,178696,1,2,0:0:0:0:
123,137,178847,6,0,P|124:216|133:256,1,85,2|8,0:0|0:0,0:0:0:0:
176,346,179150,1,0,0:0:0:0:
358,332,179302,1,8,0:0:0:0:
232,127,179453,5,8,0:0:0:0:
250,317,179605,2,0,L|254:352,3,28.3333333333333,8|0|0|4,0:3|0:0|0:0|0:3,0:0:0:0:
205,236,179908,1,2,0:0:0:0:
417,184,180059,5,6,0:0:0:0:
256,192,180135,12,0,182408,0:0:0:0:
256,192,182484,12,2,187332,0:1:0:0:
55,194,197029,6,0,B|183:231|181:143|304:189,1,255,4|0,0:0|0:0,0:0:0:0:
316,309,198241,2,0,P|413:267|407:128,1,255,4|0,0:0|0:0,0:0:0:0:
316,47,199453,2,0,P|257:41|216:48,1,85,4|0,0:0|0:0,0:0:0:0:
129,113,199908,1,0,0:0:0:0:
129,113,199984,1,0,0:0:0:0:
129,113,200059,1,8,0:0:0:0:
263,158,200211,1,0,0:0:0:0:
78,206,200362,1,0,0:0:0:0:
204,243,200514,1,8,0:0:0:0:
117,342,200665,6,0,P|161:329|213:325,1,85,2|8,0:0|0:0,0:0:0:0:
306,349,200969,1,2,0:0:0:0:
266,186,201120,1,0,1:0:0:0:
266,186,201196,1,0,1:0:0:0:
266,186,201272,1,0,1:0:0:0:
371,129,201423,1,0,0:0:0:0:
207,95,201575,1,0,1:0:0:0:
273,262,201726,1,0,0:0:0:0:
441,79,201878,6,0,P|454:135|445:179,1,85,12|0,0:0|0:0,0:0:0:0:
282,344,202181,2,0,P|269:288|278:244,1,85,8|0,0:0|0:0,0:0:0:0:
410,361,202484,1,8,0:0:0:0:
183,321,202635,1,0,0:0:0:0:
349,203,202787,1,8,0:0:0:0:
122,163,202938,1,0,0:0:0:0:
326,27,203090,6,0,L|318:73,2,42.5,8|0|0,0:0|0:0|0:0,0:0:0:0:
421,262,203393,2,0,L|375:254,2,42.5,8|0|0,0:0|0:0|0:0,0:0:0:0:
186,357,203696,2,0,L|194:311,2,42.5,8|0|0,0:0|0:0|0:0,0:0:0:0:
91,122,203999,2,0,L|137:130,2,42.5,8|0|0,0:0|0:0|0:0,0:0:0:0:
410,147,204302,6,0,P|304:150|221:202,1,191.250007295609,12|2,0:0|0:0,0:0:0:0:
147,293,204908,2,0,P|142:229|125:161,1,127.500004863739,8|2,0:0|0:0,0:0:0:0:
180,68,205362,2,0,P|224:84|248:87,1,63.7500024318696,4|0,0:0|0:0,0:0:0:0:
344,57,205665,5,8,0:0:0:0:
314,206,205817,1,0,0:0:0:0:
410,147,205969,1,0,0:0:0:0:
240,86,206120,2,0,L|244:155,1,63.7500024318696,8|0,0:0|0:0,0:0:0:0:
327,292,206423,1,4,0:3:0:0:
410,147,206575,1,0,0:0:0:0:
233,288,206726,5,8,1:2:0:0:
176,29,206878,1,8,1:2:0:0:
176,29,207181,5,8,1:2:0:0:
59,269,207333,1,8,1:2:0:0:
59,269,207635,5,8,1:2:0:0:
386,179,207787,1,8,1:2:0:0:
17,73,208090,5,8,1:2:0:0:
17,73,209150,6,0,P|139:53|254:82,1,212.5,6|8,0:0|0:0,0:0:0:0:
330,152,209605,1,0,0:0:0:0:
330,152,209681,1,0,0:0:0:0:
330,152,209756,2,0,P|329:96|336:36,1,106.25,2|2,0:0|0:0,0:0:0:0:
410,194,210059,1,8,0:0:0:0:
254,190,210211,1,0,0:0:0:0:
440,116,210362,6,0,P|490:167|422:277,1,212.5,2|8,0:0|0:0,0:0:0:0:
330,152,210817,1,0,0:0:0:0:
338,343,210969,2,0,P|290:358|216:355,1,106.25,2|2,0:0|0:0,0:0:0:0:
76,232,211272,2,0,P|124:217|198:220,1,106.25,8|0,0:0|0:0,0:0:0:0:
8,155,211575,6,0,P|95:124|229:131,1,212.5,6|8,0:0|0:0,0:0:0:0:
336,242,212029,1,0,0:0:0:0:
179,322,212181,2,0,P|175:254|184:192,1,106.25,2|2,0:0|0:0,0:0:0:0:
284,85,212484,1,8,0:0:0:0:
412,184,212635,1,0,0:0:0:0:
213,126,212787,6,0,P|156:120|88:126,1,106.25,6|0,0:0|0:0,0:0:0:0:
12,246,213090,1,8,0:0:0:0:
3,47,213241,2,0,P|60:41|128:47,1,106.25,0|2,0:0|0:0,0:0:0:0:
247,149,213544,1,2,0:0:0:0:
6,157,213696,1,8,0:0:0:0:
209,282,213847,1,0,0:0:0:0:
212,31,213999,6,0,P|292:28|364:53,1,106.25,6|0,0:0|0:0,0:0:0:0:
502,122,214302,1,8,0:0:0:0:
432,260,214453,1,0,0:0:0:0:
295,110,214605,2,0,B|287:163|287:163|304:215,1,106.25,2|2,0:0|0:0,0:0:0:0:
416,341,214908,2,0,B|363:333|363:333|311:350,1,106.25,8|0,0:0|0:0,0:0:0:0:
76,328,215211,6,0,B|52:320|23:317|23:317|106:302|172:245,1,212.5,6|8,0:0|0:0,0:0:0:0:
295,110,215665,1,0,0:0:0:0:
45,156,215817,2,0,P|115:160|188:185,1,106.25,2|2,0:0|0:0,0:0:0:0:
347,263,216120,2,0,P|277:267|204:292,1,106.25,8|0,0:0|0:0,0:0:0:0:
452,319,216423,6,0,B|489:209|404:209|449:101,1,212.5,6|8,0:0|0:0,0:0:0:0:
500,21,216878,1,0,0:0:0:0:
280,44,217029,2,0,P|296:105|297:166,1,106.25,2|2,0:0|0:0,0:0:0:0:
242,276,217332,1,8,0:0:0:0:
149,169,217484,1,0,0:0:0:0:
362,205,217635,5,4,0:0:0:0:
271,357,217787,1,8,0:0:0:0:
271,357,217862,1,8,0:0:0:0:
271,357,217938,2,0,L|208:345,1,53.125,10|2,0:0|0:0,0:0:0:0:
84,241,218090,1,8,0:0:0:0:
84,241,218165,1,8,0:0:0:0:
84,241,218241,2,0,L|146:241,1,53.125,8|0,0:0|0:0,0:0:0:0:
262,122,218393,1,8,0:0:0:0:
262,122,218468,1,8,0:0:0:0:
262,122,218544,2,0,L|199:134,1,53.125,8|0,0:0|0:0,0:0:0:0:
383,178,218696,2,0,L|446:190,1,53.125,8|8,0:0|0:0,0:0:0:0:
285,277,218847,6,0,P|189:272|122:334,1,159.375,2|0,0:0|0:0,0:0:0:0:
43,369,219150,2,0,B|24:306|24:306|45:236,1,127.500004863739,12|0,0:0|0:0,0:0:0:0:
121,124,219453,1,2,0:0:0:0:
139,306,219605,1,2,0:0:0:0:
16,135,219756,2,0,P|71:135|128:121,1,106.25,8|0,0:0|0:0,0:0:0:0:
223,37,220059,6,0,P|302:45|369:88,1,159.375,2|0,0:0|0:0,0:0:0:0:
400,202,220362,2,0,P|452:172|484:110,1,127.500004863739,12|0,0:0|0:0,0:0:0:0:
301,160,220665,1,2,0:0:0:0:
344,319,220817,1,2,0:0:0:0:
205,203,220969,1,8,0:0:0:0:
162,362,221121,1,0,0:0:0:0:
72,175,221272,6,0,P|138:117|250:131,1,159.375,6|0,0:0|0:0,0:0:0:0:
301,160,221575,1,8,0:0:0:0:
246,346,221726,2,0,P|235:289|233:233,2,106.25,0|2|2,0:0|0:0|0:0,0:0:0:0:
379,360,222181,1,8,0:0:0:0:
301,160,222332,1,2,0:0:0:0:
461,285,222484,6,0,B|480:205|480:205|453:129,1,159.375,4|0,0:0|0:0,0:0:0:0:
387,69,222787,2,0,P|309:78|221:65,1,159.375,8|0,0:0|0:0,0:0:0:0:
138,45,223090,2,0,L|160:158,1,106.25,2|2,0:0|0:0,0:0:0:0:
375,182,223393,2,0,L|353:295,1,106.25,8|0,0:0|0:0,0:0:0:0:
170,368,223696,6,0,P|75:365|-5:267,1,212.5,6|8,0:0|0:0,0:0:0:0:
158,149,224150,1,0,0:0:0:0:
354,286,224302,2,0,L|375:182,1,106.25,2|2,0:0|0:0,0:0:0:0:
292,51,224605,1,8,0:0:0:0:
282,213,224756,1,0,0:0:0:0:
463,64,224908,6,0,L|483:168,1,106.25,2|0,0:0|0:0,0:0:0:0:
354,286,225211,1,8,0:0:0:0:
287,132,225362,1,0,0:0:0:0:
216,337,225514,2,0,B|161:327|110:341|110:341|58:316|38:254,1,212.5,2|8,0:0|0:0,0:0:0:0:
81,134,225969,1,0,0:0:0:0:
81,134,226044,1,0,0:0:0:0:
81,134,226120,6,0,B|132:121|173:140|173:140|199:126|199:126|251:142|302:128,1,212.5,6|8,0:0|0:0,0:0:0:0:
396,36,226575,1,2,0:0:0:0:
468,194,226726,1,8,0:0:0:0:
468,194,226802,1,8,0:0:0:0:
468,194,226878,2,0,L|458:261,1,53.125,8|8,0:0|0:0,0:0:0:0:
314,323,227029,2,0,L|306:270,1,53.125,8|8,0:0|0:0,0:0:0:0:
286,131,227181,6,0,B|251:142|199:126|199:126|173:140|173:140|132:121|81:134,1,212.5,4|0,0:0|0:0,0:0:0:0:
13,226,227484,6,0,L|25:298,1,63.7500024318696,8|8,0:0|0:0,0:0:0:0:
142,354,227635,2,0,P|196:326|259:325,1,106.25,8|2,0:0|0:0,0:0:0:0:
446,329,227938,1,8,0:0:0:0:
314,360,228090,1,2,0:0:0:0:
400,184,228241,2,0,L|412:113,1,53.125,10|2,0:0|0:0,0:0:0:0:
282,199,228393,2,0,L|273:251,1,53.125,2|2,0:0|0:0,0:0:0:0:
178,146,228544,6,0,P|114:142|44:160,1,106.25,6|0,0:0|0:0,0:0:0:0:
13,309,228847,1,8,0:0:0:0:
13,309,228999,2,0,P|130:304|229:315,1,212.5,0|2,0:0|0:0,0:0:0:0:
337,351,229453,1,8,0:0:0:0:
465,192,229605,6,0,B|356:224|355:144|250:192,1,212.5,0|0,0:0|0:0,0:0:0:0:
137,307,230059,1,8,0:0:0:0:
337,351,230211,1,0,0:0:0:0:
206,251,230362,1,0,0:0:0:0:
465,192,230514,2,0,B|478:125|506:49|506:49|479:91|440:122,1,212.5,8|0,0:0|0:0,0:0:0:0:
261,148,230969,5,6,0:0:0:0:
297,331,231120,1,0,0:0:0:0:
159,176,231272,1,8,0:0:0:0:
123,359,231423,1,0,0:0:0:0:
353,176,231575,1,2,0:0:0:0:
389,359,231726,1,2,0:0:0:0:
120,267,231878,1,8,0:0:0:0:
261,148,232029,1,0,0:0:0:0:
182,353,232181,6,0,P|88:362|14:270,1,212.5,2|8,0:0|0:0,0:0:0:0:
120,267,232635,1,0,0:0:0:0:
292,364,232787,1,2,0:0:0:0:
292,364,232862,1,2,0:0:0:0:
292,364,232938,2,0,L|282:297,1,53.125,2|2,0:0|0:0,0:0:0:0:
218,201,233090,1,8,0:0:0:0:
259,209,233165,1,0,0:0:0:0:
301,211,233241,1,8,0:0:0:0:
342,200,233317,1,0,0:0:0:0:
376,175,233393,6,0,P|372:115|378:43,1,106.25,6|0,0:0|0:0,0:0:0:0:
477,201,233696,1,8,0:0:0:0:
477,201,233847,2,0,B|501:271|487:360|487:360|470:341|431:327,1,212.5,0|2,0:0|0:0,0:0:0:0:
314,325,234302,1,8,0:0:0:0:
169,368,234453,6,0,B|125:260|215:260|170:156,1,212.5,0|0,0:0|0:0,0:0:0:0:
44,34,234908,2,0,P|40:89|57:146,1,106.25,8|0,0:0|0:0,0:0:0:0:
168,264,235211,1,2,0:0:0:0:
200,72,235362,2,0,B|237:78|289:73|325:52|325:52|304:102|314:170,1,212.5,2|0,0:0|0:0,0:0:0:0:
454,117,235817,5,4,0:0:0:0:
409,301,235969,1,2,0:0:0:0:
409,301,236044,1,8,0:0:0:0:
409,301,236120,2,0,L|394:244,1,53.125,8|0,0:0|0:0,0:0:0:0:
184,178,236272,5,2,0:0:0:0:
184,178,236347,1,8,0:0:0:0:
184,178,236423,2,0,L|169:235,1,53.125,8|0,0:0|0:0,0:0:0:0:
279,308,236575,5,2,0:0:0:0:
279,308,236650,1,8,0:0:0:0:
279,308,236726,2,0,L|264:251,1,53.125,8|0,0:0|0:0,0:0:0:0:
53,189,236878,5,2,0:0:0:0:
53,189,236953,1,8,0:0:0:0:
53,189,237029,1,12,0:0:0:0:
331,142,238241,5,2,0:0:0:0:
331,142,238393,1,2,0:0:0:0:
260,195,238544,2,0,L|264:263,1,63.7500024318696,2|0,0:0|0:0,0:0:0:0:
170,180,238847,2,0,L|173:243,1,63.7500024318696,2|0,0:0|0:0,0:0:0:0:
124,318,239150,1,2,0:0:0:0:
50,190,239302,6,0,P|67:114|58:55,1,127.500004863739,2|2,0:0|0:0,0:0:0:0:
61,65,239756,2,0,P|125:74|198:64,1,127.500004863739,2|2,0:0|0:0,0:0:0:0:
273,41,240211,1,0,0:0:0:0:
273,41,240362,2,0,L|265:137,1,95.6250036478044,2|0,0:0|0:0,0:0:0:0:
257,180,240665,5,2,0:0:0:0:
346,177,240817,1,2,0:0:0:0:
303,253,240969,2,0,L|232:265,1,63.7500024318696,2|0,0:0|0:0,0:0:0:0:
220,352,241272,2,0,L|282:341,1,63.7500024318696,2|0,0:0|0:0,0:0:0:0:
368,313,241575,1,2,0:0:0:0:
346,177,241726,6,0,P|408:152|443:103,1,127.500004863739,2|2,0:0|0:0,0:0:0:0:
251,32,242332,1,8,0:0:0:0:
251,32,242408,1,8,0:0:0:0:
251,32,242484,1,0,1:0:0:0:
77,185,242635,6,2,P|146:169|75:242,1,254.999992218018,2|0,1:0|0:0,1:0:0:0:
38,116,243090,6,0,P|81:92|154:89,1,85,6|0,0:0|0:0,0:0:0:0:
269,87,243393,2,0,L|253:193,1,85,8|0,0:0|0:0,0:0:0:0:
235,296,243696,1,2,0:0:0:0:
357,233,243847,1,2,0:0:0:0:
178,224,243999,1,8,0:0:0:0:
308,359,244150,6,0,P|383:341|476:368,1,170,2|2,0:0|0:0,0:0:0:0:
476,214,244605,2,0,P|463:158|464:109,1,85,8|0,0:0|0:0,0:0:0:0:
353,39,244908,2,0,P|350:81|339:122,1,85,2|2,0:0|0:0,0:0:0:0:
238,216,245211,2,0,P|184:207|144:208,1,85,8|0,0:0|0:0,0:0:0:0:
21,216,245514,5,2,0:0:0:0:
69,368,245665,1,0,0:0:0:0:
153,207,245817,2,0,P|196:208|238:216,1,85,8|0,0:0|0:0,0:0:0:0:
400,264,246120,2,0,P|357:265|315:272,1,85,2|2,0:0|0:0,0:0:0:0:
214,333,246423,1,8,0:0:0:0:
326,180,246575,6,0,P|340:100|312:11,1,170,2|2,0:0|0:0,0:0:0:0:
147,60,247029,2,0,P|217:60|266:52,1,85,8|0,0:0|0:0,0:0:0:0:
404,24,247332,6,0,P|420:93|406:189,1,165.749992412568,8|0,0:0|0:0,0:0:0:0:
349,262,247635,2,0,B|295:253|295:253|246:279,1,110.499994941712,8|8,0:0|0:0,0:0:0:0:
167,334,247862,1,8,0:0:0:0:
167,334,247938,6,0,P|149:272|165:229,1,85,6|2,0:0|0:0,0:0:0:0:
179,131,248241,2,0,L|274:145,1,85,8|0,0:0|0:0,0:0:0:0:
406,186,248544,1,2,0:0:0:0:
276,246,248696,1,0,0:0:0:0:
322,86,248847,1,8,0:0:0:0:
488,188,248999,6,0,B|524:272|449:272|489:363,1,170,2|2,0:0|0:0,0:0:0:0:
368,327,249453,2,0,P|304:326|269:334,1,85,8|0,0:0|0:0,0:0:0:0:
173,362,249756,2,0,P|109:363|74:355,1,85,2|2,0:0|0:0,0:0:0:0:
9,270,250059,2,0,B|-2:177|-2:177|20:135,1,127.5,8|0,0:0|0:0,0:0:0:0:
68,81,250362,5,4,0:0:0:0:
190,173,250514,1,0,1:0:0:0:
193,193,250590,1,0,0:0:0:0:
196,213,250665,1,8,0:0:0:0:
305,139,250817,1,0,1:0:0:0:
308,119,250893,1,0,0:0:0:0:
309,97,250969,6,0,L|291:48,1,42.5,8|0,0:0|0:0,0:0:0:0:
437,115,251120,2,0,L|455:164,1,42.5,0|0,1:0|0:0,0:0:0:0:
425,288,251272,1,8,0:0:0:0:
387,284,251347,1,0,0:0:0:0:
348,281,251423,6,0,B|305:288|305:288|266:274|266:274|234:320|135:325|108:241,1,255,4|0,1:0|0:0,0:0:0:0:
