osu file format v14

[General]
AudioFilename: audio.mp3
AudioLeadIn: 0
PreviewTime: 53777
Countdown: 0
SampleSet: None
StackLeniency: 0.4
Mode: 2
LetterboxInBreaks: 0
WidescreenStoryboard: 1

[Editor]
Bookmarks: 2251,7641,9440,10292,11353,13910,14383,15027,15368,15444,16807,18550,19232,24156,24610,28910,29554,29610,29724,31504,32281,32622,33076,33228,33322,33474,34516,36751,38019,39743,41694,41883,43777,44004,44800,45690,46144,47489,47754,47906,49080,49838,51845,52072,52338,54478,55519,56580,57679,58322,58436,60065,60671,65179,66807,67584,68720,69156,70444,72716,74156,74307,74743,76239,76258,76675,77394,80216,80292,81258,81372,82110,82413,82584,82697,83644,84345,85785,86296,87338
DistanceSpacing: 0.6
BeatDivisor: 4
GridSize: 32
TimelineZoom: 1.5

[Metadata]
Title:Yakusoku -Promise code- (TV Size)
TitleUnicode:約束 -Promise code- (TV Size)
Artist:GARNiDELiA
ArtistUnicode:GARNiDELiA
Creator:Dea ex machina
Version:tv size
Source:クオリディア・コード
Tags:qualidea code ending ed anime op japanese jpop j-pop j pop female vocals vocalist ymiir fii -wwwww
BeatmapID:4537693
BeatmapSetID:2153560

[Difficulty]
HPDrainRate:6
CircleSize:3.8
OverallDifficulty:9.3
ApproachRate:9.3
SliderMultiplier:1.82
SliderTickRate:1

[Events]
//Background and Video events
0,0,"bge.jpg",0,0
//Break Periods
//Storyboard Layer 0 (Background)
//Storyboard Layer 1 (Fail)
//Storyboard Layer 2 (Pass)
//Storyboard Layer 3 (Foreground)
//Storyboard Layer 4 (Overlay)
//Storyboard Sound Samples

[TimingPoints]
964,303.030303030303,4,2,22,42,1,0
964,-133.333333333333,4,2,22,42,0,0
4903,-66.6666666666667,4,2,22,42,0,0
6126,303.030303030303,4,2,22,62,1,0
6126,-95.2380952380954,4,2,22,62,0,0
15822,-111.111111111111,4,2,22,42,0,0
24307,-100,4,2,22,42,0,0
25519,-100,4,2,22,52,0,0
35216,-222.222222222223,4,2,22,42,0,0
44913,-153.846153846154,4,2,22,52,0,0
49762,-100,4,2,22,62,0,0
54610,-86.9565217391307,4,2,22,72,0,1
77641,-133.333333333333,4,2,22,72,0,0
78853,-95.2380952380951,4,2,22,62,0,0
87186,-100,4,2,22,62,0,0

[Colours]
Combo1 : 214,216,216
Combo2 : 247,194,248
Combo3 : 217,36,118
Combo4 : 106,96,157

[HitObjects]
233,279,964,5,2,0:2:0:0:
141,241,1115,1,2,0:2:0:0:
107,168,1267,6,0,P|112:124|194:54,1,136.500005207062,2|2,0:2|0:2,0:0:0:0:
272,65,1721,2,0,L|65:94,1,204.750007810593,2|2,0:2|0:2,0:0:0:0:
209,199,2327,2,0,P|235:287|150:355,1,204.750007810593,2|2,0:2|0:2,0:0:0:0:
65,329,2933,1,2,0:2:0:0:
254,358,3236,2,0,P|240:308|180:225,1,136.500005207062,2|0,0:2|0:2,0:0:0:0:
317,37,3691,6,0,P|348:83|494:154,1,204.750007810593,2|2,0:2|0:2,0:0:0:0:
354,140,4297,2,0,P|313:200|381:299,1,204.750007810593,2|2,0:2|0:2,0:0:0:0:
455,350,4903,6,0,P|261:7|183:36,1,546.000020828248,2|2,0:2|0:2,0:0:0:0:
457,43,5812,1,10,0:2:0:0:
39,48,6126,6,0,L|27:178,1,95.5499970840455,6|0,1:2|0:2,0:0:0:0:
137,348,6429,2,0,L|251:334,1,95.5499970840455,10|0,0:2|0:2,0:0:0:0:
112,147,6732,1,2,1:2:0:0:
223,216,6883,1,0,1:2:0:0:
38,276,7035,1,10,0:2:0:0:
282,95,7186,6,0,P|210:87|102:161,1,191.099994168091,2|2,0:2|0:2,0:0:0:0:
358,35,7641,2,0,L|369:142,1,95.5499970840455,10|0,0:2|0:2,0:0:0:0:
497,324,7944,1,2,1:2:0:0:
442,229,8095,1,0,1:2:0:0:
292,356,8247,2,0,L|386:318,1,95.5499970840455,10|0,0:2|0:2,0:0:0:0:
106,162,8550,6,0,L|242:192,1,95.5499970840455,2|0,1:2|0:2,0:0:0:0:
338,64,8853,2,0,L|331:183,1,95.5499970840455,10|0,0:2|0:2,0:0:0:0:
201,210,9156,1,2,1:2:0:0:
330,241,9307,1,0,1:2:0:0:
460,268,9459,1,10,0:2:0:0:
225,44,9610,6,0,L|236:274,1,191.099994168091,2|2,0:2|0:2,0:0:0:0:
124,253,10065,1,10,0:2:0:0:
294,358,10216,1,2,0:2:0:0:
55,343,10368,5,2,1:2:0:0:
358,277,10519,1,0,1:2:0:0:
209,52,10671,1,10,0:2:0:0:
354,151,10822,2,0,L|333:224,1,47.7749985420228,8|8,0:2|0:2,0:0:0:0:
93,336,10974,6,0,L|72:223,1,95.5499970840455,4|0,1:2|0:0,0:0:0:0:
168,28,11277,2,0,L|41:73,1,95.5499970840455,10|0,0:2|0:2,0:0:0:0:
205,293,11580,1,2,1:2:0:0:
226,182,11732,1,0,1:2:0:0:
363,252,11883,1,10,0:2:0:0:
111,41,12035,6,0,P|187:53|299:111,1,191.099994168091,2|2,0:2|0:2,0:0:0:0:
37,171,12489,2,0,L|52:282,1,95.5499970840455,10|0,0:2|0:2,0:0:0:0:
203,336,12716,2,0,L|213:277,1,47.7749985420228,0|2,0:0|1:2,0:0:0:0:
340,281,12944,1,0,1:2:0:0:
67,185,13095,1,10,0:2:0:0:
453,207,13550,5,10,0:2:0:0:
95,344,13701,1,10,0:2:0:0:
193,66,13853,1,2,1:2:0:0:
453,207,14004,5,10,0:2:0:0:
179,179,14156,1,10,0:2:0:0:
313,250,14307,1,2,1:2:0:0:
45,253,14459,5,10,0:2:0:0:
488,52,14762,1,10,0:2:0:0:
264,94,15065,2,0,P|230:85|192:66,1,47.7749985420228,2|0,1:2|0:0,0:0:0:0:
369,53,15216,6,0,B|379:31|428:41|441:121|387:211|279:191|221:197|184:169,1,334.424989794159,6|0,1:2|0:0,0:0:0:0:
334,374,15823,6,0,L|430:355,1,81.8999975006104,6|0,1:2|0:0,0:0:0:0:
320,258,16126,2,0,L|411:237,1,81.8999975006104,0|0,1:2|0:0,0:0:0:0:
300,147,16429,2,0,L|203:124,1,81.8999975006104,2|0,1:2|0:0,0:0:0:0:
303,88,16732,1,2,1:2:0:0:
160,202,16884,2,0,P|134:285|217:340,1,163.799995001221,2|0,0:2|0:0,0:0:0:0:
288,277,17338,1,2,1:2:0:0:
141,65,17641,2,0,L|35:90,2,81.8999975006104,2|2|0,1:2|0:2|1:2,0:0:0:0:
245,352,18096,1,2,3:2:0:0:
167,328,18171,1,0,3:2:0:0:
135,283,18247,6,0,P|135:246|236:167,1,163.799995001221,2|0,1:2|1:2,0:0:0:0:
134,82,18702,1,2,0:2:0:0:
231,174,18853,2,0,L|122:200,1,81.8999975006104
270,338,19156,2,0,L|284:236,1,81.8999975006104,2|2,1:2|0:2,0:0:0:0:
391,138,19459,6,0,L|405:240,1,81.8999975006104,2|0,1:2|0:2,0:0:0:0:
243,67,19762,1,2,1:2:0:0:
382,20,19913,2,0,L|388:72,1,40.9499987503052,0|0,0:2|0:0,0:0:0:0:
461,304,20065,2,0,P|398:305|363:325,1,81.8999975006104,2|2,1:2|3:2,0:0:0:0:
490,121,20368,1,0,1:2:0:0:
332,154,20519,1,0,3:2:0:0:
410,178,20594,1,0,3:2:0:0:
442,223,20670,6,0,P|442:260|341:339,1,163.799995001221,6|0,1:2|1:2,0:0:0:0:
239,286,21126,1,0,0:0:0:0:
337,124,21278,2,0,L|348:223,1,81.8999975006104,2|0,1:2|0:0,0:0:0:0:
194,46,21580,2,0,L|309:60,1,81.8999975006104,2|2,1:2|3:2,0:0:0:0:
232,78,21808,1,0,3:2:0:0:
125,368,21884,6,0,P|152:293|249:270,1,163.799995001221,0|2,1:2|1:2,0:0:0:0:
118,172,22338,1,0,0:0:0:0:
252,292,22489,2,0,L|137:306,1,81.8999975006104,2|2,1:2|3:2,0:0:0:0:
214,324,22717,1,2,2:2:0:0:
268,341,22792,1,0,1:2:0:0:
136,20,22944,1,2,3:2:0:0:
214,44,23019,1,0,3:2:0:0:
246,89,23095,6,0,P|246:126|145:205,1,163.799995001221,2|0,1:2|1:2,0:0:0:0:
41,156,23550,1,2,0:2:0:0:
160,350,23701,2,0,L|64:331,1,81.8999975006104,2|0,1:2|0:0,0:0:0:0:
175,255,24004,2,0,L|84:234,1,81.8999975006104,0|0,1:2|3:2,0:0:0:0:
242,361,24308,6,0,P|297:312|404:284,1,182,2|4,1:2|1:2,0:0:0:0:
221,72,24914,5,10,0:2:0:0:
325,93,24990,1,8,0:2:0:0:
201,182,25141,5,8,0:2:0:0:
305,203,25217,1,0,1:2:0:0:
64,181,25520,6,0,P|88:266|180:305,1,182,6|8,1:2|0:2,0:0:0:0:
46,328,25974,1,0,0:2:0:0:
178,45,26126,2,0,L|275:71,1,91,2|0,1:2|0:2,0:0:0:0:
157,127,26429,1,10,0:2:0:0:
410,340,26581,6,0,P|367:258|270:241,1,182,2|0,0:2|0:2,0:0:0:0:
424,256,27035,2,0,L|435:160,1,91,10|0,0:2|0:2,0:0:0:0:
288,37,27338,2,0,L|302:148,1,91,2|2,1:2|0:2,0:0:0:0:
160,261,27641,1,8,0:2:0:0:
276,352,27792,2,0,L|270:272,1,45.5,10|8,0:2|0:2,0:0:0:0:
414,138,27944,6,0,B|310:157,1,91,0|0,1:2|0:0,0:0:0:0:
194,77,28398,2,0,L|200:142,1,45.5,0|0,1:2|0:0,0:0:0:0:
114,140,28550,2,0,L|216:160,1,91,0|0,1:2|0:2,0:0:0:0:
311,63,28853,1,10,0:2:0:0:
53,90,29005,1,2,0:2:0:0:
317,320,29156,6,0,L|305:213,1,91,2|0,1:2|0:2,0:0:0:0:
174,251,29459,2,0,L|159:353,1,91,10|0,0:2|0:2,0:0:0:0:
300,189,29762,1,2,1:2:0:0:
152,382,29914,1,2,0:2:0:0:
300,189,30065,1,8,0:2:0:0:
203,302,30216,2,0,L|209:222,1,45.5,8|8,0:2|0:2,0:0:0:0:
65,88,30368,6,0,B|264:122,1,182,6|8,1:2|0:2,0:0:0:0:
151,140,30823,1,0,0:2:0:0:
366,260,30974,2,0,L|463:230,1,91,2|0,1:2|0:2,0:0:0:0:
378,118,31277,1,10,0:2:0:0:
239,214,31429,6,0,P|298:296|380:280,1,182,2|0,0:2|0:2,0:0:0:0:
245,300,31883,2,0,P|200:307|144:311,1,91,10|0,0:2|0:2,0:0:0:0:
253,73,32187,2,0,P|199:76|156:86,1,91,2|2,1:2|0:2,0:0:0:0:
307,165,32490,1,8,0:2:0:0:
199,220,32641,2,0,L|212:158,1,45.5,2|0,0:2|0:0,0:0:0:0:
358,323,32793,6,0,P|350:243|313:139,1,182,2|8,1:2|0:2,0:0:0:0:
433,110,33247,1,2,0:2:0:0:
276,316,33398,2,0,P|318:333|379:344,1,91,2|0,1:2|1:2,0:0:0:0:
258,48,33701,1,8,0:2:0:0:
431,120,33853,1,2,0:2:0:0:
129,163,34005,6,0,P|129:234|170:293,1,136.5,2|0,1:2|0:0,0:0:0:0:
342,139,34308,1,8,0:2:0:0:
226,65,34459,2,0,L|220:130,1,45.5,2|0,1:2|0:0,0:0:0:0:
293,338,34611,5,8,0:2:0:0:
69,377,34762,1,8,0:2:0:0:
321,357,34913,2,0,L|332:251,1,91,0|8,1:2|0:2,0:0:0:0:
469,265,35216,6,0,P|463:192|314:163,1,245.699992501831,2|0,1:2|0:0,0:0:0:0:
192,300,36429,6,0,P|307:270|361:161,1,245.699992501831,2|0,0:2|0:0,0:0:0:0:
151,163,37641,6,0,P|204:269|320:300,1,245.699992501831,2|0,0:2|0:0,0:0:0:0:
194,160,38853,6,0,P|80:156|43:265,1,245.699992501831,2|0,0:2|0:0,0:0:0:0:
245,46,40065,6,0,B|266:121|200:162|191:151|183:142|123:187|154:248,1,245.699992501831,2|0,0:2|0:0,0:0:0:0:
282,329,41277,2,0,B|261:254|327:214|336:225|344:234|404:189|373:127,1,245.699992501831,2|0,0:2|0:0,0:0:0:0:
134,170,42489,6,0,L|381:203,1,245.699992501831,2|0,0:2|0:0,0:0:0:0:
181,199,43701,2,0,L|346:178,1,163.799995001221,2|0,0:2|0:0,0:0:0:0:
256,192,44383,12,0,44610,0:0:0:0:
217,58,44913,6,0,B|235:113|308:111|398:104|378:233|378:233|342:253|290:217,1,354.899983753968,6|2,1:2|0:2,0:0:0:0:
427,175,45974,5,2,0:2:0:0:
262,320,46126,6,0,B|279:115|372:55|453:132|416:194,1,354.899983753968,2|2,1:2|0:2,0:0:0:0:
292,227,47186,5,2,0:2:0:0:
117,71,47338,6,0,B|176:57|206:103|206:103|147:180|74:145|50:201|50:201|78:231|115:232,1,354.899983753968,2|2,1:2|0:2,0:0:0:0:
238,197,48398,5,2,0:2:0:0:
72,349,48550,6,0,B|126:374|221:324|245:269|123:240|123:240|83:178|123:138,1,354.899983753968,2|0,1:2|0:0,0:0:0:0:
203,130,49560,1,0,1:2:0:0:
111,175,49661,1,0,1:2:0:0:
330,321,49762,6,0,L|316:211,1,91,10|0,0:2|0:0,0:0:0:0:
183,255,50065,2,0,L|195:352,1,91,0|0,1:2|0:0,0:0:0:0:
329,28,50368,2,0,L|342:133,1,91,2|0,1:2|0:0,0:0:0:0:
186,29,50671,2,0,L|171:131,1,91,2|0,1:2|0:0,0:0:0:0:
404,323,50974,5,10,0:2:0:0:
289,244,51125,2,0,L|354:260,2,45.5,0|0|10,1:2|1:0|0:2,0:0:0:0:
424,152,51429,2,0,L|489:136,2,45.5,0|0|10,1:2|1:0|0:2,0:0:0:0:
296,231,51732,6,0,L|351:247,1,45.5,0|0,1:2|1:0,0:0:0:0:
194,121,51883,2,0,L|138:129,3,45.5,8|0|0|0,0:2|1:0|1:2|1:2,0:0:0:0:
288,186,52186,5,10,0:2:0:0:
58,72,52338,1,10,0:2:0:0:
428,131,52641,5,10,0:2:0:0:
93,265,52792,1,10,0:2:0:0:
461,41,53095,5,10,0:2:0:0:
238,158,53246,1,10,0:2:0:0:
72,124,54610,6,0,B|123:106|123:106|274:157,1,209.300003992081,6|8,1:2|0:2,0:0:0:0:
373,91,55065,1,2,3:2:0:0:
257,279,55216,2,0,L|133:232,1,104.65000199604,2|0,1:2|0:2,0:0:0:0:
269,106,55519,1,8,0:2:0:0:
44,294,55671,1,2,3:2:0:0:
186,230,55822,6,0,L|163:332,1,104.65000199604,2|0,1:2|0:0,0:0:0:0:
40,99,56125,2,0,L|161:69,1,104.65000199604,8|2,0:2|3:2,0:0:0:0:
384,89,56429,1,2,1:2:0:0:
134,62,56580,1,0,3:2:0:0:
269,128,56732,2,0,L|159:151,1,104.65000199604,8|2,0:2|3:2,0:0:0:0:
429,346,57035,6,0,B|446:335|454:312|454:312|423:255|297:251,1,209.300003992081,6|8,1:2|0:2,0:0:0:0:
442,169,57489,1,2,3:2:0:0:
174,347,57641,2,0,L|60:327,1,104.65000199604,2|0,1:2|3:2,0:0:0:0:
135,232,57944,1,8,0:2:0:0:
255,197,58095,1,0,3:2:0:0:
39,168,58247,6,0,P|48:106|195:66,1,209.300003992081,2|8,1:2|0:2,0:0:0:0:
310,113,58701,1,2,3:2:0:0:
163,148,58853,1,2,1:2:0:0:
322,32,59004,1,2,3:2:0:0:
73,37,59156,1,10,0:2:0:0:
442,130,59307,1,2,3:2:0:0:
153,300,59459,6,0,B|190:314|255:287|255:287|324:294|342:350,1,209.300003992081,6|8,1:2|0:2,0:0:0:0:
191,221,59913,1,2,3:2:0:0:
428,38,60065,2,0,P|388:67|317:86,1,104.65000199604,2|0,1:2|3:2,0:0:0:0:
468,231,60368,2,0,L|482:114,1,104.65000199604,8|2,0:2|3:2,0:0:0:0:
338,53,60671,6,0,L|312:171,1,104.65000199604,2|0,1:2|3:0,0:0:0:0:
152,65,60974,2,0,P|195:40|265:17,1,104.65000199604,8|2,0:2|3:2,0:0:0:0:
368,265,61277,1,2,1:2:0:0:
237,189,61429,1,0,3:2:0:0:
402,131,61581,1,8,0:2:0:0:
131,346,61732,1,2,3:2:0:0:
472,362,61883,6,0,B|435:348|370:375|370:375|301:368|283:312,1,209.300003992081,6|8,1:2|0:2,0:0:0:0:
423,221,62338,1,2,3:2:0:0:
105,333,62489,2,0,L|79:223,1,104.65000199604,2|0,1:2|3:2,0:0:0:0:
204,269,62792,1,8,0:2:0:0:
465,50,62944,1,2,3:2:0:0:
218,36,63095,6,0,L|332:76,1,104.65000199604,2|0,1:2|0:0,0:0:0:0:
71,51,63398,1,8,0:2:0:0:
320,155,63550,1,2,1:2:0:0:
196,141,63701,6,0,L|204:203,1,52.3250009980202,2|0,1:2|0:0,0:0:0:0:
310,175,63853,2,0,L|343:227,1,52.3250009980202,10|8,0:2|0:2,0:0:0:0:
128,284,64004,2,0,L|187:286,1,52.3250009980202,10|8,0:2|0:2,0:0:0:0:
342,77,64156,2,0,L|401:79,1,52.3250009980202,10|8,0:2|0:2,0:0:0:0:
161,25,64307,6,0,P|168:89|250:147,1,156.975002994061,6|0,1:2|0:0,0:0:0:0:
86,322,64610,2,0,L|62:198,1,104.65000199604,10|2,0:2|3:2,0:0:0:0:
218,316,64913,1,2,1:2:0:0:
84,208,65065,1,2,3:2:0:0:
369,243,65216,1,10,0:2:0:0:
104,311,65368,1,2,3:2:0:0:
373,229,65519,6,0,P|360:153|298:109,1,156.975002994061,2|0,1:2|0:0,0:0:0:0:
469,56,65822,1,10,0:2:0:0:
484,348,65974,2,0,L|373:326,1,104.65000199604,2|0,3:2|1:2,0:0:0:0:
494,223,66277,1,2,3:2:0:0:
232,274,66429,1,10,0:2:0:0:
352,248,66580,1,2,3:2:0:0:
80,22,66732,6,0,P|155:31|168:171,1,209.300003992081,6|8,1:2|0:2,0:0:0:0:
56,107,67186,2,0,L|34:209,1,104.65000199604,2|0,3:2|0:0,0:0:0:0:
176,136,67489,1,0,3:2:0:0:
439,217,67641,1,8,0:2:0:0:
168,314,67792,6,0,B|202:288|269:295|307:301|307:301|328:343|328:343|303:336,1,209.300003992081,2|0,3:2|3:2,0:0:0:0:
171,233,68247,2,0,L|194:336,1,104.65000199604,10|0,0:2|3:2,0:0:0:0:
315,118,68550,2,0,L|292:221,1,104.65000199604,2|0,1:2|3:2,0:0:0:0:
439,342,68853,2,0,L|416:239,1,104.65000199604,10|0,0:2|3:2,0:0:0:0:
182,95,69156,6,0,B|233:113|233:113|384:62,1,209.300003992081,6|8,1:2|0:2,0:0:0:0:
485,16,69610,1,2,3:2:0:0:
202,311,69762,2,0,L|316:331,1,104.65000199604,2|0,1:2|3:0,0:0:0:0:
319,349,70065,2,0,L|205:369,1,104.65000199604,8|0,0:2|3:2,0:0:0:0:
349,113,70368,5,0,1:2:0:0:
366,281,70519,1,0,3:2:0:0:
198,142,70671,1,8,0:2:0:0:
333,96,70822,1,0,3:2:0:0:
480,182,70974,5,2,1:2:0:0:
316,78,71126,1,0,3:2:0:0:
499,52,71277,1,8,0:2:0:0:
67,217,71580,6,0,P|76:279|223:319,1,209.300003992081,2|8,1:2|0:2,0:0:0:0:
81,354,72035,1,2,3:2:0:0:
368,108,72186,1,10,0:2:0:0:
263,160,72338,2,0,L|336:177,1,52.3250009980202,8|8,3:2|0:2,0:0:0:0:
177,48,72489,2,0,L|176:110,1,52.3250009980202,8|8,0:2|0:0,0:0:0:0:
35,128,72641,1,4,1:2:0:0:
261,363,72944,6,0,L|252:278,1,52.3250009980202,2|0,1:2|1:2,0:0:0:0:
422,24,73096,2,0,B|307:45,1,104.65000199604,10|2,0:2|1:2,0:0:0:0:
455,330,73398,5,10,0:2:0:0:
290,198,73550,1,0,1:2:0:0:
470,16,73701,5,10,0:2:0:0:
134,313,73853,1,2,1:2:0:0:
393,78,74004,6,0,B|356:92|291:65|291:65|222:72|204:128,1,209.300003992081,6|10,1:2|0:2,0:0:0:0:
354,5,74459,1,2,3:2:0:0:
245,332,74610,2,0,L|238:204,1,104.65000199604,0|0,0:0|3:2,0:0:0:0:
378,229,74913,1,10,0:2:0:0:
84,293,75065,6,0,P|110:317|287:353,1,209.300003992081,2|0,3:2|3:2,0:0:0:0:
381,246,75519,1,10,0:2:0:0:
269,139,75671,2,0,L|246:275,1,104.65000199604,2|0,3:2|1:2,0:0:0:0:
136,149,75974,1,2,3:2:0:0:
408,94,76126,1,8,0:2:0:0:
118,293,76277,1,0,3:2:0:0:
385,348,76429,6,0,P|443:325|441:185,1,209.300003992081,2|8,1:2|0:2,0:0:0:0:
337,164,76883,1,2,3:2:0:0:
480,41,77035,2,0,L|353:72,1,104.65000199604,2|0,1:2|3:2,0:0:0:0:
263,29,77338,1,8,0:2:0:0:
420,228,77489,1,2,3:2:0:0:
145,300,77641,5,6,1:2:0:0:
256,192,77868,12,0,77943,0:0:0:0:
212,118,78247,6,0,P|260:132|327:144,1,102.375003905296,2|0,0:2|0:0,0:0:0:0:
53,192,78550,1,10,0:2:0:0:
461,353,78853,6,0,L|357:320,1,95.5499970840455,6|0,1:2|0:2,0:0:0:0:
353,240,79156,2,0,P|406:223|457:207,1,95.5499970840455,10|0,0:2|0:2,0:0:0:0:
219,39,79459,1,2,1:2:0:0:
209,134,79611,1,0,1:2:0:0:
460,112,79762,1,10,0:2:0:0:
175,334,79913,6,0,B|230:325|287:361|287:361|338:359|351:318,1,191.099994168091,2|2,0:2|0:2,0:0:0:0:
227,230,80368,2,0,L|102:255,1,95.5499970840455,10|0,0:2|0:2,0:0:0:0:
268,114,80671,1,2,1:2:0:0:
272,229,80822,1,0,1:2:0:0:
391,91,80974,2,0,L|486:121,1,95.5499970840455,10|0,0:2|0:2,0:0:0:0:
152,341,81277,6,0,L|140:211,1,95.5499970840455,2|0,1:2|0:2,0:0:0:0:
250,41,81580,2,0,L|364:55,1,95.5499970840455,10|0,0:2|0:2,0:0:0:0:
189,250,81883,1,2,1:2:0:0:
313,176,82034,1,0,1:2:0:0:
143,109,82186,1,10,0:2:0:0:
460,362,82338,6,0,P|394:315|280:296,1,191.099994168091,2|0,0:2|0:2,0:0:0:0:
410,88,82792,1,10,0:2:0:0:
398,223,82944,1,2,1:2:0:0:
151,364,83095,5,10,0:2:0:0:
410,88,83247,1,0,1:2:0:0:
129,233,83398,1,10,0:2:0:0:
274,90,83550,2,0,L|208:107,1,47.7749985420228,8|8,0:2|0:2,0:0:0:0:
43,227,83702,6,0,L|150:246,1,95.5499970840455,6|0,1:2|0:0,0:0:0:0:
27,93,84004,2,0,L|34:206,1,95.5499970840455,10|0,0:2|0:2,0:0:0:0:
279,284,84307,1,2,1:2:0:0:
150,315,84459,1,0,1:2:0:0:
20,351,84610,1,10,0:2:0:0:
301,193,84762,6,0,B|287:239|218:246|218:246|153:219|116:233,1,191.099994168091,2|2,0:2|0:2,0:0:0:0:
258,90,85216,2,0,L|280:218,1,95.5499970840455,10|0,0:2|0:2,0:0:0:0:
394,103,85519,1,2,1:2:0:0:
222,9,85671,1,0,1:2:0:0:
482,322,85822,2,0,L|496:226,1,95.5499970840455,10|0,0:2|0:2,0:0:0:0:
187,343,86126,5,6,1:2:0:0:
422,71,86277,2,0,L|366:86,2,47.7749985420228,10|8|2,0:2|0:2|1:2,0:0:0:0:
285,150,86580,2,0,L|341:165,2,47.7749985420228,10|8|2,0:2|0:2|1:2,0:0:0:0:
420,54,86883,6,0,L|435:133,1,47.7749985420228,10|8,0:2|0:2,0:0:0:0:
276,302,87035,2,0,L|291:223,1,47.7749985420228,8|8,0:0|0:0,0:0:0:0:
89,287,87186,6,0,P|53:208|212:94,1,318.5,6|0,1:2|0:0,0:0:0:0:
