osu file format v14

[General]
AudioFilename: audio.mp3
AudioLeadIn: 0
PreviewTime: 118590
Countdown: 0
SampleSet: Soft
StackLeniency: 0.7
Mode: 3
LetterboxInBreaks: 0
SpecialStyle: 0
WidescreenStoryboard: 0

[Editor]
DistanceSpacing: 1.2
BeatDivisor: 4
GridSize: 4
TimelineZoom: 4.399998

[Metadata]
Title:SPEED STAR
TitleUnicode:SPEED STAR
Artist:GARNiDELiA
ArtistUnicode:GARNiDELiA
Creator:LuxSayaka
Version:The Irregular at Stars
Source:劇場版 魔法科高校の劣等生 星を呼ぶ少女
Tags:The Irregular at Magic High School The Movie The Girl Who Calls the Stars 2ndlegend Onta_Bekasi
BeatmapID:2031155
BeatmapSetID:970441

[Difficulty]
HPDrainRate:8
CircleSize:4
OverallDifficulty:0
ApproachRate:5
SliderMultiplier:1.4
SliderTickRate:1

[Events]
//Background and Video events
0,0,"Mahouka koukou.jpg",0,0
//Break Periods
2,144960,153773
//Storyboard Layer 0 (Background)
//Storyboard Layer 1 (Fail)
//Storyboard Layer 2 (Pass)
//Storyboard Layer 3 (Foreground)
//Storyboard Layer 4 (Overlay)
//Storyboard Sound Samples

[TimingPoints]
1782,319.148936170213,4,2,0,2,1,0
52845,-100,4,2,0,2,0,1
76941,-100,4,2,0,2,0,0
119228,-100,4,2,0,2,0,1
143324,-100,4,2,0,2,0,0
165186,-100,4,2,0,2,0,1
200930,-100,4,2,0,2,0,0
206037,-100,4,2,0,2,0,1
230133,-100,4,2,0,2,0,0

[HitObjects]
448,192,1143,128,0,1462:0:0:0:0:
192,192,1462,128,0,1782:0:0:0:0:
64,192,1622,128,0,1702:0:0:0:0:
320,192,1702,128,0,1782:0:0:0:0:
448,192,1782,128,0,2101:0:0:0:0:
64,192,1782,1,0,0:0:0:0:
320,192,1941,1,0,0:0:0:0:
64,192,2101,1,0,0:0:0:0:
192,192,2101,128,0,2260:0:0:0:0:
448,192,2260,1,0,0:0:0:0:
320,192,2260,128,0,2739:0:0:0:0:
64,192,2420,1,0,0:0:0:0:
192,192,2579,128,0,2739:0:0:0:0:
448,192,2579,1,0,0:0:0:0:
64,192,2739,128,0,2899:0:0:0:0:
448,192,2739,1,0,0:0:0:0:
320,192,2899,128,0,3058:0:0:0:0:
192,192,2899,1,0,0:0:0:0:
448,192,3058,1,0,0:0:0:0:
64,192,3058,1,0,0:0:0:0:
192,192,3218,1,0,0:0:0:0:
320,192,3377,1,0,0:0:0:0:
448,192,3377,128,0,3537:0:0:0:0:
64,192,3537,128,0,3696:0:0:0:0:
192,192,3537,1,0,0:0:0:0:
192,192,3696,128,0,4016:0:0:0:0:
448,192,3696,1,0,0:0:0:0:
320,192,3856,128,0,4016:0:0:0:0:
64,192,3856,1,0,0:0:0:0:
64,192,4016,128,0,4335:0:0:0:0:
448,192,4016,128,0,4095:0:0:0:0:
320,192,4095,128,0,4175:0:0:0:0:
192,192,4175,128,0,4255:0:0:0:0:
320,192,4255,128,0,4335:0:0:0:0:
448,192,4335,128,0,4654:0:0:0:0:
192,192,4335,1,0,0:0:0:0:
320,192,4494,128,0,4654:0:0:0:0:
64,192,4654,1,0,0:0:0:0:
192,192,4654,128,0,4813:0:0:0:0:
320,192,4813,128,0,5133:0:0:0:0:
448,192,4813,128,0,4973:0:0:0:0:
192,192,4973,128,0,5133:0:0:0:0:
64,192,5133,128,0,5292:0:0:0:0:
448,192,5133,128,0,5292:0:0:0:0:
320,192,5292,1,0,0:0:0:0:
192,192,5452,1,0,0:0:0:0:
64,192,5452,128,0,5930:0:0:0:0:
320,192,5611,128,0,5771:0:0:0:0:
448,192,5771,1,0,0:0:0:0:
192,192,5930,1,0,0:0:0:0:
448,192,5930,128,0,6090:0:0:0:0:
320,192,6010,128,0,6170:0:0:0:0:
192,192,6090,128,0,6250:0:0:0:0:
64,192,6170,128,0,6329:0:0:0:0:
448,192,6170,128,0,6329:0:0:0:0:
320,192,6250,128,0,6409:0:0:0:0:
192,192,6329,128,0,6489:0:0:0:0:
64,192,6409,128,0,6569:0:0:0:0:
448,192,6409,128,0,6569:0:0:0:0:
320,192,6489,128,0,6649:0:0:0:0:
192,192,6569,128,0,6728:0:0:0:0:
64,192,6649,128,0,6808:0:0:0:0:
448,192,6649,128,0,6808:0:0:0:0:
320,192,6728,128,0,6888:0:0:0:0:
192,192,6808,128,0,6888:0:0:0:0:
64,192,6888,128,0,8085:0:0:0:0:
448,192,6888,128,0,8085:0:0:0:0:
192,192,8164,128,0,9361:0:0:0:0:
64,192,8164,128,0,9361:0:0:0:0:
320,192,8164,128,0,9361:0:0:0:0:
64,192,9441,128,0,9521:0:0:0:0:
192,192,9441,128,0,9521:0:0:0:0:
448,192,9441,128,0,9521:0:0:0:0:
320,192,9601,128,0,9680:0:0:0:0:
192,192,9601,128,0,9680:0:0:0:0:
448,192,9601,128,0,9680:0:0:0:0:
64,192,9760,128,0,9840:0:0:0:0:
320,192,9760,128,0,9840:0:0:0:0:
192,192,9760,128,0,9840:0:0:0:0:
320,192,9920,128,0,10000:0:0:0:0:
192,192,9920,128,0,10000:0:0:0:0:
448,192,9920,128,0,10000:0:0:0:0:
64,192,10079,128,0,10159:0:0:0:0:
320,192,10079,128,0,10159:0:0:0:0:
448,192,10079,128,0,10159:0:0:0:0:
192,192,10239,128,0,10319:0:0:0:0:
64,192,10239,128,0,10319:0:0:0:0:
320,192,10239,128,0,10319:0:0:0:0:
448,192,10399,128,0,10478:0:0:0:0:
192,192,10399,128,0,10478:0:0:0:0:
64,192,10399,128,0,10478:0:0:0:0:
64,192,10558,128,0,10638:0:0:0:0:
192,192,10558,128,0,10638:0:0:0:0:
320,192,10558,128,0,10638:0:0:0:0:
448,192,10558,128,0,10638:0:0:0:0:
64,192,10718,128,0,10797:0:0:0:0:
192,192,10718,128,0,10797:0:0:0:0:
320,192,10718,128,0,10797:0:0:0:0:
448,192,10718,128,0,10797:0:0:0:0:
64,192,10877,128,0,10957:0:0:0:0:
192,192,10877,128,0,10957:0:0:0:0:
320,192,10877,128,0,10957:0:0:0:0:
448,192,10877,128,0,10957:0:0:0:0:
64,192,11994,128,0,12154:0:0:0:0:
192,192,11994,128,0,12154:0:0:0:0:
320,192,11994,1,0,0:0:0:0:
448,192,12154,128,0,12313:0:0:0:0:
320,192,12313,128,0,12473:0:0:0:0:
64,192,12313,1,0,0:0:0:0:
192,192,12473,128,0,12633:0:0:0:0:
320,192,12553,128,0,12633:0:0:0:0:
64,192,12633,128,0,12792:0:0:0:0:
448,192,12633,1,0,0:0:0:0:
320,192,12792,128,0,12952:0:0:0:0:
192,192,12952,128,0,13111:0:0:0:0:
448,192,12952,1,0,0:0:0:0:
64,192,13111,128,0,13271:0:0:0:0:
320,192,13191,128,0,13271:0:0:0:0:
192,192,13271,128,0,13430:0:0:0:0:
448,192,13271,1,0,0:0:0:0:
320,192,13430,128,0,13590:0:0:0:0:
448,192,13590,128,0,13750:0:0:0:0:
192,192,13590,128,0,13670:0:0:0:0:
64,192,13670,128,0,13750:0:0:0:0:
320,192,13750,128,0,13829:0:0:0:0:
192,192,13829,128,0,13909:0:0:0:0:
448,192,13909,128,0,14069:0:0:0:0:
64,192,13909,1,0,0:0:0:0:
320,192,14069,128,0,14228:0:0:0:0:
192,192,14228,128,0,14547:0:0:0:0:
64,192,14228,128,0,14547:0:0:0:0:
448,192,14228,1,0,0:0:0:0:
320,192,14547,128,0,14707:0:0:0:0:
448,192,14707,128,0,14867:0:0:0:0:
64,192,14867,128,0,15026:0:0:0:0:
192,192,14867,1,0,0:0:0:0:
320,192,15026,128,0,15186:0:0:0:0:
192,192,15106,128,0,15186:0:0:0:0:
64,192,15186,1,0,0:0:0:0:
448,192,15186,128,0,15345:0:0:0:0:
192,192,15345,128,0,15505:0:0:0:0:
320,192,15505,128,0,15664:0:0:0:0:
448,192,15505,1,0,0:0:0:0:
64,192,15664,128,0,15824:0:0:0:0:
192,192,15744,128,0,15824:0:0:0:0:
320,192,15824,1,0,0:0:0:0:
448,192,15824,128,0,15984:0:0:0:0:
192,192,15904,128,0,15984:0:0:0:0:
64,192,15984,128,0,16143:0:0:0:0:
320,192,16063,128,0,16143:0:0:0:0:
192,192,16143,128,0,16223:0:0:0:0:
448,192,16143,128,0,16303:0:0:0:0:
320,192,16223,128,0,16303:0:0:0:0:
64,192,16303,128,0,16462:0:0:0:0:
192,192,16383,128,0,16462:0:0:0:0:
320,192,16462,128,0,16622:0:0:0:0:
448,192,16462,128,0,16622:0:0:0:0:
192,192,16622,128,0,16782:0:0:0:0:
64,192,16622,128,0,16782:0:0:0:0:
448,192,16782,128,0,16941:0:0:0:0:
320,192,16861,128,0,17021:0:0:0:0:
192,192,16941,128,0,17101:0:0:0:0:
64,192,17021,128,0,17101:0:0:0:0:
448,192,17101,128,0,17260:0:0:0:0:
320,192,17101,128,0,17180:0:0:0:0:
192,192,17260,128,0,17420:0:0:0:0:
320,192,17420,128,0,17579:0:0:0:0:
64,192,17420,1,0,0:0:0:0:
448,192,17420,1,0,0:0:0:0:
192,192,17579,128,0,17739:0:0:0:0:
448,192,17739,128,0,17899:0:0:0:0:
64,192,17739,1,0,0:0:0:0:
64,192,17899,128,0,18058:0:0:0:0:
320,192,17899,1,0,0:0:0:0:
320,192,18058,128,0,18218:0:0:0:0:
192,192,18058,1,0,0:0:0:0:
448,192,18058,1,0,0:0:0:0:
448,192,18218,128,0,18377:0:0:0:0:
64,192,18218,1,0,0:0:0:0:
192,192,18377,128,0,18537:0:0:0:0:
320,192,18537,128,0,18696:0:0:0:0:
448,192,18537,1,0,0:0:0:0:
64,192,18696,128,0,18856:0:0:0:0:
192,192,18696,1,0,0:0:0:0:
448,192,18696,1,0,0:0:0:0:
192,192,18856,128,0,19016:0:0:0:0:
320,192,19016,128,0,19175:0:0:0:0:
448,192,19016,1,0,0:0:0:0:
64,192,19175,128,0,19335:0:0:0:0:
192,192,19175,1,0,0:0:0:0:
320,192,19335,128,0,19654:0:0:0:0:
448,192,19335,128,0,19654:0:0:0:0:
192,192,19335,1,0,0:0:0:0:
192,192,19654,128,0,19813:0:0:0:0:
64,192,19654,1,0,0:0:0:0:
320,192,19813,128,0,19973:0:0:0:0:
448,192,19973,128,0,20133:0:0:0:0:
192,192,19973,1,0,0:0:0:0:
64,192,19973,1,0,0:0:0:0:
192,192,20133,128,0,20292:0:0:0:0:
320,192,20292,128,0,20452:0:0:0:0:
64,192,20292,1,0,0:0:0:0:
64,192,20452,128,0,20611:0:0:0:0:
448,192,20452,1,0,0:0:0:0:
192,192,20611,1,0,0:0:0:0:
320,192,20611,1,0,0:0:0:0:
448,192,20611,128,0,20771:0:0:0:0:
192,192,20771,128,0,20930:0:0:0:0:
64,192,20771,1,0,0:0:0:0:
320,192,20930,128,0,21090:0:0:0:0:
64,192,21090,128,0,21250:0:0:0:0:
448,192,21090,1,0,0:0:0:0:
192,192,21250,128,0,21409:0:0:0:0:
320,192,21250,1,0,0:0:0:0:
448,192,21250,1,0,0:0:0:0:
64,192,21409,128,0,21569:0:0:0:0:
448,192,21569,128,0,21728:0:0:0:0:
320,192,21569,1,0,0:0:0:0:
192,192,21728,128,0,21888:0:0:0:0:
64,192,21728,1,0,0:0:0:0:
320,192,21888,128,0,22207:0:0:0:0:
64,192,21888,128,0,22207:0:0:0:0:
192,192,22207,1,0,0:0:0:0:
448,192,22207,1,0,0:0:0:0:
64,192,22526,1,0,0:0:0:0:
192,192,22526,1,0,0:0:0:0:
448,192,22526,1,0,0:0:0:0:
320,192,22686,1,0,0:0:0:0:
192,192,22766,1,0,0:0:0:0:
448,192,22845,1,0,0:0:0:0:
64,192,22845,1,0,0:0:0:0:
320,192,23085,1,0,0:0:0:0:
448,192,23085,1,0,0:0:0:0:
192,192,23324,1,0,0:0:0:0:
64,192,23324,1,0,0:0:0:0:
448,192,23324,1,0,0:0:0:0:
320,192,23643,1,0,0:0:0:0:
64,192,23643,1,0,0:0:0:0:
320,192,23803,1,0,0:0:0:0:
448,192,23803,1,0,0:0:0:0:
64,192,23803,1,0,0:0:0:0:
192,192,23962,1,0,0:0:0:0:
320,192,24042,1,0,0:0:0:0:
448,192,24122,1,0,0:0:0:0:
192,192,24122,1,0,0:0:0:0:
192,192,24282,1,0,0:0:0:0:
64,192,24282,1,0,0:0:0:0:
320,192,24441,1,0,0:0:0:0:
448,192,24441,1,0,0:0:0:0:
64,192,24441,1,0,0:0:0:0:
192,192,24760,1,0,0:0:0:0:
320,192,24760,1,0,0:0:0:0:
64,192,25079,1,0,0:0:0:0:
192,192,25079,1,0,0:0:0:0:
448,192,25079,1,0,0:0:0:0:
320,192,25239,1,0,0:0:0:0:
192,192,25319,1,0,0:0:0:0:
320,192,25399,1,0,0:0:0:0:
64,192,25399,1,0,0:0:0:0:
448,192,25638,1,0,0:0:0:0:
192,192,25638,1,0,0:0:0:0:
320,192,25877,1,0,0:0:0:0:
192,192,25877,1,0,0:0:0:0:
448,192,25877,1,0,0:0:0:0:
64,192,26196,1,0,0:0:0:0:
192,192,26196,1,0,0:0:0:0:
320,192,26356,1,0,0:0:0:0:
448,192,26356,1,0,0:0:0:0:
64,192,26356,1,0,0:0:0:0:
320,192,26516,1,0,0:0:0:0:
448,192,26595,1,0,0:0:0:0:
192,192,26675,1,0,0:0:0:0:
64,192,26675,1,0,0:0:0:0:
320,192,26835,1,0,0:0:0:0:
448,192,26835,1,0,0:0:0:0:
192,192,26994,1,0,0:0:0:0:
64,192,26994,1,0,0:0:0:0:
448,192,26994,1,0,0:0:0:0:
64,192,27154,1,0,0:0:0:0:
192,192,27154,1,0,0:0:0:0:
320,192,27234,1,0,0:0:0:0:
448,192,27234,1,0,0:0:0:0:
64,192,27313,128,0,27553:0:0:0:0:
192,192,27313,128,0,27553:0:0:0:0:
320,192,27313,128,0,27553:0:0:0:0:
64,192,27633,1,0,0:0:0:0:
320,192,27633,1,0,0:0:0:0:
448,192,27633,1,0,0:0:0:0:
192,192,27792,1,0,0:0:0:0:
64,192,27872,1,0,0:0:0:0:
320,192,27952,128,0,28111:0:0:0:0:
448,192,27952,128,0,28111:0:0:0:0:
320,192,28191,128,0,28351:0:0:0:0:
448,192,28191,128,0,28351:0:0:0:0:
192,192,28430,128,0,28590:0:0:0:0:
64,192,28430,128,0,28590:0:0:0:0:
320,192,28750,1,0,0:0:0:0:
448,192,28750,1,0,0:0:0:0:
192,192,28909,128,0,29149:0:0:0:0:
320,192,28909,128,0,29149:0:0:0:0:
64,192,29228,1,0,0:0:0:0:
448,192,29228,1,0,0:0:0:0:
320,192,29388,1,0,0:0:0:0:
192,192,29388,1,0,0:0:0:0:
64,192,29547,128,0,29787:0:0:0:0:
192,192,29547,128,0,29787:0:0:0:0:
320,192,29547,128,0,29787:0:0:0:0:
448,192,29867,128,0,30106:0:0:0:0:
320,192,29867,128,0,30106:0:0:0:0:
192,192,29867,128,0,30106:0:0:0:0:
64,192,30186,1,0,0:0:0:0:
320,192,30186,1,0,0:0:0:0:
448,192,30186,1,0,0:0:0:0:
192,192,30345,1,0,0:0:0:0:
64,192,30425,1,0,0:0:0:0:
320,192,30505,128,0,30664:0:0:0:0:
448,192,30505,128,0,30664:0:0:0:0:
192,192,30505,128,0,30664:0:0:0:0:
192,192,30744,128,0,30904:0:0:0:0:
320,192,30744,128,0,30904:0:0:0:0:
448,192,30744,128,0,30904:0:0:0:0:
64,192,30984,128,0,31143:0:0:0:0:
320,192,30984,128,0,31143:0:0:0:0:
192,192,30984,128,0,31143:0:0:0:0:
320,192,31303,1,0,0:0:0:0:
448,192,31303,1,0,0:0:0:0:
64,192,31462,128,0,31702:0:0:0:0:
320,192,31462,128,0,31702:0:0:0:0:
448,192,31462,128,0,31702:0:0:0:0:
64,192,31782,128,0,32101:0:0:0:0:
192,192,31782,128,0,32101:0:0:0:0:
320,192,31782,128,0,31861:0:0:0:0:
448,192,31782,128,0,31861:0:0:0:0:
320,192,31941,128,0,32021:0:0:0:0:
448,192,31941,128,0,32021:0:0:0:0:
320,192,32101,128,0,32340:0:0:0:0:
448,192,32101,128,0,32340:0:0:0:0:
64,192,32420,1,0,0:0:0:0:
192,192,32420,1,0,0:0:0:0:
320,192,32420,1,0,0:0:0:0:
448,192,32420,1,0,0:0:0:0:
64,192,32739,1,0,0:0:0:0:
448,192,32739,1,0,0:0:0:0:
192,192,32739,1,0,0:0:0:0:
320,192,32819,1,0,0:0:0:0:
192,192,32899,1,0,0:0:0:0:
448,192,32978,1,0,0:0:0:0:
64,192,33058,1,0,0:0:0:0:
192,192,33058,1,0,0:0:0:0:
320,192,33058,1,0,0:0:0:0:
64,192,33297,1,0,0:0:0:0:
320,192,33297,1,0,0:0:0:0:
448,192,33297,1,0,0:0:0:0:
64,192,33537,1,0,0:0:0:0:
192,192,33537,1,0,0:0:0:0:
320,192,33537,1,0,0:0:0:0:
320,192,33856,1,0,0:0:0:0:
448,192,33856,1,0,0:0:0:0:
64,192,34016,1,0,0:0:0:0:
192,192,34016,1,0,0:0:0:0:
448,192,34016,1,0,0:0:0:0:
320,192,34175,1,0,0:0:0:0:
192,192,34255,1,0,0:0:0:0:
64,192,34335,1,0,0:0:0:0:
320,192,34335,1,0,0:0:0:0:
192,192,34494,1,0,0:0:0:0:
448,192,34494,1,0,0:0:0:0:
320,192,34654,1,0,0:0:0:0:
64,192,34654,1,0,0:0:0:0:
192,192,34654,1,0,0:0:0:0:
320,192,34973,1,0,0:0:0:0:
448,192,34973,1,0,0:0:0:0:
64,192,34973,1,0,0:0:0:0:
192,192,35292,1,0,0:0:0:0:
448,192,35292,1,0,0:0:0:0:
64,192,35292,1,0,0:0:0:0:
320,192,35372,1,0,0:0:0:0:
192,192,35452,1,0,0:0:0:0:
64,192,35532,1,0,0:0:0:0:
320,192,35611,1,0,0:0:0:0:
448,192,35611,1,0,0:0:0:0:
192,192,35611,1,0,0:0:0:0:
64,192,35851,1,0,0:0:0:0:
320,192,35851,1,0,0:0:0:0:
448,192,35851,1,0,0:0:0:0:
192,192,36090,1,0,0:0:0:0:
320,192,36090,1,0,0:0:0:0:
448,192,36090,1,0,0:0:0:0:
192,192,36409,1,0,0:0:0:0:
448,192,36409,1,0,0:0:0:0:
320,192,36569,1,0,0:0:0:0:
192,192,36569,1,0,0:0:0:0:
64,192,36569,1,0,0:0:0:0:
320,192,36728,1,0,0:0:0:0:
192,192,36808,1,0,0:0:0:0:
64,192,36888,1,0,0:0:0:0:
320,192,36888,1,0,0:0:0:0:
448,192,36888,1,0,0:0:0:0:
192,192,37047,1,0,0:0:0:0:
448,192,37047,1,0,0:0:0:0:
192,192,37207,1,0,0:0:0:0:
448,192,37207,1,0,0:0:0:0:
64,192,37207,1,0,0:0:0:0:
192,192,37367,1,0,0:0:0:0:
64,192,37367,1,0,0:0:0:0:
320,192,37446,1,0,0:0:0:0:
448,192,37446,1,0,0:0:0:0:
64,192,37526,128,0,37766:0:0:0:0:
192,192,37526,128,0,37766:0:0:0:0:
320,192,37526,128,0,37766:0:0:0:0:
192,192,37845,1,0,0:0:0:0:
320,192,37845,1,0,0:0:0:0:
448,192,37845,1,0,0:0:0:0:
320,192,38005,1,0,0:0:0:0:
192,192,38085,1,0,0:0:0:0:
64,192,38164,128,0,38324:0:0:0:0:
320,192,38164,128,0,38324:0:0:0:0:
448,192,38164,128,0,38324:0:0:0:0:
64,192,38404,128,0,38563:0:0:0:0:
192,192,38404,128,0,38563:0:0:0:0:
320,192,38404,128,0,38563:0:0:0:0:
192,192,38643,128,0,38803:0:0:0:0:
320,192,38643,128,0,38803:0:0:0:0:
448,192,38643,128,0,38803:0:0:0:0:
64,192,38962,1,0,0:0:0:0:
448,192,38962,1,0,0:0:0:0:
64,192,39122,128,0,39361:0:0:0:0:
320,192,39122,128,0,39361:0:0:0:0:
448,192,39122,128,0,39361:0:0:0:0:
320,192,39441,1,0,0:0:0:0:
448,192,39441,1,0,0:0:0:0:
192,192,39601,1,0,0:0:0:0:
64,192,39601,1,0,0:0:0:0:
320,192,39760,128,0,40000:0:0:0:0:
448,192,39760,128,0,40000:0:0:0:0:
192,192,39760,128,0,40000:0:0:0:0:
64,192,40079,128,0,40319:0:0:0:0:
192,192,40079,128,0,40319:0:0:0:0:
320,192,40079,128,0,40319:0:0:0:0:
64,192,40399,1,0,0:0:0:0:
320,192,40399,1,0,0:0:0:0:
448,192,40399,1,0,0:0:0:0:
192,192,40558,1,0,0:0:0:0:
320,192,40638,1,0,0:0:0:0:
64,192,40718,128,0,40877:0:0:0:0:
192,192,40718,128,0,40877:0:0:0:0:
448,192,40718,128,0,40877:0:0:0:0:
64,192,40957,128,0,41117:0:0:0:0:
192,192,40957,128,0,41117:0:0:0:0:
448,192,40957,128,0,41117:0:0:0:0:
192,192,41196,128,0,41356:0:0:0:0:
320,192,41196,128,0,41356:0:0:0:0:
448,192,41196,128,0,41356:0:0:0:0:
64,192,41516,1,0,0:0:0:0:
192,192,41516,1,0,0:0:0:0:
448,192,41675,128,0,41994:0:0:0:0:
320,192,41675,128,0,41755:0:0:0:0:
64,192,41675,128,0,41755:0:0:0:0:
192,192,41835,128,0,41914:0:0:0:0:
64,192,41994,128,0,42313:0:0:0:0:
192,192,41994,128,0,42074:0:0:0:0:
320,192,41994,128,0,42074:0:0:0:0:
448,192,42154,128,0,42234:0:0:0:0:
320,192,42313,1,0,0:0:0:0:
448,192,42313,1,0,0:0:0:0:
192,192,42393,1,0,0:0:0:0:
64,192,42393,1,0,0:0:0:0:
320,192,42473,1,0,0:0:0:0:
448,192,42473,1,0,0:0:0:0:
192,192,42553,1,0,0:0:0:0:
64,192,42553,1,0,0:0:0:0:
320,192,42633,1,0,0:0:0:0:
448,192,42633,1,0,0:0:0:0:
64,192,42633,128,0,43111:0:0:0:0:
192,192,42792,1,0,0:0:0:0:
192,192,42952,128,0,43111:0:0:0:0:
320,192,43111,128,0,43271:0:0:0:0:
448,192,43271,128,0,43430:0:0:0:0:
192,192,43271,1,0,0:0:0:0:
192,192,43430,128,0,43590:0:0:0:0:
64,192,43430,1,0,0:0:0:0:
64,192,43590,1,0,0:0:0:0:
320,192,43590,1,0,0:0:0:0:
448,192,43590,1,0,0:0:0:0:
448,192,43750,128,0,44547:0:0:0:0:
320,192,43750,128,0,43829:0:0:0:0:
192,192,43750,128,0,43829:0:0:0:0:
64,192,43909,128,0,43989:0:0:0:0:
192,192,44069,128,0,44149:0:0:0:0:
320,192,44069,128,0,44149:0:0:0:0:
64,192,44228,128,0,44308:0:0:0:0:
192,192,44228,128,0,44308:0:0:0:0:
320,192,44388,128,0,44547:0:0:0:0:
192,192,44547,1,0,0:0:0:0:
64,192,44547,128,0,45186:0:0:0:0:
320,192,44707,128,0,44787:0:0:0:0:
448,192,44707,128,0,44787:0:0:0:0:
192,192,44867,128,0,44946:0:0:0:0:
320,192,44867,128,0,44946:0:0:0:0:
448,192,45026,128,0,45186:0:0:0:0:
320,192,45186,128,0,45505:0:0:0:0:
192,192,45186,1,0,0:0:0:0:
64,192,45345,1,0,0:0:0:0:
192,192,45505,128,0,45664:0:0:0:0:
448,192,45505,1,0,0:0:0:0:
64,192,45505,1,0,0:0:0:0:
448,192,45664,128,0,45824:0:0:0:0:
320,192,45824,128,0,45984:0:0:0:0:
192,192,45824,1,0,0:0:0:0:
64,192,45984,128,0,46143:0:0:0:0:
192,192,45984,128,0,46143:0:0:0:0:
448,192,45984,128,0,46143:0:0:0:0:
192,192,46303,128,0,46462:0:0:0:0:
320,192,46303,128,0,46462:0:0:0:0:
448,192,46303,128,0,46462:0:0:0:0:
64,192,46622,128,0,46782:0:0:0:0:
192,192,46622,128,0,46782:0:0:0:0:
320,192,46622,128,0,46782:0:0:0:0:
320,192,46941,128,0,47101:0:0:0:0:
192,192,46941,128,0,47101:0:0:0:0:
448,192,46941,128,0,47101:0:0:0:0:
64,192,47260,128,0,47739:0:0:0:0:
192,192,47260,128,0,47579:0:0:0:0:
320,192,47579,128,0,47659:0:0:0:0:
448,192,47659,128,0,47739:0:0:0:0:
192,192,47739,128,0,48377:0:0:0:0:
320,192,47739,1,0,0:0:0:0:
64,192,47899,128,0,47978:0:0:0:0:
320,192,48058,128,0,48138:0:0:0:0:
448,192,48058,128,0,48138:0:0:0:0:
64,192,48218,128,0,48297:0:0:0:0:
320,192,48377,128,0,48537:0:0:0:0:
448,192,48377,128,0,48537:0:0:0:0:
192,192,48537,128,0,48696:0:0:0:0:
64,192,48537,128,0,48696:0:0:0:0:
320,192,48696,1,0,0:0:0:0:
448,192,48856,128,0,49654:0:0:0:0:
64,192,48856,128,0,48936:0:0:0:0:
192,192,48856,128,0,48936:0:0:0:0:
320,192,49016,128,0,49095:0:0:0:0:
192,192,49175,128,0,49255:0:0:0:0:
320,192,49175,128,0,49255:0:0:0:0:
64,192,49335,128,0,49414:0:0:0:0:
192,192,49335,128,0,49414:0:0:0:0:
320,192,49494,128,0,49654:0:0:0:0:
64,192,49654,128,0,50292:0:0:0:0:
192,192,49654,1,0,0:0:0:0:
448,192,49813,128,0,49893:0:0:0:0:
320,192,49813,128,0,49893:0:0:0:0:
192,192,49973,128,0,50053:0:0:0:0:
320,192,49973,128,0,50053:0:0:0:0:
448,192,50133,128,0,50212:0:0:0:0:
192,192,50292,128,0,50452:0:0:0:0:
320,192,50292,128,0,50452:0:0:0:0:
448,192,50292,128,0,50452:0:0:0:0:
64,192,50611,128,0,50771:0:0:0:0:
320,192,50611,128,0,50771:0:0:0:0:
448,192,50611,128,0,50771:0:0:0:0:
192,192,50771,128,0,50851:0:0:0:0:
320,192,50851,128,0,50930:0:0:0:0:
192,192,50930,128,0,51010:0:0:0:0:
64,192,50930,128,0,51010:0:0:0:0:
448,192,50930,128,0,51010:0:0:0:0:
320,192,51090,128,0,51170:0:0:0:0:
448,192,51090,128,0,51170:0:0:0:0:
64,192,51090,128,0,51170:0:0:0:0:
192,192,51250,1,0,0:0:0:0:
64,192,51250,1,0,0:0:0:0:
448,192,51409,128,0,51489:0:0:0:0:
64,192,51409,128,0,51489:0:0:0:0:
192,192,51409,128,0,51489:0:0:0:0:
320,192,51569,1,0,0:0:0:0:
448,192,51569,1,0,0:0:0:0:
64,192,51728,128,0,51888:0:0:0:0:
192,192,51728,128,0,51888:0:0:0:0:
448,192,51728,128,0,51888:0:0:0:0:
320,192,52047,1,0,0:0:0:0:
448,192,52047,1,0,0:0:0:0:
192,192,52127,1,0,0:0:0:0:
64,192,52127,1,0,0:0:0:0:
320,192,52207,1,0,0:0:0:0:
448,192,52207,1,0,0:0:0:0:
192,192,52287,1,0,0:0:0:0:
64,192,52367,1,0,0:0:0:0:
448,192,52367,1,0,0:0:0:0:
320,192,52446,1,0,0:0:0:0:
192,192,52526,128,0,52686:0:0:0:0:
448,192,52526,1,0,0:0:0:0:
64,192,52606,128,0,52686:0:0:0:0:
320,192,52686,128,0,52766:0:0:0:0:
448,192,52766,128,0,52845:0:0:0:0:
192,192,52845,128,0,53085:0:0:0:0:
64,192,52845,128,0,52925:0:0:0:0:
320,192,52845,1,0,0:0:0:0:
448,192,53005,128,0,53164:0:0:0:0:
320,192,53005,1,0,0:0:0:0:
64,192,53005,1,0,0:0:0:0:
320,192,53164,128,0,53324:0:0:0:0:
192,192,53164,128,0,53244:0:0:0:0:
64,192,53164,1,0,0:0:0:0:
448,192,53324,128,0,53643:0:0:0:0:
64,192,53324,128,0,53404:0:0:0:0:
192,192,53324,1,0,0:0:0:0:
192,192,53484,128,0,53563:0:0:0:0:
320,192,53484,128,0,53563:0:0:0:0:
64,192,53643,128,0,53803:0:0:0:0:
192,192,53643,128,0,53723:0:0:0:0:
320,192,53803,128,0,54042:0:0:0:0:
448,192,53803,128,0,53883:0:0:0:0:
192,192,53803,1,0,0:0:0:0:
192,192,53962,128,0,54122:0:0:0:0:
64,192,53962,128,0,54042:0:0:0:0:
448,192,54122,128,0,54282:0:0:0:0:
320,192,54122,128,0,54202:0:0:0:0:
64,192,54122,1,0,0:0:0:0:
192,192,54282,128,0,54441:0:0:0:0:
64,192,54282,128,0,54361:0:0:0:0:
320,192,54282,1,0,0:0:0:0:
448,192,54441,1,0,0:0:0:0:
320,192,54441,128,0,54680:0:0:0:0:
64,192,54441,128,0,54521:0:0:0:0:
192,192,54601,128,0,54760:0:0:0:0:
448,192,54601,1,0,0:0:0:0:
64,192,54601,1,0,0:0:0:0:
448,192,54760,128,0,55000:0:0:0:0:
64,192,54760,128,0,54840:0:0:0:0:
320,192,54920,128,0,55000:0:0:0:0:
192,192,54920,128,0,55079:0:0:0:0:
64,192,55079,128,0,55319:0:0:0:0:
448,192,55079,1,0,0:0:0:0:
320,192,55239,128,0,55399:0:0:0:0:
192,192,55239,128,0,55319:0:0:0:0:
448,192,55399,128,0,55638:0:0:0:0:
64,192,55399,1,0,0:0:0:0:
320,192,55558,128,0,55718:0:0:0:0:
64,192,55558,128,0,55638:0:0:0:0:
192,192,55718,128,0,55957:0:0:0:0:
64,192,55718,1,0,0:0:0:0:
448,192,55877,128,0,55957:0:0:0:0:
320,192,55877,128,0,56037:0:0:0:0:
64,192,56037,128,0,56196:0:0:0:0:
192,192,56037,1,0,0:0:0:0:
320,192,56196,128,0,56356:0:0:0:0:
448,192,56196,128,0,56276:0:0:0:0:
192,192,56356,128,0,56436:0:0:0:0:
64,192,56356,128,0,56436:0:0:0:0:
320,192,56436,128,0,56516:0:0:0:0:
64,192,56516,128,0,56595:0:0:0:0:
448,192,56516,128,0,56595:0:0:0:0:
192,192,56595,128,0,56675:0:0:0:0:
320,192,56675,128,0,56755:0:0:0:0:
448,192,56675,128,0,56755:0:0:0:0:
192,192,56755,128,0,56835:0:0:0:0:
64,192,56835,128,0,56914:0:0:0:0:
320,192,56835,128,0,56914:0:0:0:0:
192,192,56914,128,0,56994:0:0:0:0:
320,192,56994,128,0,57074:0:0:0:0:
448,192,56994,128,0,57074:0:0:0:0:
192,192,57074,128,0,57154:0:0:0:0:
64,192,57154,128,0,57313:0:0:0:0:
448,192,57154,128,0,57234:0:0:0:0:
320,192,57234,128,0,57313:0:0:0:0:
192,192,57313,128,0,57553:0:0:0:0:
448,192,57313,128,0,57393:0:0:0:0:
64,192,57473,128,0,57633:0:0:0:0:
320,192,57473,128,0,57553:0:0:0:0:
448,192,57633,128,0,57872:0:0:0:0:
320,192,57633,1,0,0:0:0:0:
192,192,57792,128,0,57872:0:0:0:0:
64,192,57792,128,0,57952:0:0:0:0:
320,192,57952,128,0,58191:0:0:0:0:
192,192,57952,1,0,0:0:0:0:
448,192,58111,128,0,58271:0:0:0:0:
192,192,58111,128,0,58191:0:0:0:0:
64,192,58271,1,0,0:0:0:0:
192,192,58271,128,0,58510:0:0:0:0:
320,192,58430,128,0,58590:0:0:0:0:
448,192,58430,128,0,58510:0:0:0:0:
64,192,58590,128,0,58829:0:0:0:0:
192,192,58590,1,0,0:0:0:0:
192,192,58750,128,0,58909:0:0:0:0:
448,192,58750,128,0,58829:0:0:0:0:
320,192,58909,128,0,59149:0:0:0:0:
64,192,58909,1,0,0:0:0:0:
448,192,59069,128,0,59228:0:0:0:0:
192,192,59069,128,0,59149:0:0:0:0:
192,192,59228,128,0,59468:0:0:0:0:
64,192,59228,1,0,0:0:0:0:
64,192,59388,128,0,59468:0:0:0:0:
320,192,59388,128,0,59547:0:0:0:0:
448,192,59547,1,0,0:0:0:0:
64,192,59547,128,0,59787:0:0:0:0:
192,192,59707,128,0,59867:0:0:0:0:
320,192,59707,128,0,59787:0:0:0:0:
448,192,59867,128,0,60106:0:0:0:0:
64,192,59867,1,0,0:0:0:0:
320,192,60026,128,0,60186:0:0:0:0:
192,192,60026,128,0,60106:0:0:0:0:
192,192,60186,128,0,60425:0:0:0:0:
448,192,60186,1,0,0:0:0:0:
64,192,60345,128,0,60505:0:0:0:0:
320,192,60345,128,0,60425:0:0:0:0:
448,192,60505,128,0,60744:0:0:0:0:
192,192,60505,1,0,0:0:0:0:
320,192,60664,128,0,60824:0:0:0:0:
64,192,60664,128,0,60744:0:0:0:0:
192,192,60824,128,0,60984:0:0:0:0:
448,192,60824,128,0,60904:0:0:0:0:
64,192,60824,128,0,60904:0:0:0:0:
320,192,60984,128,0,61223:0:0:0:0:
448,192,60984,1,0,0:0:0:0:
192,192,61143,1,0,0:0:0:0:
448,192,61143,128,0,61223:0:0:0:0:
64,192,61143,1,0,0:0:0:0:
192,192,61303,128,0,61383:0:0:0:0:
64,192,61303,128,0,61383:0:0:0:0:
320,192,61462,128,0,61542:0:0:0:0:
448,192,61462,128,0,61542:0:0:0:0:
192,192,61542,128,0,61622:0:0:0:0:
64,192,61622,128,0,61702:0:0:0:0:
448,192,61622,128,0,61702:0:0:0:0:
320,192,61702,128,0,61782:0:0:0:0:
192,192,61782,128,0,61861:0:0:0:0:
448,192,61782,128,0,61861:0:0:0:0:
320,192,61861,128,0,61941:0:0:0:0:
64,192,61941,128,0,62021:0:0:0:0:
192,192,61941,128,0,62021:0:0:0:0:
320,192,62021,128,0,62101:0:0:0:0:
448,192,62101,128,0,62180:0:0:0:0:
192,192,62101,128,0,62180:0:0:0:0:
64,192,62180,128,0,62260:0:0:0:0:
192,192,62260,128,0,62340:0:0:0:0:
320,192,62260,128,0,62340:0:0:0:0:
448,192,62340,128,0,62420:0:0:0:0:
192,192,62420,1,0,0:0:0:0:
64,192,62420,1,0,0:0:0:0:
448,192,62500,1,0,0:0:0:0:
320,192,62500,1,0,0:0:0:0:
192,192,62579,1,0,0:0:0:0:
64,192,62579,1,0,0:0:0:0:
320,192,62659,1,0,0:0:0:0:
448,192,62659,1,0,0:0:0:0:
192,192,62739,1,0,0:0:0:0:
64,192,62739,1,0,0:0:0:0:
320,192,62819,1,0,0:0:0:0:
448,192,62819,1,0,0:0:0:0:
192,192,62899,1,0,0:0:0:0:
64,192,62899,1,0,0:0:0:0:
320,192,62978,1,0,0:0:0:0:
448,192,62978,1,0,0:0:0:0:
192,192,63058,1,0,0:0:0:0:
64,192,63058,1,0,0:0:0:0:
448,192,63058,128,0,63297:0:0:0:0:
320,192,63218,128,0,63297:0:0:0:0:
192,192,63218,128,0,63297:0:0:0:0:
64,192,63218,128,0,63457:0:0:0:0:
320,192,63377,128,0,63617:0:0:0:0:
192,192,63377,128,0,63457:0:0:0:0:
448,192,63377,128,0,63457:0:0:0:0:
64,192,63537,128,0,63617:0:0:0:0:
192,192,63537,128,0,63776:0:0:0:0:
448,192,63537,128,0,63617:0:0:0:0:
448,192,63696,128,0,63936:0:0:0:0:
64,192,63696,128,0,63776:0:0:0:0:
320,192,63696,128,0,63776:0:0:0:0:
320,192,63856,128,0,64095:0:0:0:0:
64,192,63856,128,0,63936:0:0:0:0:
192,192,63856,128,0,63936:0:0:0:0:
192,192,64016,128,0,64255:0:0:0:0:
64,192,64016,128,0,64095:0:0:0:0:
448,192,64016,128,0,64095:0:0:0:0:
64,192,64175,128,0,64414:0:0:0:0:
320,192,64175,128,0,64255:0:0:0:0:
448,192,64175,128,0,64255:0:0:0:0:
320,192,64335,128,0,64574:0:0:0:0:
192,192,64335,128,0,64414:0:0:0:0:
448,192,64335,128,0,64414:0:0:0:0:
192,192,64494,128,0,64734:0:0:0:0:
448,192,64494,128,0,64574:0:0:0:0:
64,192,64494,128,0,64574:0:0:0:0:
448,192,64654,128,0,64893:0:0:0:0:
320,192,64654,128,0,64734:0:0:0:0:
64,192,64654,128,0,64734:0:0:0:0:
64,192,64813,128,0,65053:0:0:0:0:
320,192,64813,128,0,64893:0:0:0:0:
192,192,64813,128,0,64893:0:0:0:0:
320,192,64973,128,0,65212:0:0:0:0:
192,192,64973,128,0,65053:0:0:0:0:
448,192,64973,128,0,65053:0:0:0:0:
448,192,65133,128,0,65372:0:0:0:0:
64,192,65133,128,0,65212:0:0:0:0:
192,192,65133,128,0,65212:0:0:0:0:
192,192,65292,128,0,65532:0:0:0:0:
320,192,65292,128,0,65372:0:0:0:0:
64,192,65292,128,0,65372:0:0:0:0:
64,192,65452,128,0,65532:0:0:0:0:
448,192,65452,128,0,65532:0:0:0:0:
320,192,65452,128,0,65691:0:0:0:0:
192,192,65611,128,0,65691:0:0:0:0:
64,192,65611,128,0,65851:0:0:0:0:
448,192,65611,128,0,65691:0:0:0:0:
192,192,65771,128,0,66010:0:0:0:0:
320,192,65771,128,0,65851:0:0:0:0:
448,192,65771,128,0,65851:0:0:0:0:
448,192,65930,128,0,66170:0:0:0:0:
320,192,65930,128,0,66010:0:0:0:0:
64,192,65930,128,0,66010:0:0:0:0:
64,192,66090,128,0,66329:0:0:0:0:
320,192,66090,128,0,66170:0:0:0:0:
192,192,66090,128,0,66170:0:0:0:0:
320,192,66250,128,0,66489:0:0:0:0:
192,192,66250,128,0,66329:0:0:0:0:
448,192,66250,128,0,66409:0:0:0:0:
192,192,66409,128,0,66489:0:0:0:0:
64,192,66409,128,0,66489:0:0:0:0:
448,192,66569,128,0,66649:0:0:0:0:
64,192,66569,128,0,66649:0:0:0:0:
192,192,66649,128,0,66728:0:0:0:0:
320,192,66728,128,0,66808:0:0:0:0:
448,192,66728,128,0,66808:0:0:0:0:
192,192,66808,128,0,66888:0:0:0:0:
64,192,66888,128,0,66968:0:0:0:0:
320,192,66888,128,0,66968:0:0:0:0:
192,192,66968,128,0,67047:0:0:0:0:
448,192,67047,128,0,67127:0:0:0:0:
64,192,67047,128,0,67127:0:0:0:0:
320,192,67127,128,0,67207:0:0:0:0:
192,192,67207,128,0,67446:0:0:0:0:
64,192,67207,128,0,67287:0:0:0:0:
448,192,67207,128,0,67287:0:0:0:0:
320,192,67367,128,0,67606:0:0:0:0:
64,192,67367,128,0,67446:0:0:0:0:
448,192,67367,128,0,67446:0:0:0:0:
64,192,67526,128,0,67766:0:0:0:0:
192,192,67526,128,0,67606:0:0:0:0:
448,192,67526,128,0,67606:0:0:0:0:
448,192,67686,128,0,67925:0:0:0:0:
192,192,67686,128,0,67766:0:0:0:0:
320,192,67686,128,0,67766:0:0:0:0:
320,192,67845,128,0,68085:0:0:0:0:
64,192,67845,128,0,67925:0:0:0:0:
192,192,67845,128,0,67925:0:0:0:0:
192,192,68005,128,0,68244:0:0:0:0:
64,192,68005,128,0,68085:0:0:0:0:
448,192,68005,128,0,68085:0:0:0:0:
320,192,68164,128,0,68404:0:0:0:0:
64,192,68164,128,0,68244:0:0:0:0:
448,192,68164,128,0,68244:0:0:0:0:
64,192,68324,128,0,68563:0:0:0:0:
192,192,68324,128,0,68404:0:0:0:0:
448,192,68324,128,0,68404:0:0:0:0:
448,192,68484,128,0,68723:0:0:0:0:
192,192,68484,128,0,68563:0:0:0:0:
320,192,68484,128,0,68563:0:0:0:0:
320,192,68643,128,0,68883:0:0:0:0:
64,192,68643,128,0,68723:0:0:0:0:
192,192,68643,128,0,68723:0:0:0:0:
64,192,68803,128,0,69042:0:0:0:0:
192,192,68803,128,0,68883:0:0:0:0:
448,192,68803,128,0,68883:0:0:0:0:
192,192,68962,128,0,69202:0:0:0:0:
320,192,68962,128,0,69042:0:0:0:0:
448,192,68962,128,0,69042:0:0:0:0:
448,192,69122,128,0,69361:0:0:0:0:
64,192,69122,128,0,69202:0:0:0:0:
320,192,69122,128,0,69202:0:0:0:0:
320,192,69282,128,0,69521:0:0:0:0:
64,192,69282,128,0,69361:0:0:0:0:
192,192,69282,128,0,69361:0:0:0:0:
192,192,69441,128,0,69680:0:0:0:0:
64,192,69441,128,0,69521:0:0:0:0:
448,192,69441,128,0,69521:0:0:0:0:
64,192,69601,128,0,69840:0:0:0:0:
320,192,69601,128,0,69680:0:0:0:0:
448,192,69601,128,0,69680:0:0:0:0:
320,192,69760,128,0,69840:0:0:0:0:
192,192,69760,128,0,69840:0:0:0:0:
448,192,69760,128,0,70000:0:0:0:0:
320,192,69920,128,0,70000:0:0:0:0:
192,192,69920,128,0,70159:0:0:0:0:
64,192,69920,128,0,70000:0:0:0:0:
320,192,70079,128,0,70319:0:0:0:0:
64,192,70079,128,0,70159:0:0:0:0:
448,192,70079,128,0,70159:0:0:0:0:
64,192,70239,128,0,70478:0:0:0:0:
192,192,70239,128,0,70319:0:0:0:0:
448,192,70239,128,0,70319:0:0:0:0:
448,192,70399,128,0,70638:0:0:0:0:
192,192,70399,128,0,70478:0:0:0:0:
320,192,70399,128,0,70478:0:0:0:0:
192,192,70558,128,0,70797:0:0:0:0:
320,192,70558,128,0,70638:0:0:0:0:
64,192,70558,128,0,70638:0:0:0:0:
320,192,70718,128,0,70957:0:0:0:0:
64,192,70718,128,0,70797:0:0:0:0:
448,192,70718,128,0,70797:0:0:0:0:
64,192,70877,128,0,71117:0:0:0:0:
192,192,70877,128,0,70957:0:0:0:0:
448,192,70877,128,0,70957:0:0:0:0:
192,192,71037,128,0,71276:0:0:0:0:
320,192,71037,128,0,71117:0:0:0:0:
448,192,71037,128,0,71117:0:0:0:0:
448,192,71196,128,0,71436:0:0:0:0:
320,192,71196,128,0,71276:0:0:0:0:
64,192,71196,128,0,71276:0:0:0:0:
320,192,71356,128,0,71595:0:0:0:0:
64,192,71356,128,0,71436:0:0:0:0:
192,192,71356,128,0,71436:0:0:0:0:
192,192,71516,128,0,71595:0:0:0:0:
64,192,71516,128,0,71675:0:0:0:0:
448,192,71675,128,0,71755:0:0:0:0:
320,192,71675,128,0,71755:0:0:0:0:
192,192,71755,128,0,71835:0:0:0:0:
64,192,71835,128,0,71914:0:0:0:0:
448,192,71835,128,0,71914:0:0:0:0:
320,192,71914,128,0,71994:0:0:0:0:
192,192,71994,128,0,72074:0:0:0:0:
448,192,71994,128,0,72074:0:0:0:0:
320,192,72074,128,0,72154:0:0:0:0:
192,192,72154,128,0,72234:0:0:0:0:
64,192,72154,128,0,72234:0:0:0:0:
320,192,72234,128,0,72313:0:0:0:0:
64,192,72313,128,0,72393:0:0:0:0:
448,192,72313,128,0,72393:0:0:0:0:
192,192,72393,128,0,72473:0:0:0:0:
320,192,72473,128,0,72553:0:0:0:0:
64,192,72473,128,0,72553:0:0:0:0:
192,192,72553,128,0,72633:0:0:0:0:
320,192,72633,1,0,0:0:0:0:
448,192,72633,1,0,0:0:0:0:
192,192,72712,1,0,0:0:0:0:
64,192,72712,1,0,0:0:0:0:
320,192,72792,1,0,0:0:0:0:
448,192,72792,1,0,0:0:0:0:
192,192,72872,1,0,0:0:0:0:
64,192,72872,1,0,0:0:0:0:
320,192,72952,1,0,0:0:0:0:
448,192,72952,1,0,0:0:0:0:
64,192,72952,128,0,73271:0:0:0:0:
320,192,73271,1,0,0:0:0:0:
448,192,73271,1,0,0:0:0:0:
192,192,73271,1,0,0:0:0:0:
192,192,73430,1,0,0:0:0:0:
448,192,73430,1,0,0:0:0:0:
320,192,73430,1,0,0:0:0:0:
64,192,73590,1,0,0:0:0:0:
192,192,73590,1,0,0:0:0:0:
320,192,73750,1,0,0:0:0:0:
192,192,73750,1,0,0:0:0:0:
64,192,73750,1,0,0:0:0:0:
64,192,73909,1,0,0:0:0:0:
192,192,73909,1,0,0:0:0:0:
320,192,73909,1,0,0:0:0:0:
320,192,74069,1,0,0:0:0:0:
192,192,74069,1,0,0:0:0:0:
64,192,74228,1,0,0:0:0:0:
448,192,74228,1,0,0:0:0:0:
320,192,74228,1,0,0:0:0:0:
64,192,74388,1,0,0:0:0:0:
320,192,74388,1,0,0:0:0:0:
448,192,74388,1,0,0:0:0:0:
192,192,74547,1,0,0:0:0:0:
448,192,74547,1,0,0:0:0:0:
64,192,74707,1,0,0:0:0:0:
448,192,74707,1,0,0:0:0:0:
192,192,74707,1,0,0:0:0:0:
64,192,74867,1,0,0:0:0:0:
192,192,74867,1,0,0:0:0:0:
448,192,74867,1,0,0:0:0:0:
320,192,75026,1,0,0:0:0:0:
192,192,75026,1,0,0:0:0:0:
448,192,75186,128,0,75505:0:0:0:0:
64,192,75186,1,0,0:0:0:0:
320,192,75186,1,0,0:0:0:0:
192,192,75345,1,0,0:0:0:0:
192,192,75505,128,0,75824:0:0:0:0:
64,192,75505,1,0,0:0:0:0:
320,192,75505,1,0,0:0:0:0:
320,192,75664,1,0,0:0:0:0:
320,192,75824,128,0,76143:0:0:0:0:
64,192,75824,1,0,0:0:0:0:
448,192,75824,1,0,0:0:0:0:
192,192,76143,1,0,0:0:0:0:
64,192,76143,1,0,0:0:0:0:
320,192,76303,1,0,0:0:0:0:
448,192,76303,1,0,0:0:0:0:
192,192,76383,1,0,0:0:0:0:
64,192,76383,1,0,0:0:0:0:
320,192,76462,1,0,0:0:0:0:
448,192,76462,1,0,0:0:0:0:
64,192,76622,1,0,0:0:0:0:
320,192,76622,1,0,0:0:0:0:
192,192,76782,1,0,0:0:0:0:
448,192,76782,1,0,0:0:0:0:
448,192,76941,128,0,77260:0:0:0:0:
320,192,76941,128,0,77420:0:0:0:0:
192,192,76941,128,0,77579:0:0:0:0:
64,192,76941,128,0,77739:0:0:0:0:
448,192,78058,128,0,78218:0:0:0:0:
320,192,78138,128,0,78297:0:0:0:0:
192,192,78218,128,0,78377:0:0:0:0:
64,192,78297,128,0,78377:0:0:0:0:
448,192,78377,128,0,78537:0:0:0:0:
320,192,78377,1,0,0:0:0:0:
192,192,78537,128,0,78696:0:0:0:0:
64,192,78696,128,0,78856:0:0:0:0:
448,192,78696,128,0,78776:0:0:0:0:
320,192,78856,128,0,79016:0:0:0:0:
192,192,79016,128,0,79095:0:0:0:0:
448,192,79016,128,0,79175:0:0:0:0:
320,192,79175,128,0,79255:0:0:0:0:
64,192,79175,128,0,79335:0:0:0:0:
192,192,79335,128,0,79494:0:0:0:0:
448,192,79335,128,0,79414:0:0:0:0:
320,192,79335,128,0,79414:0:0:0:0:
64,192,79494,128,0,79574:0:0:0:0:
448,192,79494,128,0,79654:0:0:0:0:
320,192,79654,128,0,79813:0:0:0:0:
192,192,79813,128,0,79893:0:0:0:0:
64,192,79813,128,0,79973:0:0:0:0:
320,192,79973,128,0,80133:0:0:0:0:
448,192,79973,128,0,80053:0:0:0:0:
192,192,79973,128,0,80053:0:0:0:0:
64,192,80133,128,0,80292:0:0:0:0:
192,192,80292,128,0,80372:0:0:0:0:
448,192,80292,128,0,80452:0:0:0:0:
320,192,80452,128,0,80532:0:0:0:0:
192,192,80452,128,0,80611:0:0:0:0:
64,192,80611,128,0,80930:0:0:0:0:
448,192,80611,128,0,80930:0:0:0:0:
320,192,80930,128,0,81090:0:0:0:0:
192,192,80930,128,0,81010:0:0:0:0:
448,192,81090,128,0,81250:0:0:0:0:
192,192,81250,128,0,81329:0:0:0:0:
320,192,81250,128,0,81329:0:0:0:0:
64,192,81250,128,0,81409:0:0:0:0:
448,192,81409,128,0,81569:0:0:0:0:
320,192,81569,128,0,81728:0:0:0:0:
64,192,81569,128,0,81649:0:0:0:0:
192,192,81728,128,0,81888:0:0:0:0:
448,192,81728,128,0,81808:0:0:0:0:
64,192,81888,128,0,82047:0:0:0:0:
320,192,81888,128,0,81968:0:0:0:0:
192,192,82047,128,0,82207:0:0:0:0:
448,192,82047,128,0,82127:0:0:0:0:
320,192,82207,128,0,82367:0:0:0:0:
64,192,82367,128,0,82446:0:0:0:0:
192,192,82367,128,0,82526:0:0:0:0:
448,192,82526,128,0,82686:0:0:0:0:
320,192,82526,128,0,82606:0:0:0:0:
64,192,82526,128,0,82606:0:0:0:0:
192,192,82686,128,0,82845:0:0:0:0:
64,192,82845,128,0,83005:0:0:0:0:
448,192,82845,128,0,82925:0:0:0:0:
320,192,83005,128,0,83164:0:0:0:0:
192,192,83164,128,0,83484:0:0:0:0:
64,192,83164,128,0,83484:0:0:0:0:
448,192,83164,1,0,0:0:0:0:
320,192,83484,128,0,83643:0:0:0:0:
448,192,83484,1,0,0:0:0:0:
448,192,83643,128,0,83803:0:0:0:0:
64,192,83803,128,0,83962:0:0:0:0:
192,192,83803,128,0,83883:0:0:0:0:
320,192,83803,128,0,83883:0:0:0:0:
448,192,83962,128,0,84122:0:0:0:0:
192,192,84122,128,0,84282:0:0:0:0:
320,192,84122,128,0,84202:0:0:0:0:
64,192,84282,128,0,84441:0:0:0:0:
448,192,84282,128,0,84361:0:0:0:0:
320,192,84441,128,0,84601:0:0:0:0:
192,192,84441,128,0,84521:0:0:0:0:
448,192,84441,128,0,84521:0:0:0:0:
64,192,84601,128,0,84760:0:0:0:0:
192,192,84601,128,0,84680:0:0:0:0:
448,192,84760,128,0,84920:0:0:0:0:
320,192,84920,128,0,85079:0:0:0:0:
192,192,84920,128,0,85000:0:0:0:0:
64,192,85079,128,0,85239:0:0:0:0:
192,192,85079,128,0,85159:0:0:0:0:
448,192,85079,128,0,85159:0:0:0:0:
320,192,85239,128,0,85399:0:0:0:0:
192,192,85399,1,0,0:0:0:0:
64,192,85399,1,0,0:0:0:0:
320,192,85478,1,0,0:0:0:0:
448,192,85558,1,0,0:0:0:0:
64,192,85558,1,0,0:0:0:0:
192,192,85638,1,0,0:0:0:0:
320,192,85718,1,0,0:0:0:0:
448,192,85718,1,0,0:0:0:0:
192,192,85797,1,0,0:0:0:0:
64,192,85797,1,0,0:0:0:0:
320,192,85877,1,0,0:0:0:0:
448,192,85877,1,0,0:0:0:0:
64,192,85957,1,0,0:0:0:0:
192,192,85957,1,0,0:0:0:0:
320,192,86037,1,0,0:0:0:0:
448,192,86037,1,0,0:0:0:0:
192,192,86196,128,0,86516:0:0:0:0:
320,192,86196,128,0,86356:0:0:0:0:
64,192,86356,128,0,86516:0:0:0:0:
448,192,86516,128,0,86835:0:0:0:0:
320,192,86516,128,0,86675:0:0:0:0:
192,192,86675,128,0,86835:0:0:0:0:
64,192,86835,128,0,86994:0:0:0:0:
320,192,86835,128,0,86994:0:0:0:0:
192,192,87154,128,0,87313:0:0:0:0:
320,192,87154,128,0,87473:0:0:0:0:
64,192,87313,128,0,87473:0:0:0:0:
448,192,87473,128,0,87792:0:0:0:0:
192,192,87473,128,0,87633:0:0:0:0:
64,192,87633,128,0,87792:0:0:0:0:
320,192,87792,128,0,87952:0:0:0:0:
192,192,87792,128,0,88111:0:0:0:0:
448,192,87952,128,0,88111:0:0:0:0:
64,192,88111,128,0,88271:0:0:0:0:
320,192,88111,128,0,88271:0:0:0:0:
64,192,88590,1,0,0:0:0:0:
320,192,88590,1,0,0:0:0:0:
448,192,88590,1,0,0:0:0:0:
192,192,88750,1,0,0:0:0:0:
320,192,88829,1,0,0:0:0:0:
64,192,88909,1,0,0:0:0:0:
448,192,88909,128,0,89069:0:0:0:0:
64,192,89069,128,0,89228:0:0:0:0:
320,192,89069,128,0,89149:0:0:0:0:
192,192,89228,128,0,89468:0:0:0:0:
448,192,89228,1,0,0:0:0:0:
320,192,89388,1,0,0:0:0:0:
64,192,89468,128,0,89707:0:0:0:0:
448,192,89547,128,0,89627:0:0:0:0:
320,192,89627,128,0,89707:0:0:0:0:
192,192,89707,128,0,89867:0:0:0:0:
448,192,89707,1,0,0:0:0:0:
320,192,89867,1,0,0:0:0:0:
64,192,89946,1,0,0:0:0:0:
448,192,90026,128,0,90186:0:0:0:0:
192,192,90106,128,0,90186:0:0:0:0:
320,192,90186,128,0,90345:0:0:0:0:
64,192,90186,1,0,0:0:0:0:
192,192,90345,1,0,0:0:0:0:
64,192,90505,128,0,90824:0:0:0:0:
320,192,90505,1,0,0:0:0:0:
192,192,90664,1,0,0:0:0:0:
448,192,90824,128,0,91143:0:0:0:0:
320,192,90824,128,0,90904:0:0:0:0:
192,192,90904,128,0,90984:0:0:0:0:
64,192,90984,128,0,91063:0:0:0:0:
320,192,91063,128,0,91143:0:0:0:0:
192,192,91143,1,0,0:0:0:0:
64,192,91143,1,0,0:0:0:0:
320,192,91303,1,0,0:0:0:0:
192,192,91462,1,0,0:0:0:0:
448,192,91462,128,0,91622:0:0:0:0:
64,192,91622,128,0,91782:0:0:0:0:
320,192,91622,1,0,0:0:0:0:
192,192,91782,128,0,92021:0:0:0:0:
448,192,91782,1,0,0:0:0:0:
320,192,91941,1,0,0:0:0:0:
448,192,92021,128,0,92260:0:0:0:0:
64,192,92101,128,0,92180:0:0:0:0:
192,192,92180,128,0,92260:0:0:0:0:
320,192,92260,128,0,92579:0:0:0:0:
64,192,92260,1,0,0:0:0:0:
192,192,92420,1,0,0:0:0:0:
448,192,92500,1,0,0:0:0:0:
64,192,92579,128,0,92739:0:0:0:0:
192,192,92579,128,0,92659:0:0:0:0:
320,192,92659,128,0,92739:0:0:0:0:
448,192,92739,128,0,92899:0:0:0:0:
192,192,92739,128,0,92819:0:0:0:0:
64,192,92819,128,0,92899:0:0:0:0:
320,192,92899,128,0,92978:0:0:0:0:
192,192,92978,128,0,93058:0:0:0:0:
64,192,93058,128,0,93377:0:0:0:0:
448,192,93058,1,0,0:0:0:0:
320,192,93218,1,0,0:0:0:0:
192,192,93377,1,0,0:0:0:0:
448,192,93377,128,0,93696:0:0:0:0:
320,192,93537,1,0,0:0:0:0:
192,192,93617,1,0,0:0:0:0:
64,192,93696,128,0,93856:0:0:0:0:
320,192,93696,128,0,93856:0:0:0:0:
448,192,93856,1,0,0:0:0:0:
192,192,94016,128,0,94175:0:0:0:0:
320,192,94095,128,0,94175:0:0:0:0:
448,192,94175,128,0,94335:0:0:0:0:
64,192,94255,128,0,94335:0:0:0:0:
192,192,94335,1,0,0:0:0:0:
320,192,94335,1,0,0:0:0:0:
320,192,94494,128,0,94654:0:0:0:0:
192,192,94494,1,0,0:0:0:0:
64,192,94654,1,0,0:0:0:0:
448,192,94654,1,0,0:0:0:0:
192,192,94813,128,0,95133:0:0:0:0:
320,192,94813,1,0,0:0:0:0:
448,192,94973,128,0,95053:0:0:0:0:
320,192,95053,128,0,95133:0:0:0:0:
64,192,95133,128,0,95292:0:0:0:0:
192,192,95212,128,0,95292:0:0:0:0:
320,192,95292,128,0,95611:0:0:0:0:
448,192,95292,128,0,95372:0:0:0:0:
192,192,95452,1,0,0:0:0:0:
64,192,95611,1,0,0:0:0:0:
448,192,95611,128,0,95930:0:0:0:0:
192,192,95771,128,0,95851:0:0:0:0:
320,192,95930,128,0,96250:0:0:0:0:
64,192,95930,128,0,96010:0:0:0:0:
448,192,96090,128,0,96170:0:0:0:0:
64,192,96250,128,0,96369:0:0:0:0:
192,192,96250,128,0,96349:0:0:0:0:
448,192,96250,128,0,96329:0:0:0:0:
448,192,96409,128,0,96529:0:0:0:0:
320,192,96409,128,0,96509:0:0:0:0:
192,192,96409,128,0,96489:0:0:0:0:
64,192,96409,128,0,96469:0:0:0:0:
64,192,96569,128,0,96688:0:0:0:0:
192,192,96569,128,0,96668:0:0:0:0:
320,192,96569,128,0,96649:0:0:0:0:
448,192,96569,128,0,96629:0:0:0:0:
448,192,96728,128,0,96848:0:0:0:0:
320,192,96728,128,0,96828:0:0:0:0:
192,192,96728,128,0,96808:0:0:0:0:
64,192,96728,128,0,96788:0:0:0:0:
320,192,96888,128,0,96968:0:0:0:0:
192,192,96888,128,0,96988:0:0:0:0:
448,192,96888,128,0,96948:0:0:0:0:
64,192,96888,128,0,97008:0:0:0:0:
320,192,97047,128,0,97147:0:0:0:0:
64,192,97047,128,0,97107:0:0:0:0:
448,192,97047,128,0,97167:0:0:0:0:
192,192,97047,128,0,97127:0:0:0:0:
64,192,97207,128,0,97327:0:0:0:0:
192,192,97207,128,0,97307:0:0:0:0:
320,192,97207,128,0,97287:0:0:0:0:
448,192,97207,128,0,97267:0:0:0:0:
64,192,97367,128,0,97526:0:0:0:0:
192,192,97367,128,0,97526:0:0:0:0:
320,192,97367,128,0,97526:0:0:0:0:
448,192,97367,128,0,97526:0:0:0:0:
64,192,98803,128,0,98962:0:0:0:0:
320,192,98803,128,0,98962:0:0:0:0:
448,192,98803,128,0,98962:0:0:0:0:
192,192,99122,1,0,0:0:0:0:
64,192,99122,1,0,0:0:0:0:
320,192,99202,1,0,0:0:0:0:
448,192,99282,1,0,0:0:0:0:
192,192,99361,1,0,0:0:0:0:
64,192,99441,128,0,99601:0:0:0:0:
320,192,99441,128,0,99601:0:0:0:0:
448,192,99441,128,0,99601:0:0:0:0:
64,192,99680,128,0,99840:0:0:0:0:
320,192,99680,128,0,99840:0:0:0:0:
448,192,99680,128,0,99840:0:0:0:0:
192,192,99920,128,0,100079:0:0:0:0:
64,192,99920,128,0,100079:0:0:0:0:
320,192,99920,128,0,100079:0:0:0:0:
448,192,99920,128,0,100079:0:0:0:0:
192,192,100239,1,0,0:0:0:0:
64,192,100399,1,0,0:0:0:0:
320,192,100399,1,0,0:0:0:0:
448,192,100399,1,0,0:0:0:0:
64,192,100558,1,0,0:0:0:0:
192,192,100598,1,0,0:0:0:0:
320,192,100638,1,0,0:0:0:0:
448,192,100678,1,0,0:0:0:0:
192,192,100718,1,0,0:0:0:0:
64,192,100718,1,0,0:0:0:0:
320,192,100877,1,0,0:0:0:0:
448,192,100877,1,0,0:0:0:0:
64,192,101037,128,0,101276:0:0:0:0:
192,192,101037,1,0,0:0:0:0:
320,192,101356,128,0,101516:0:0:0:0:
448,192,101356,128,0,101516:0:0:0:0:
192,192,101356,128,0,101516:0:0:0:0:
64,192,101675,1,0,0:0:0:0:
192,192,101675,1,0,0:0:0:0:
448,192,101675,1,0,0:0:0:0:
320,192,101755,1,0,0:0:0:0:
192,192,101835,1,0,0:0:0:0:
64,192,101914,1,0,0:0:0:0:
320,192,101994,128,0,102154:0:0:0:0:
448,192,101994,128,0,102154:0:0:0:0:
192,192,101994,128,0,102154:0:0:0:0:
192,192,102234,128,0,102393:0:0:0:0:
320,192,102234,128,0,102393:0:0:0:0:
448,192,102234,128,0,102393:0:0:0:0:
64,192,102473,128,0,102633:0:0:0:0:
192,192,102473,128,0,102633:0:0:0:0:
320,192,102473,128,0,102633:0:0:0:0:
448,192,102473,128,0,102633:0:0:0:0:
64,192,102792,1,0,0:0:0:0:
320,192,102952,1,0,0:0:0:0:
448,192,102952,1,0,0:0:0:0:
192,192,102952,1,0,0:0:0:0:
64,192,103111,1,0,0:0:0:0:
192,192,103191,1,0,0:0:0:0:
448,192,103271,1,0,0:0:0:0:
320,192,103271,1,0,0:0:0:0:
64,192,103430,1,0,0:0:0:0:
192,192,103430,1,0,0:0:0:0:
448,192,103590,128,0,103750:0:0:0:0:
320,192,103590,128,0,103750:0:0:0:0:
192,192,103750,128,0,103829:0:0:0:0:
64,192,103750,128,0,103829:0:0:0:0:
320,192,103829,1,0,0:0:0:0:
448,192,103829,1,0,0:0:0:0:
64,192,103909,128,0,104069:0:0:0:0:
192,192,103909,128,0,104069:0:0:0:0:
320,192,103909,128,0,104069:0:0:0:0:
448,192,103909,128,0,104069:0:0:0:0:
64,192,104228,1,0,0:0:0:0:
320,192,104228,1,0,0:0:0:0:
448,192,104228,1,0,0:0:0:0:
192,192,104308,1,0,0:0:0:0:
320,192,104388,1,0,0:0:0:0:
448,192,104468,1,0,0:0:0:0:
64,192,104547,128,0,104707:0:0:0:0:
192,192,104547,128,0,104707:0:0:0:0:
320,192,104547,128,0,104707:0:0:0:0:
64,192,104787,128,0,104946:0:0:0:0:
192,192,104787,128,0,104946:0:0:0:0:
320,192,104787,128,0,104946:0:0:0:0:
64,192,105026,128,0,105186:0:0:0:0:
192,192,105026,128,0,105186:0:0:0:0:
320,192,105026,128,0,105186:0:0:0:0:
448,192,105026,128,0,105186:0:0:0:0:
64,192,105345,1,0,0:0:0:0:
320,192,105345,1,0,0:0:0:0:
192,192,105505,128,0,105664:0:0:0:0:
320,192,105505,128,0,105664:0:0:0:0:
448,192,105505,128,0,105664:0:0:0:0:
192,192,105824,1,0,0:0:0:0:
320,192,105824,1,0,0:0:0:0:
64,192,105984,1,0,0:0:0:0:
448,192,105984,1,0,0:0:0:0:
320,192,106143,128,0,106303:0:0:0:0:
64,192,106143,128,0,106303:0:0:0:0:
448,192,106143,128,0,106303:0:0:0:0:
64,192,106462,128,0,106622:0:0:0:0:
192,192,106462,128,0,106622:0:0:0:0:
320,192,106462,128,0,106622:0:0:0:0:
448,192,106462,128,0,106622:0:0:0:0:
320,192,106782,1,0,0:0:0:0:
448,192,106782,1,0,0:0:0:0:
192,192,106861,1,0,0:0:0:0:
64,192,106941,1,0,0:0:0:0:
320,192,107021,1,0,0:0:0:0:
192,192,107101,128,0,107260:0:0:0:0:
64,192,107101,128,0,107260:0:0:0:0:
448,192,107101,128,0,107260:0:0:0:0:
64,192,107340,128,0,107500:0:0:0:0:
192,192,107340,128,0,107500:0:0:0:0:
448,192,107340,128,0,107500:0:0:0:0:
64,192,107579,128,0,107739:0:0:0:0:
192,192,107579,128,0,107739:0:0:0:0:
320,192,107579,128,0,107739:0:0:0:0:
448,192,107579,128,0,107739:0:0:0:0:
320,192,107899,1,0,0:0:0:0:
64,192,108058,1,0,0:0:0:0:
192,192,108058,1,0,0:0:0:0:
448,192,108058,1,0,0:0:0:0:
320,192,108218,1,0,0:0:0:0:
192,192,108218,1,0,0:0:0:0:
320,192,108377,1,0,0:0:0:0:
448,192,108377,1,0,0:0:0:0:
192,192,108457,1,0,0:0:0:0:
64,192,108457,1,0,0:0:0:0:
320,192,108537,1,0,0:0:0:0:
448,192,108537,1,0,0:0:0:0:
192,192,108617,1,0,0:0:0:0:
64,192,108617,1,0,0:0:0:0:
320,192,108696,1,0,0:0:0:0:
448,192,108696,1,0,0:0:0:0:
192,192,108776,1,0,0:0:0:0:
64,192,108776,1,0,0:0:0:0:
320,192,108856,1,0,0:0:0:0:
448,192,108856,1,0,0:0:0:0:
192,192,108936,1,0,0:0:0:0:
64,192,108936,1,0,0:0:0:0:
320,192,109016,128,0,109175:0:0:0:0:
448,192,109016,128,0,109335:0:0:0:0:
192,192,109175,128,0,109335:0:0:0:0:
64,192,109335,128,0,109494:0:0:0:0:
320,192,109335,128,0,109494:0:0:0:0:
192,192,109494,128,0,109654:0:0:0:0:
448,192,109654,128,0,109813:0:0:0:0:
320,192,109654,128,0,109813:0:0:0:0:
64,192,109813,128,0,109973:0:0:0:0:
192,192,109813,128,0,109973:0:0:0:0:
320,192,109973,128,0,110133:0:0:0:0:
448,192,109973,128,0,110053:0:0:0:0:
192,192,110133,128,0,110930:0:0:0:0:
64,192,110133,128,0,110212:0:0:0:0:
448,192,110133,128,0,110292:0:0:0:0:
320,192,110292,128,0,110452:0:0:0:0:
64,192,110452,128,0,110611:0:0:0:0:
320,192,110611,128,0,110771:0:0:0:0:
448,192,110611,128,0,110771:0:0:0:0:
64,192,110771,128,0,110930:0:0:0:0:
448,192,110930,128,0,111569:0:0:0:0:
320,192,110930,128,0,111090:0:0:0:0:
192,192,111090,128,0,111250:0:0:0:0:
64,192,111250,128,0,111409:0:0:0:0:
320,192,111250,128,0,111329:0:0:0:0:
192,192,111409,128,0,111569:0:0:0:0:
64,192,111569,128,0,112207:0:0:0:0:
320,192,111569,128,0,111728:0:0:0:0:
192,192,111728,128,0,111888:0:0:0:0:
448,192,111888,128,0,112047:0:0:0:0:
320,192,111888,128,0,111968:0:0:0:0:
192,192,112047,128,0,112207:0:0:0:0:
320,192,112207,1,0,0:0:0:0:
448,192,112207,1,0,0:0:0:0:
192,192,112367,1,0,0:0:0:0:
64,192,112367,1,0,0:0:0:0:
320,192,112526,1,0,0:0:0:0:
64,192,112686,128,0,112845:0:0:0:0:
192,192,112686,128,0,112845:0:0:0:0:
448,192,112686,128,0,112845:0:0:0:0:
64,192,113005,128,0,113164:0:0:0:0:
192,192,113005,128,0,113164:0:0:0:0:
448,192,113005,128,0,113164:0:0:0:0:
64,192,113324,128,0,113484:0:0:0:0:
192,192,113324,128,0,113484:0:0:0:0:
448,192,113324,128,0,113484:0:0:0:0:
64,192,113643,128,0,113962:0:0:0:0:
192,192,113643,128,0,114122:0:0:0:0:
320,192,113962,128,0,114042:0:0:0:0:
448,192,114042,128,0,114122:0:0:0:0:
64,192,114122,128,0,114760:0:0:0:0:
320,192,114122,128,0,114282:0:0:0:0:
192,192,114282,128,0,114441:0:0:0:0:
448,192,114441,128,0,114601:0:0:0:0:
320,192,114441,128,0,114521:0:0:0:0:
192,192,114601,128,0,114760:0:0:0:0:
320,192,114760,128,0,114920:0:0:0:0:
448,192,114760,128,0,114840:0:0:0:0:
64,192,114920,128,0,115000:0:0:0:0:
192,192,114920,128,0,115079:0:0:0:0:
64,192,115079,128,0,115239:0:0:0:0:
320,192,115079,1,0,0:0:0:0:
448,192,115079,1,0,0:0:0:0:
192,192,115239,1,0,0:0:0:0:
320,192,115239,128,0,116037:0:0:0:0:
448,192,115239,128,0,115399:0:0:0:0:
192,192,115399,128,0,115558:0:0:0:0:
64,192,115558,128,0,115718:0:0:0:0:
448,192,115718,128,0,115877:0:0:0:0:
192,192,115718,128,0,115797:0:0:0:0:
64,192,115877,128,0,116037:0:0:0:0:
448,192,116037,128,0,116675:0:0:0:0:
192,192,116037,128,0,116196:0:0:0:0:
320,192,116196,128,0,116356:0:0:0:0:
64,192,116356,128,0,116516:0:0:0:0:
192,192,116356,128,0,116436:0:0:0:0:
320,192,116516,128,0,116675:0:0:0:0:
192,192,116675,128,0,116835:0:0:0:0:
64,192,116675,128,0,116835:0:0:0:0:
64,192,116994,128,0,117154:0:0:0:0:
320,192,116994,128,0,117154:0:0:0:0:
448,192,116994,128,0,117154:0:0:0:0:
192,192,117154,1,0,0:0:0:0:
320,192,117234,1,0,0:0:0:0:
192,192,117313,128,0,117393:0:0:0:0:
64,192,117313,128,0,117393:0:0:0:0:
448,192,117313,128,0,117393:0:0:0:0:
192,192,117473,128,0,117553:0:0:0:0:
320,192,117473,128,0,117553:0:0:0:0:
448,192,117473,128,0,117553:0:0:0:0:
192,192,117633,1,0,0:0:0:0:
64,192,117633,1,0,0:0:0:0:
320,192,117792,128,0,117872:0:0:0:0:
64,192,117792,128,0,117872:0:0:0:0:
448,192,117792,128,0,117872:0:0:0:0:
320,192,117952,1,0,0:0:0:0:
448,192,117952,1,0,0:0:0:0:
64,192,118111,128,0,118271:0:0:0:0:
192,192,118111,128,0,118271:0:0:0:0:
320,192,118111,128,0,118271:0:0:0:0:
320,192,118430,1,0,0:0:0:0:
448,192,118430,1,0,0:0:0:0:
192,192,118510,1,0,0:0:0:0:
64,192,118510,1,0,0:0:0:0:
320,192,118590,1,0,0:0:0:0:
64,192,118590,1,0,0:0:0:0:
192,192,118670,1,0,0:0:0:0:
320,192,118750,1,0,0:0:0:0:
448,192,118750,1,0,0:0:0:0:
192,192,118829,1,0,0:0:0:0:
64,192,118909,1,0,0:0:0:0:
448,192,118909,1,0,0:0:0:0:
320,192,118989,1,0,0:0:0:0:
192,192,119069,1,0,0:0:0:0:
64,192,119069,1,0,0:0:0:0:
448,192,119149,1,0,0:0:0:0:
192,192,119228,128,0,119468:0:0:0:0:
64,192,119228,128,0,119308:0:0:0:0:
320,192,119228,1,0,0:0:0:0:
448,192,119388,128,0,119547:0:0:0:0:
320,192,119388,1,0,0:0:0:0:
64,192,119388,1,0,0:0:0:0:
320,192,119547,128,0,119707:0:0:0:0:
192,192,119547,128,0,119627:0:0:0:0:
64,192,119547,1,0,0:0:0:0:
448,192,119707,128,0,120026:0:0:0:0:
64,192,119707,128,0,119787:0:0:0:0:
192,192,119707,1,0,0:0:0:0:
192,192,119867,128,0,119946:0:0:0:0:
320,192,119867,128,0,119946:0:0:0:0:
64,192,120026,128,0,120186:0:0:0:0:
192,192,120026,128,0,120106:0:0:0:0:
320,192,120186,128,0,120425:0:0:0:0:
448,192,120186,128,0,120266:0:0:0:0:
192,192,120186,1,0,0:0:0:0:
192,192,120345,128,0,120505:0:0:0:0:
64,192,120345,128,0,120425:0:0:0:0:
448,192,120505,128,0,120664:0:0:0:0:
320,192,120505,128,0,120585:0:0:0:0:
64,192,120505,1,0,0:0:0:0:
192,192,120664,128,0,120824:0:0:0:0:
64,192,120664,128,0,120744:0:0:0:0:
320,192,120664,1,0,0:0:0:0:
448,192,120824,1,0,0:0:0:0:
320,192,120824,128,0,121063:0:0:0:0:
64,192,120824,128,0,120904:0:0:0:0:
192,192,120984,128,0,121143:0:0:0:0:
448,192,120984,1,0,0:0:0:0:
64,192,120984,1,0,0:0:0:0:
448,192,121143,128,0,121383:0:0:0:0:
64,192,121143,128,0,121223:0:0:0:0:
320,192,121303,128,0,121383:0:0:0:0:
192,192,121303,128,0,121462:0:0:0:0:
64,192,121462,128,0,121702:0:0:0:0:
448,192,121462,1,0,0:0:0:0:
320,192,121622,128,0,121782:0:0:0:0:
192,192,121622,128,0,121702:0:0:0:0:
448,192,121782,128,0,122021:0:0:0:0:
64,192,121782,1,0,0:0:0:0:
320,192,121941,128,0,122101:0:0:0:0:
64,192,121941,128,0,122021:0:0:0:0:
192,192,122101,128,0,122340:0:0:0:0:
64,192,122101,1,0,0:0:0:0:
448,192,122260,128,0,122340:0:0:0:0:
320,192,122260,128,0,122420:0:0:0:0:
64,192,122420,128,0,122579:0:0:0:0:
192,192,122420,1,0,0:0:0:0:
320,192,122579,128,0,122739:0:0:0:0:
448,192,122579,128,0,122659:0:0:0:0:
192,192,122739,128,0,122819:0:0:0:0:
64,192,122739,128,0,122819:0:0:0:0:
320,192,122819,128,0,122899:0:0:0:0:
64,192,122899,128,0,122978:0:0:0:0:
448,192,122899,128,0,122978:0:0:0:0:
192,192,122978,128,0,123058:0:0:0:0:
320,192,123058,128,0,123138:0:0:0:0:
448,192,123058,128,0,123138:0:0:0:0:
192,192,123138,128,0,123218:0:0:0:0:
64,192,123218,128,0,123297:0:0:0:0:
320,192,123218,128,0,123297:0:0:0:0:
192,192,123297,128,0,123377:0:0:0:0:
320,192,123377,128,0,123457:0:0:0:0:
448,192,123377,128,0,123457:0:0:0:0:
192,192,123457,128,0,123537:0:0:0:0:
64,192,123537,128,0,123696:0:0:0:0:
448,192,123537,128,0,123617:0:0:0:0:
320,192,123617,128,0,123696:0:0:0:0:
192,192,123696,128,0,123936:0:0:0:0:
448,192,123696,128,0,123776:0:0:0:0:
64,192,123856,128,0,124016:0:0:0:0:
320,192,123856,128,0,123936:0:0:0:0:
448,192,124016,128,0,124255:0:0:0:0:
320,192,124016,1,0,0:0:0:0:
192,192,124175,128,0,124255:0:0:0:0:
64,192,124175,128,0,124335:0:0:0:0:
320,192,124335,128,0,124574:0:0:0:0:
192,192,124335,1,0,0:0:0:0:
448,192,124494,128,0,124654:0:0:0:0:
192,192,124494,128,0,124574:0:0:0:0:
64,192,124654,1,0,0:0:0:0:
192,192,124654,128,0,124893:0:0:0:0:
320,192,124813,128,0,124973:0:0:0:0:
448,192,124813,128,0,124893:0:0:0:0:
64,192,124973,128,0,125212:0:0:0:0:
192,192,124973,1,0,0:0:0:0:
192,192,125133,128,0,125292:0:0:0:0:
448,192,125133,128,0,125212:0:0:0:0:
320,192,125292,128,0,125532:0:0:0:0:
64,192,125292,1,0,0:0:0:0:
448,192,125452,128,0,125611:0:0:0:0:
192,192,125452,128,0,125532:0:0:0:0:
192,192,125611,128,0,125851:0:0:0:0:
64,192,125611,1,0,0:0:0:0:
64,192,125771,128,0,125851:0:0:0:0:
320,192,125771,128,0,125930:0:0:0:0:
448,192,125930,1,0,0:0:0:0:
64,192,125930,128,0,126170:0:0:0:0:
192,192,126090,128,0,126250:0:0:0:0:
320,192,126090,128,0,126170:0:0:0:0:
448,192,126250,128,0,126489:0:0:0:0:
64,192,126250,1,0,0:0:0:0:
320,192,126409,128,0,126569:0:0:0:0:
192,192,126409,128,0,126489:0:0:0:0:
192,192,126569,128,0,126808:0:0:0:0:
448,192,126569,1,0,0:0:0:0:
64,192,126728,128,0,126888:0:0:0:0:
320,192,126728,128,0,126808:0:0:0:0:
448,192,126888,128,0,127127:0:0:0:0:
192,192,126888,1,0,0:0:0:0:
320,192,127047,128,0,127207:0:0:0:0:
64,192,127047,128,0,127127:0:0:0:0:
192,192,127207,128,0,127367:0:0:0:0:
448,192,127207,128,0,127287:0:0:0:0:
64,192,127207,128,0,127287:0:0:0:0:
320,192,127367,128,0,127606:0:0:0:0:
448,192,127367,1,0,0:0:0:0:
192,192,127526,1,0,0:0:0:0:
448,192,127526,128,0,127606:0:0:0:0:
64,192,127526,1,0,0:0:0:0:
192,192,127686,128,0,127766:0:0:0:0:
64,192,127686,128,0,127845:0:0:0:0:
320,192,127845,128,0,127925:0:0:0:0:
448,192,127845,128,0,127925:0:0:0:0:
192,192,127925,128,0,128005:0:0:0:0:
64,192,128005,128,0,128085:0:0:0:0:
448,192,128005,128,0,128085:0:0:0:0:
320,192,128085,128,0,128164:0:0:0:0:
192,192,128164,128,0,128244:0:0:0:0:
448,192,128164,128,0,128244:0:0:0:0:
320,192,128244,128,0,128324:0:0:0:0:
64,192,128324,128,0,128404:0:0:0:0:
192,192,128324,128,0,128404:0:0:0:0:
320,192,128404,128,0,128484:0:0:0:0:
448,192,128484,128,0,128563:0:0:0:0:
192,192,128484,128,0,128563:0:0:0:0:
64,192,128563,128,0,128643:0:0:0:0:
192,192,128643,128,0,128723:0:0:0:0:
320,192,128643,128,0,128723:0:0:0:0:
448,192,128723,128,0,128803:0:0:0:0:
192,192,128803,1,0,0:0:0:0:
64,192,128803,1,0,0:0:0:0:
448,192,128883,1,0,0:0:0:0:
320,192,128883,1,0,0:0:0:0:
192,192,128962,1,0,0:0:0:0:
64,192,128962,1,0,0:0:0:0:
320,192,129042,1,0,0:0:0:0:
448,192,129042,1,0,0:0:0:0:
192,192,129122,1,0,0:0:0:0:
64,192,129122,1,0,0:0:0:0:
320,192,129202,1,0,0:0:0:0:
448,192,129202,1,0,0:0:0:0:
192,192,129282,1,0,0:0:0:0:
64,192,129282,1,0,0:0:0:0:
320,192,129361,1,0,0:0:0:0:
448,192,129361,1,0,0:0:0:0:
192,192,129441,128,0,129601:0:0:0:0:
64,192,129441,128,0,129521:0:0:0:0:
448,192,129481,1,0,0:0:0:0:
320,192,129521,1,0,0:0:0:0:
320,192,129601,128,0,129680:0:0:0:0:
448,192,129641,128,0,129760:0:0:0:0:
64,192,129641,128,0,129680:0:0:0:0:
320,192,129760,128,0,129920:0:0:0:0:
192,192,129760,128,0,129840:0:0:0:0:
64,192,129760,128,0,129800:0:0:0:0:
64,192,129880,128,0,129960:0:0:0:0:
448,192,129920,128,0,130039:0:0:0:0:
192,192,129920,128,0,130039:0:0:0:0:
320,192,130000,128,0,130119:0:0:0:0:
64,192,130039,128,0,130079:0:0:0:0:
192,192,130119,128,0,130199:0:0:0:0:
448,192,130119,1,0,0:0:0:0:
64,192,130159,128,0,130279:0:0:0:0:
448,192,130199,128,0,130478:0:0:0:0:
320,192,130239,128,0,130438:0:0:0:0:
192,192,130279,128,0,130359:0:0:0:0:
64,192,130399,128,0,130478:0:0:0:0:
192,192,130438,128,0,130558:0:0:0:0:
320,192,130518,128,0,130638:0:0:0:0:
448,192,130558,128,0,130718:0:0:0:0:
64,192,130598,128,0,130718:0:0:0:0:
192,192,130678,128,0,130797:0:0:0:0:
320,192,130718,128,0,130877:0:0:0:0:
64,192,130797,128,0,130917:0:0:0:0:
448,192,130837,128,0,130957:0:0:0:0:
192,192,130877,128,0,130957:0:0:0:0:
320,192,130957,128,0,131037:0:0:0:0:
64,192,131037,128,0,131117:0:0:0:0:
192,192,131037,128,0,131356:0:0:0:0:
448,192,131077,128,0,131196:0:0:0:0:
320,192,131157,128,0,131236:0:0:0:0:
64,192,131196,128,0,131276:0:0:0:0:
448,192,131316,128,0,131396:0:0:0:0:
320,192,131356,128,0,131516:0:0:0:0:
64,192,131356,128,0,131436:0:0:0:0:
192,192,131476,128,0,131595:0:0:0:0:
448,192,131516,128,0,131835:0:0:0:0:
64,192,131555,128,0,131595:0:0:0:0:
320,192,131635,128,0,131715:0:0:0:0:
192,192,131715,128,0,131755:0:0:0:0:
64,192,131755,128,0,131795:0:0:0:0:
320,192,131795,128,0,131875:0:0:0:0:
192,192,131875,128,0,131914:0:0:0:0:
64,192,131914,128,0,131954:0:0:0:0:
320,192,131994,128,0,132313:0:0:0:0:
192,192,131994,128,0,132074:0:0:0:0:
448,192,132074,128,0,132194:0:0:0:0:
64,192,132074,128,0,132114:0:0:0:0:
192,192,132154,128,0,132194:0:0:0:0:
64,192,132234,128,0,132313:0:0:0:0:
448,192,132274,128,0,132313:0:0:0:0:
192,192,132313,128,0,132473:0:0:0:0:
64,192,132393,1,0,0:0:0:0:
448,192,132433,128,0,132473:0:0:0:0:
64,192,132473,128,0,132712:0:0:0:0:
320,192,132513,128,0,132553:0:0:0:0:
192,192,132593,128,0,132633:0:0:0:0:
320,192,132672,128,0,132712:0:0:0:0:
448,192,132672,128,0,132752:0:0:0:0:
192,192,132792,128,0,132952:0:0:0:0:
64,192,132792,128,0,132872:0:0:0:0:
448,192,132832,128,0,132872:0:0:0:0:
320,192,132872,128,0,132912:0:0:0:0:
64,192,132952,128,0,133071:0:0:0:0:
448,192,132952,128,0,133071:0:0:0:0:
320,192,133032,128,0,133111:0:0:0:0:
192,192,133071,128,0,133151:0:0:0:0:
448,192,133151,128,0,133191:0:0:0:0:
64,192,133151,128,0,133191:0:0:0:0:
320,192,133191,128,0,133231:0:0:0:0:
192,192,133231,128,0,133271:0:0:0:0:
64,192,133271,128,0,133311:0:0:0:0:
448,192,133271,128,0,133351:0:0:0:0:
320,192,133311,128,0,133430:0:0:0:0:
192,192,133351,128,0,133470:0:0:0:0:
64,192,133391,128,0,133550:0:0:0:0:
448,192,133510,128,0,133670:0:0:0:0:
320,192,133550,128,0,133630:0:0:0:0:
192,192,133630,128,0,133670:0:0:0:0:
64,192,133710,128,0,133750:0:0:0:0:
320,192,133750,128,0,133909:0:0:0:0:
192,192,133789,128,0,133829:0:0:0:0:
448,192,133829,128,0,133989:0:0:0:0:
192,192,133909,128,0,134149:0:0:0:0:
64,192,133909,128,0,134029:0:0:0:0:
320,192,133989,128,0,134029:0:0:0:0:
448,192,134069,128,0,134109:0:0:0:0:
64,192,134149,128,0,134308:0:0:0:0:
320,192,134149,128,0,134228:0:0:0:0:
192,192,134228,128,0,134348:0:0:0:0:
448,192,134228,128,0,134348:0:0:0:0:
320,192,134308,128,0,134468:0:0:0:0:
64,192,134388,128,0,134468:0:0:0:0:
448,192,134428,128,0,134508:0:0:0:0:
192,192,134468,128,0,134707:0:0:0:0:
320,192,134547,128,0,134627:0:0:0:0:
64,192,134587,128,0,134627:0:0:0:0:
448,192,134667,128,0,134787:0:0:0:0:
64,192,134707,128,0,134787:0:0:0:0:
320,192,134747,128,0,134867:0:0:0:0:
192,192,134827,128,0,134946:0:0:0:0:
448,192,134867,128,0,135026:0:0:0:0:
64,192,134907,128,0,135026:0:0:0:0:
320,192,135026,128,0,135226:0:0:0:0:
192,192,135026,128,0,135106:0:0:0:0:
64,192,135106,128,0,135186:0:0:0:0:
448,192,135146,128,0,135226:0:0:0:0:
192,192,135186,128,0,135266:0:0:0:0:
64,192,135266,128,0,135385:0:0:0:0:
448,192,135305,128,0,135425:0:0:0:0:
320,192,135305,128,0,135345:0:0:0:0:
192,192,135345,128,0,135385:0:0:0:0:
320,192,135425,128,0,135505:0:0:0:0:
192,192,135465,128,0,135585:0:0:0:0:
64,192,135505,128,0,135664:0:0:0:0:
448,192,135545,128,0,135664:0:0:0:0:
320,192,135585,128,0,135625:0:0:0:0:
192,192,135664,128,0,135864:0:0:0:0:
320,192,135704,128,0,135784:0:0:0:0:
64,192,135744,128,0,135944:0:0:0:0:
448,192,135744,1,0,0:0:0:0:
448,192,135824,128,0,135944:0:0:0:0:
320,192,135904,128,0,136024:0:0:0:0:
192,192,135984,128,0,136143:0:0:0:0:
64,192,136024,128,0,136103:0:0:0:0:
448,192,136063,128,0,136263:0:0:0:0:
320,192,136103,128,0,136183:0:0:0:0:
64,192,136223,1,0,0:0:0:0:
192,192,136223,128,0,136303:0:0:0:0:
320,192,136263,128,0,136383:0:0:0:0:
64,192,136303,128,0,136462:0:0:0:0:
448,192,136343,128,0,136502:0:0:0:0:
192,192,136383,128,0,136462:0:0:0:0:
320,192,136462,128,0,136582:0:0:0:0:
192,192,136542,128,0,136662:0:0:0:0:
64,192,136622,128,0,136782:0:0:0:0:
448,192,136622,128,0,136742:0:0:0:0:
320,192,136702,128,0,136821:0:0:0:0:
192,192,136782,128,0,136901:0:0:0:0:
64,192,136861,128,0,136981:0:0:0:0:
448,192,136861,128,0,136901:0:0:0:0:
320,192,136941,128,0,137101:0:0:0:0:
192,192,136981,128,0,137021:0:0:0:0:
448,192,137021,128,0,137141:0:0:0:0:
64,192,137061,128,0,137101:0:0:0:0:
192,192,137101,128,0,137220:0:0:0:0:
320,192,137180,128,0,137300:0:0:0:0:
64,192,137180,128,0,137300:0:0:0:0:
448,192,137260,128,0,137380:0:0:0:0:
192,192,137300,128,0,137420:0:0:0:0:
320,192,137380,128,0,137500:0:0:0:0:
64,192,137420,128,0,137539:0:0:0:0:
448,192,137460,128,0,137539:0:0:0:0:
192,192,137500,128,0,137579:0:0:0:0:
320,192,137579,128,0,137699:0:0:0:0:
448,192,137619,128,0,137659:0:0:0:0:
64,192,137659,128,0,137779:0:0:0:0:
192,192,137699,128,0,137859:0:0:0:0:
448,192,137739,128,0,137859:0:0:0:0:
320,192,137779,128,0,137819:0:0:0:0:
64,192,137859,128,0,137938:0:0:0:0:
320,192,137899,128,0,138058:0:0:0:0:
448,192,137938,128,0,137978:0:0:0:0:
64,192,138018,128,0,138098:0:0:0:0:
192,192,138058,128,0,138297:0:0:0:0:
320,192,138138,128,0,138218:0:0:0:0:
64,192,138178,1,0,0:0:0:0:
448,192,138218,128,0,138297:0:0:0:0:
64,192,138297,128,0,138377:0:0:0:0:
320,192,138377,128,0,138497:0:0:0:0:
448,192,138417,128,0,138457:0:0:0:0:
192,192,138457,128,0,138696:0:0:0:0:
64,192,138537,128,0,138617:0:0:0:0:
448,192,138537,1,0,0:0:0:0:
320,192,138577,128,0,138776:0:0:0:0:
448,192,138657,128,0,138856:0:0:0:0:
64,192,138696,128,0,138816:0:0:0:0:
192,192,138776,128,0,138896:0:0:0:0:
64,192,138896,128,0,138936:0:0:0:0:
320,192,138936,128,0,139135:0:0:0:0:
448,192,138936,128,0,138976:0:0:0:0:
192,192,139016,128,0,139055:0:0:0:0:
64,192,139095,128,0,139135:0:0:0:0:
448,192,139135,128,0,139215:0:0:0:0:
192,192,139175,128,0,139295:0:0:0:0:
320,192,139215,128,0,139255:0:0:0:0:
64,192,139255,128,0,139375:0:0:0:0:
320,192,139335,128,0,139454:0:0:0:0:
448,192,139375,128,0,139414:0:0:0:0:
192,192,139414,128,0,139494:0:0:0:0:
64,192,139494,128,0,139760:0:0:0:0:
448,192,139534,1,0,0:0:0:0:
320,192,139574,1,0,0:0:0:0:
192,192,139654,128,0,139920:0:0:0:0:
320,192,139654,128,0,139760:0:0:0:0:
448,192,139654,128,0,139760:0:0:0:0:
64,192,139813,128,0,139920:0:0:0:0:
320,192,139813,128,0,140079:0:0:0:0:
448,192,139813,128,0,139920:0:0:0:0:
64,192,139973,128,0,140079:0:0:0:0:
192,192,139973,128,0,140079:0:0:0:0:
448,192,139973,128,0,140239:0:0:0:0:
320,192,140133,128,0,140399:0:0:0:0:
192,192,140133,128,0,140239:0:0:0:0:
64,192,140133,128,0,140239:0:0:0:0:
64,192,140292,128,0,140399:0:0:0:0:
192,192,140292,128,0,140558:0:0:0:0:
448,192,140292,128,0,140399:0:0:0:0:
64,192,140452,128,0,140718:0:0:0:0:
320,192,140452,128,0,140558:0:0:0:0:
448,192,140452,128,0,140558:0:0:0:0:
320,192,140611,128,0,140718:0:0:0:0:
192,192,140611,128,0,140718:0:0:0:0:
448,192,140611,128,0,140877:0:0:0:0:
64,192,140771,128,0,140877:0:0:0:0:
192,192,140771,128,0,140877:0:0:0:0:
320,192,140771,128,0,141037:0:0:0:0:
192,192,140930,128,0,141037:0:0:0:0:
64,192,140930,128,0,141037:0:0:0:0:
448,192,140930,128,0,141196:0:0:0:0:
64,192,141090,128,0,141356:0:0:0:0:
192,192,141090,128,0,141196:0:0:0:0:
320,192,141090,128,0,141196:0:0:0:0:
192,192,141250,128,0,141516:0:0:0:0:
320,192,141250,128,0,141356:0:0:0:0:
448,192,141250,128,0,141356:0:0:0:0:
64,192,141409,128,0,141516:0:0:0:0:
320,192,141409,128,0,141516:0:0:0:0:
448,192,141409,128,0,141516:0:0:0:0:
64,192,141569,128,0,141835:0:0:0:0:
192,192,141569,128,0,141835:0:0:0:0:
320,192,141569,128,0,141835:0:0:0:0:
448,192,141569,128,0,141835:0:0:0:0:
64,192,141888,128,0,142127:0:0:0:0:
192,192,141888,128,0,142207:0:0:0:0:
320,192,141888,128,0,142127:0:0:0:0:
448,192,141888,128,0,142127:0:0:0:0:
320,192,142207,128,0,142287:0:0:0:0:
448,192,142207,128,0,142367:0:0:0:0:
64,192,142207,128,0,142287:0:0:0:0:
192,192,142287,128,0,142446:0:0:0:0:
64,192,142367,128,0,142526:0:0:0:0:
320,192,142367,128,0,142446:0:0:0:0:
448,192,142446,128,0,142606:0:0:0:0:
320,192,142526,128,0,142686:0:0:0:0:
192,192,142526,128,0,142606:0:0:0:0:
64,192,142606,128,0,142766:0:0:0:0:
192,192,142686,128,0,142766:0:0:0:0:
448,192,142686,128,0,142925:0:0:0:0:
320,192,142766,128,0,142845:0:0:0:0:
192,192,142845,128,0,143085:0:0:0:0:
64,192,142845,128,0,142925:0:0:0:0:
320,192,142925,128,0,143005:0:0:0:0:
64,192,143005,128,0,143244:0:0:0:0:
448,192,143005,128,0,143085:0:0:0:0:
320,192,143085,128,0,143164:0:0:0:0:
192,192,143164,128,0,143244:0:0:0:0:
448,192,143164,128,0,143484:0:0:0:0:
320,192,143244,128,0,143324:0:0:0:0:
192,192,143324,128,0,143484:0:0:0:0:
64,192,143324,128,0,143484:0:0:0:0:
320,192,143404,128,0,143484:0:0:0:0:
64,192,143803,128,0,144680:0:0:0:0:
320,192,144122,128,0,144680:0:0:0:0:
448,192,144282,128,0,144680:0:0:0:0:
192,192,144601,128,0,144680:0:0:0:0:
192,192,144760,1,0,0:0:0:0:
64,192,144760,1,0,0:0:0:0:
320,192,144760,1,0,0:0:0:0:
448,192,144760,1,0,0:0:0:0:
64,192,154973,132,0,155133:0:0:0:0:
320,192,154973,128,0,155133:0:0:0:0:
448,192,154973,128,0,155133:0:0:0:0:
192,192,154973,128,0,155133:0:0:0:0:
192,192,155292,1,0,0:0:0:0:
64,192,155292,1,0,0:0:0:0:
320,192,155372,1,0,0:0:0:0:
448,192,155452,1,0,0:0:0:0:
192,192,155532,1,0,0:0:0:0:
64,192,155611,128,0,155771:0:0:0:0:
320,192,155611,128,0,155771:0:0:0:0:
448,192,155611,128,0,155771:0:0:0:0:
64,192,155851,128,0,156010:0:0:0:0:
320,192,155851,128,0,156010:0:0:0:0:
448,192,155851,128,0,156010:0:0:0:0:
192,192,156090,128,0,156250:0:0:0:0:
64,192,156090,128,0,156250:0:0:0:0:
320,192,156090,128,0,156250:0:0:0:0:
448,192,156090,128,0,156250:0:0:0:0:
192,192,156409,1,0,0:0:0:0:
64,192,156569,1,0,0:0:0:0:
320,192,156569,1,0,0:0:0:0:
448,192,156569,1,0,0:0:0:0:
64,192,156728,1,0,0:0:0:0:
192,192,156768,1,0,0:0:0:0:
320,192,156808,1,0,0:0:0:0:
448,192,156848,1,0,0:0:0:0:
192,192,156888,1,0,0:0:0:0:
64,192,156888,1,0,0:0:0:0:
320,192,157047,1,0,0:0:0:0:
448,192,157047,1,0,0:0:0:0:
64,192,157207,128,0,157446:0:0:0:0:
192,192,157207,128,0,157446:0:0:0:0:
320,192,157207,128,0,157446:0:0:0:0:
320,192,157526,128,0,157686:0:0:0:0:
448,192,157526,128,0,157686:0:0:0:0:
192,192,157526,128,0,157686:0:0:0:0:
64,192,157845,1,0,0:0:0:0:
192,192,157845,1,0,0:0:0:0:
448,192,157845,1,0,0:0:0:0:
320,192,157925,1,0,0:0:0:0:
192,192,158005,1,0,0:0:0:0:
64,192,158085,1,0,0:0:0:0:
320,192,158164,128,0,158324:0:0:0:0:
448,192,158164,128,0,158324:0:0:0:0:
192,192,158164,128,0,158324:0:0:0:0:
192,192,158404,128,0,158563:0:0:0:0:
320,192,158404,128,0,158563:0:0:0:0:
448,192,158404,128,0,158563:0:0:0:0:
64,192,158643,128,0,158803:0:0:0:0:
192,192,158643,128,0,158803:0:0:0:0:
320,192,158643,128,0,158803:0:0:0:0:
448,192,158643,128,0,158803:0:0:0:0:
64,192,158962,1,0,0:0:0:0:
320,192,159122,1,0,0:0:0:0:
448,192,159122,1,0,0:0:0:0:
192,192,159122,1,0,0:0:0:0:
64,192,159282,1,0,0:0:0:0:
192,192,159361,1,0,0:0:0:0:
448,192,159441,1,0,0:0:0:0:
320,192,159441,1,0,0:0:0:0:
64,192,159601,1,0,0:0:0:0:
192,192,159601,1,0,0:0:0:0:
448,192,159760,128,0,159920:0:0:0:0:
320,192,159760,128,0,159920:0:0:0:0:
192,192,159920,128,0,160000:0:0:0:0:
64,192,159920,128,0,160000:0:0:0:0:
320,192,160000,1,0,0:0:0:0:
448,192,160000,1,0,0:0:0:0:
64,192,160079,128,0,160239:0:0:0:0:
192,192,160079,128,0,160239:0:0:0:0:
320,192,160079,128,0,160239:0:0:0:0:
448,192,160079,128,0,160239:0:0:0:0:
64,192,160399,1,0,0:0:0:0:
320,192,160399,1,0,0:0:0:0:
448,192,160399,1,0,0:0:0:0:
192,192,160478,1,0,0:0:0:0:
320,192,160558,1,0,0:0:0:0:
448,192,160638,1,0,0:0:0:0:
64,192,160718,128,0,160877:0:0:0:0:
192,192,160718,128,0,160877:0:0:0:0:
320,192,160718,128,0,160877:0:0:0:0:
64,192,160957,128,0,161117:0:0:0:0:
192,192,160957,128,0,161117:0:0:0:0:
320,192,160957,128,0,161117:0:0:0:0:
64,192,161196,128,0,161356:0:0:0:0:
192,192,161196,128,0,161356:0:0:0:0:
320,192,161196,128,0,161356:0:0:0:0:
448,192,161196,128,0,161356:0:0:0:0:
64,192,161516,1,0,0:0:0:0:
320,192,161516,1,0,0:0:0:0:
192,192,161675,128,0,161835:0:0:0:0:
320,192,161675,128,0,161835:0:0:0:0:
448,192,161675,128,0,161835:0:0:0:0:
192,192,161994,1,0,0:0:0:0:
320,192,161994,1,0,0:0:0:0:
64,192,162154,1,0,0:0:0:0:
448,192,162154,1,0,0:0:0:0:
320,192,162313,128,0,162473:0:0:0:0:
64,192,162313,128,0,162473:0:0:0:0:
448,192,162313,128,0,162473:0:0:0:0:
64,192,162633,128,0,162792:0:0:0:0:
192,192,162633,128,0,162792:0:0:0:0:
320,192,162633,128,0,162792:0:0:0:0:
448,192,162633,128,0,162792:0:0:0:0:
320,192,162952,1,0,0:0:0:0:
448,192,162952,1,0,0:0:0:0:
192,192,163032,1,0,0:0:0:0:
64,192,163111,1,0,0:0:0:0:
320,192,163191,1,0,0:0:0:0:
192,192,163271,128,0,163430:0:0:0:0:
64,192,163271,128,0,163430:0:0:0:0:
448,192,163271,128,0,163430:0:0:0:0:
64,192,163510,128,0,163670:0:0:0:0:
192,192,163510,128,0,163670:0:0:0:0:
448,192,163510,128,0,163670:0:0:0:0:
64,192,163750,128,0,163909:0:0:0:0:
192,192,163750,128,0,163909:0:0:0:0:
320,192,163750,128,0,163909:0:0:0:0:
448,192,163750,128,0,163909:0:0:0:0:
320,192,164069,5,0,0:0:0:0:
192,192,164069,1,0,0:0:0:0:
192,192,164228,128,0,164468:0:0:0:0:
64,192,164228,128,0,164468:0:0:0:0:
320,192,164228,128,0,164468:0:0:0:0:
448,192,164228,128,0,164468:0:0:0:0:
64,192,164547,1,0,0:0:0:0:
192,192,164547,1,0,0:0:0:0:
448,192,164627,1,0,0:0:0:0:
320,192,164627,1,0,0:0:0:0:
192,192,164707,1,0,0:0:0:0:
64,192,164707,1,0,0:0:0:0:
320,192,164787,1,0,0:0:0:0:
448,192,164787,1,0,0:0:0:0:
192,192,164867,1,0,0:0:0:0:
64,192,164867,1,0,0:0:0:0:
320,192,164946,1,0,0:0:0:0:
448,192,164946,1,0,0:0:0:0:
192,192,165026,1,0,0:0:0:0:
64,192,165026,1,0,0:0:0:0:
320,192,165106,1,0,0:0:0:0:
448,192,165106,1,0,0:0:0:0:
64,192,165186,5,0,0:0:0:0:
192,192,165186,1,0,0:0:0:0:
320,192,165266,1,0,0:0:0:0:
448,192,165345,1,0,0:0:0:0:
192,192,165345,1,0,0:0:0:0:
320,192,165425,1,0,0:0:0:0:
192,192,165505,1,0,0:0:0:0:
64,192,165505,1,0,0:0:0:0:
320,192,165585,1,0,0:0:0:0:
448,192,165664,1,0,0:0:0:0:
64,192,165664,1,0,0:0:0:0:
320,192,165744,1,0,0:0:0:0:
64,192,165824,1,0,0:0:0:0:
448,192,165824,1,0,0:0:0:0:
192,192,165904,1,0,0:0:0:0:
320,192,165984,1,0,0:0:0:0:
448,192,165984,1,0,0:0:0:0:
64,192,166063,1,0,0:0:0:0:
192,192,166143,1,0,0:0:0:0:
448,192,166143,1,0,0:0:0:0:
320,192,166223,1,0,0:0:0:0:
192,192,166303,1,0,0:0:0:0:
64,192,166303,1,0,0:0:0:0:
320,192,166383,1,0,0:0:0:0:
192,192,166462,1,0,0:0:0:0:
448,192,166462,1,0,0:0:0:0:
64,192,166542,1,0,0:0:0:0:
192,192,166622,1,0,0:0:0:0:
320,192,166622,1,0,0:0:0:0:
448,192,166702,1,0,0:0:0:0:
320,192,166782,1,0,0:0:0:0:
64,192,166782,1,0,0:0:0:0:
192,192,166861,1,0,0:0:0:0:
320,192,166941,1,0,0:0:0:0:
448,192,166941,1,0,0:0:0:0:
64,192,167021,1,0,0:0:0:0:
192,192,167101,1,0,0:0:0:0:
448,192,167101,1,0,0:0:0:0:
320,192,167180,1,0,0:0:0:0:
192,192,167260,1,0,0:0:0:0:
64,192,167260,1,0,0:0:0:0:
448,192,167340,1,0,0:0:0:0:
320,192,167420,1,0,0:0:0:0:
64,192,167420,1,0,0:0:0:0:
192,192,167500,1,0,0:0:0:0:
64,192,167579,1,0,0:0:0:0:
448,192,167579,1,0,0:0:0:0:
320,192,167659,1,0,0:0:0:0:
192,192,167739,128,0,167819:0:0:0:0:
64,192,167739,128,0,167819:0:0:0:0:
448,192,167739,128,0,167819:0:0:0:0:
320,192,167819,128,0,167899:0:0:0:0:
448,192,167899,128,0,167978:0:0:0:0:
192,192,167899,128,0,167978:0:0:0:0:
64,192,167899,128,0,167978:0:0:0:0:
320,192,167978,128,0,168058:0:0:0:0:
64,192,168058,128,0,168138:0:0:0:0:
448,192,168058,128,0,168138:0:0:0:0:
192,192,168138,128,0,168218:0:0:0:0:
320,192,168218,128,0,168297:0:0:0:0:
64,192,168218,128,0,168297:0:0:0:0:
448,192,168218,128,0,168297:0:0:0:0:
192,192,168297,128,0,168377:0:0:0:0:
320,192,168377,128,0,168457:0:0:0:0:
448,192,168377,128,0,168457:0:0:0:0:
64,192,168457,128,0,168537:0:0:0:0:
192,192,168537,128,0,168617:0:0:0:0:
320,192,168537,128,0,168617:0:0:0:0:
448,192,168617,128,0,168696:0:0:0:0:
320,192,168696,128,0,168776:0:0:0:0:
64,192,168696,128,0,168776:0:0:0:0:
192,192,168776,128,0,168856:0:0:0:0:
320,192,168856,128,0,168936:0:0:0:0:
448,192,168856,128,0,168936:0:0:0:0:
64,192,168936,128,0,169016:0:0:0:0:
192,192,169016,128,0,169095:0:0:0:0:
448,192,169016,128,0,169095:0:0:0:0:
320,192,169095,128,0,169175:0:0:0:0:
192,192,169175,128,0,169255:0:0:0:0:
64,192,169175,128,0,169255:0:0:0:0:
448,192,169175,128,0,169255:0:0:0:0:
320,192,169255,128,0,169335:0:0:0:0:
448,192,169335,128,0,169414:0:0:0:0:
192,192,169335,128,0,169414:0:0:0:0:
64,192,169414,128,0,169494:0:0:0:0:
192,192,169494,128,0,169574:0:0:0:0:
320,192,169494,128,0,169574:0:0:0:0:
448,192,169574,128,0,169654:0:0:0:0:
320,192,169654,128,0,169734:0:0:0:0:
64,192,169654,128,0,169734:0:0:0:0:
192,192,169734,128,0,169813:0:0:0:0:
320,192,169813,128,0,169893:0:0:0:0:
448,192,169813,128,0,169893:0:0:0:0:
64,192,169893,128,0,169973:0:0:0:0:
192,192,169973,128,0,170053:0:0:0:0:
320,192,169973,128,0,170053:0:0:0:0:
448,192,170053,128,0,170133:0:0:0:0:
320,192,170133,128,0,170212:0:0:0:0:
64,192,170133,128,0,170212:0:0:0:0:
192,192,170212,128,0,170292:0:0:0:0:
320,192,170292,128,0,170452:0:0:0:0:
448,192,170292,128,0,170372:0:0:0:0:
192,192,170372,128,0,170532:0:0:0:0:
64,192,170452,128,0,170532:0:0:0:0:
448,192,170452,128,0,170691:0:0:0:0:
320,192,170532,128,0,170611:0:0:0:0:
192,192,170611,128,0,170771:0:0:0:0:
64,192,170611,128,0,170691:0:0:0:0:
320,192,170691,128,0,170851:0:0:0:0:
448,192,170771,128,0,170851:0:0:0:0:
64,192,170771,128,0,171010:0:0:0:0:
192,192,170851,128,0,170930:0:0:0:0:
320,192,170930,128,0,171090:0:0:0:0:
448,192,170930,128,0,171010:0:0:0:0:
192,192,171010,128,0,171170:0:0:0:0:
64,192,171090,128,0,171250:0:0:0:0:
448,192,171090,128,0,171170:0:0:0:0:
320,192,171170,128,0,171329:0:0:0:0:
192,192,171250,128,0,171329:0:0:0:0:
448,192,171250,128,0,171409:0:0:0:0:
64,192,171329,128,0,171489:0:0:0:0:
320,192,171409,128,0,171489:0:0:0:0:
192,192,171409,128,0,171569:0:0:0:0:
448,192,171489,128,0,171649:0:0:0:0:
64,192,171569,128,0,171649:0:0:0:0:
320,192,171569,128,0,171808:0:0:0:0:
192,192,171649,128,0,171728:0:0:0:0:
448,192,171728,128,0,171808:0:0:0:0:
64,192,171728,128,0,171968:0:0:0:0:
192,192,171808,128,0,171888:0:0:0:0:
320,192,171888,128,0,172047:0:0:0:0:
448,192,171888,128,0,171968:0:0:0:0:
192,192,171968,128,0,172127:0:0:0:0:
64,192,172047,128,0,172207:0:0:0:0:
448,192,172047,128,0,172127:0:0:0:0:
320,192,172127,128,0,172287:0:0:0:0:
448,192,172207,128,0,172367:0:0:0:0:
192,192,172207,128,0,172287:0:0:0:0:
64,192,172287,128,0,172446:0:0:0:0:
192,192,172367,128,0,172526:0:0:0:0:
320,192,172367,128,0,172446:0:0:0:0:
448,192,172446,128,0,172606:0:0:0:0:
320,192,172526,128,0,172686:0:0:0:0:
64,192,172526,128,0,172606:0:0:0:0:
192,192,172606,128,0,172766:0:0:0:0:
64,192,172686,128,0,172766:0:0:0:0:
448,192,172686,128,0,172766:0:0:0:0:
320,192,172766,128,0,172845:0:0:0:0:
192,192,172845,128,0,173045:0:0:0:0:
64,192,172885,128,0,172965:0:0:0:0:
448,192,172925,128,0,173005:0:0:0:0:
320,192,173005,128,0,173125:0:0:0:0:
64,192,173085,128,0,173244:0:0:0:0:
192,192,173125,128,0,173204:0:0:0:0:
448,192,173125,128,0,173164:0:0:0:0:
320,192,173204,128,0,173244:0:0:0:0:
448,192,173244,128,0,173364:0:0:0:0:
192,192,173284,128,0,173324:0:0:0:0:
320,192,173324,128,0,173524:0:0:0:0:
64,192,173324,128,0,173444:0:0:0:0:
192,192,173404,128,0,173484:0:0:0:0:
448,192,173484,128,0,173603:0:0:0:0:
64,192,173563,128,0,173683:0:0:0:0:
192,192,173603,128,0,173643:0:0:0:0:
320,192,173643,128,0,173763:0:0:0:0:
448,192,173683,128,0,173723:0:0:0:0:
192,192,173723,128,0,173843:0:0:0:0:
64,192,173803,128,0,174042:0:0:0:0:
448,192,173843,128,0,173962:0:0:0:0:
320,192,173883,128,0,173922:0:0:0:0:
192,192,173962,128,0,174002:0:0:0:0:
320,192,174042,128,0,174122:0:0:0:0:
448,192,174122,128,0,174361:0:0:0:0:
64,192,174122,128,0,174202:0:0:0:0:
192,192,174162,128,0,174202:0:0:0:0:
320,192,174242,128,0,174282:0:0:0:0:
192,192,174282,128,0,174561:0:0:0:0:
64,192,174321,128,0,174441:0:0:0:0:
320,192,174361,128,0,174441:0:0:0:0:
448,192,174441,128,0,174521:0:0:0:0:
320,192,174521,128,0,174601:0:0:0:0:
64,192,174561,128,0,174680:0:0:0:0:
448,192,174601,128,0,174840:0:0:0:0:
192,192,174641,1,0,0:0:0:0:
320,192,174680,128,0,174760:0:0:0:0:
64,192,174760,128,0,174960:0:0:0:0:
192,192,174760,128,0,174840:0:0:0:0:
320,192,174840,128,0,174920:0:0:0:0:
448,192,174920,128,0,175000:0:0:0:0:
192,192,174960,128,0,175039:0:0:0:0:
64,192,175039,128,0,175079:0:0:0:0:
320,192,175079,128,0,175239:0:0:0:0:
448,192,175079,128,0,175119:0:0:0:0:
192,192,175159,128,0,175199:0:0:0:0:
64,192,175199,128,0,175279:0:0:0:0:
448,192,175239,128,0,175319:0:0:0:0:
192,192,175279,128,0,175359:0:0:0:0:
320,192,175319,128,0,175399:0:0:0:0:
64,192,175399,128,0,175478:0:0:0:0:
448,192,175399,128,0,175478:0:0:0:0:
192,192,175438,128,0,175478:0:0:0:0:
320,192,175478,128,0,175558:0:0:0:0:
192,192,175558,128,0,175718:0:0:0:0:
64,192,175558,128,0,175598:0:0:0:0:
448,192,175598,128,0,175678:0:0:0:0:
64,192,175678,128,0,175758:0:0:0:0:
320,192,175718,128,0,175877:0:0:0:0:
448,192,175758,128,0,175797:0:0:0:0:
192,192,175837,128,0,175877:0:0:0:0:
448,192,175877,128,0,176037:0:0:0:0:
64,192,175877,128,0,175957:0:0:0:0:
192,192,175957,128,0,176037:0:0:0:0:
320,192,175997,128,0,176117:0:0:0:0:
64,192,176077,128,0,176196:0:0:0:0:
192,192,176117,128,0,176157:0:0:0:0:
448,192,176157,128,0,176236:0:0:0:0:
320,192,176196,128,0,176236:0:0:0:0:
192,192,176236,128,0,176316:0:0:0:0:
64,192,176276,128,0,176356:0:0:0:0:
448,192,176316,128,0,176396:0:0:0:0:
320,192,176356,128,0,176516:0:0:0:0:
192,192,176396,128,0,176436:0:0:0:0:
64,192,176476,128,0,176595:0:0:0:0:
448,192,176476,128,0,176555:0:0:0:0:
192,192,176516,128,0,176675:0:0:0:0:
320,192,176595,128,0,176675:0:0:0:0:
448,192,176635,128,0,176755:0:0:0:0:
64,192,176675,128,0,176994:0:0:0:0:
192,192,176755,128,0,176875:0:0:0:0:
320,192,176795,128,0,176835:0:0:0:0:
448,192,176875,128,0,176954:0:0:0:0:
320,192,176914,128,0,176954:0:0:0:0:
192,192,176994,128,0,177154:0:0:0:0:
320,192,177034,128,0,177074:0:0:0:0:
64,192,177074,128,0,177154:0:0:0:0:
448,192,177114,128,0,177234:0:0:0:0:
320,192,177154,128,0,177313:0:0:0:0:
192,192,177274,128,0,177313:0:0:0:0:
64,192,177313,128,0,177393:0:0:0:0:
448,192,177353,128,0,177433:0:0:0:0:
192,192,177393,128,0,177553:0:0:0:0:
320,192,177393,128,0,177473:0:0:0:0:
64,192,177473,128,0,177553:0:0:0:0:
448,192,177513,128,0,177553:0:0:0:0:
320,192,177553,128,0,177633:0:0:0:0:
64,192,177633,128,0,177792:0:0:0:0:
192,192,177633,128,0,177712:0:0:0:0:
448,192,177672,128,0,177752:0:0:0:0:
320,192,177792,128,0,177952:0:0:0:0:
192,192,177792,128,0,177872:0:0:0:0:
448,192,177832,128,0,177872:0:0:0:0:
64,192,177872,128,0,177912:0:0:0:0:
192,192,177952,128,0,178032:0:0:0:0:
448,192,177952,128,0,178032:0:0:0:0:
64,192,178032,128,0,178191:0:0:0:0:
320,192,178032,128,0,178111:0:0:0:0:
192,192,178111,128,0,178191:0:0:0:0:
448,192,178111,128,0,178351:0:0:0:0:
320,192,178191,128,0,178271:0:0:0:0:
192,192,178271,128,0,178430:0:0:0:0:
64,192,178271,128,0,178351:0:0:0:0:
320,192,178351,128,0,178510:0:0:0:0:
448,192,178430,128,0,178510:0:0:0:0:
64,192,178430,128,0,178670:0:0:0:0:
192,192,178510,128,0,178590:0:0:0:0:
320,192,178590,128,0,178750:0:0:0:0:
448,192,178590,128,0,178670:0:0:0:0:
192,192,178670,128,0,178829:0:0:0:0:
64,192,178750,128,0,178909:0:0:0:0:
448,192,178750,128,0,178909:0:0:0:0:
320,192,178829,128,0,178909:0:0:0:0:
192,192,178909,128,0,179069:0:0:0:0:
64,192,179069,1,0,0:0:0:0:
320,192,179069,1,0,0:0:0:0:
448,192,179069,1,0,0:0:0:0:
192,192,179867,128,0,179946:0:0:0:0:
64,192,179867,128,0,179946:0:0:0:0:
320,192,179946,128,0,180026:0:0:0:0:
448,192,179946,128,0,180026:0:0:0:0:
192,192,180026,128,0,180106:0:0:0:0:
64,192,180026,128,0,180106:0:0:0:0:
320,192,180106,128,0,180186:0:0:0:0:
448,192,180106,128,0,180186:0:0:0:0:
192,192,180186,128,0,180266:0:0:0:0:
64,192,180186,128,0,180266:0:0:0:0:
320,192,180266,128,0,180345:0:0:0:0:
448,192,180266,128,0,180345:0:0:0:0:
192,192,180345,128,0,180425:0:0:0:0:
64,192,180345,128,0,180425:0:0:0:0:
320,192,180425,128,0,180505:0:0:0:0:
448,192,180425,128,0,180505:0:0:0:0:
64,192,180505,128,0,180611:0:0:0:0:
192,192,180558,128,0,180664:0:0:0:0:
320,192,180611,128,0,180718:0:0:0:0:
448,192,180664,128,0,180771:0:0:0:0:
64,192,180718,128,0,180824:0:0:0:0:
192,192,180771,128,0,180877:0:0:0:0:
320,192,180824,128,0,180930:0:0:0:0:
448,192,180877,128,0,180984:0:0:0:0:
64,192,180930,128,0,181037:0:0:0:0:
192,192,180984,128,0,181090:0:0:0:0:
320,192,181037,128,0,181143:0:0:0:0:
448,192,181090,128,0,181196:0:0:0:0:
64,192,181143,128,0,181250:0:0:0:0:
192,192,181196,128,0,181303:0:0:0:0:
320,192,181250,128,0,181356:0:0:0:0:
448,192,181303,128,0,181409:0:0:0:0:
64,192,181356,128,0,181462:0:0:0:0:
192,192,181409,128,0,181516:0:0:0:0:
320,192,181462,128,0,181569:0:0:0:0:
448,192,181516,128,0,181622:0:0:0:0:
64,192,181569,128,0,181675:0:0:0:0:
192,192,181622,128,0,181728:0:0:0:0:
320,192,181675,128,0,181782:0:0:0:0:
448,192,181742,128,0,181821:0:0:0:0:
64,192,181782,128,0,181941:0:0:0:0:
192,192,181835,128,0,181941:0:0:0:0:
320,192,181941,128,0,182101:0:0:0:0:
448,192,181941,128,0,181981:0:0:0:0:
192,192,182021,128,0,182101:0:0:0:0:
64,192,182061,128,0,182141:0:0:0:0:
448,192,182101,128,0,182260:0:0:0:0:
320,192,182141,128,0,182220:0:0:0:0:
64,192,182220,128,0,182300:0:0:0:0:
192,192,182260,128,0,182420:0:0:0:0:
320,192,182300,128,0,182340:0:0:0:0:
448,192,182340,128,0,182420:0:0:0:0:
320,192,182420,128,0,182579:0:0:0:0:
64,192,182420,128,0,182500:0:0:0:0:
192,192,182500,128,0,182539:0:0:0:0:
448,192,182500,128,0,182659:0:0:0:0:
64,192,182579,128,0,182739:0:0:0:0:
192,192,182619,128,0,182659:0:0:0:0:
320,192,182659,128,0,182739:0:0:0:0:
192,192,182739,128,0,182899:0:0:0:0:
448,192,182739,128,0,182819:0:0:0:0:
64,192,182819,128,0,182859:0:0:0:0:
320,192,182899,128,0,183058:0:0:0:0:
448,192,182899,128,0,182978:0:0:0:0:
192,192,182978,128,0,183018:0:0:0:0:
448,192,183058,128,0,183164:0:0:0:0:
64,192,183058,128,0,183098:0:0:0:0:
320,192,183111,128,0,183218:0:0:0:0:
192,192,183164,128,0,183271:0:0:0:0:
64,192,183218,128,0,183324:0:0:0:0:
448,192,183271,128,0,183377:0:0:0:0:
320,192,183324,128,0,183430:0:0:0:0:
192,192,183377,128,0,183484:0:0:0:0:
64,192,183430,128,0,183537:0:0:0:0:
448,192,183484,128,0,183590:0:0:0:0:
320,192,183537,128,0,183643:0:0:0:0:
192,192,183590,128,0,183696:0:0:0:0:
64,192,183643,128,0,183750:0:0:0:0:
448,192,183696,128,0,183803:0:0:0:0:
320,192,183750,128,0,183856:0:0:0:0:
192,192,183803,128,0,183909:0:0:0:0:
64,192,183856,128,0,183962:0:0:0:0:
448,192,183909,128,0,184016:0:0:0:0:
192,192,184016,128,0,184175:0:0:0:0:
320,192,184016,128,0,184055:0:0:0:0:
64,192,184095,128,0,184175:0:0:0:0:
448,192,184135,128,0,184215:0:0:0:0:
320,192,184175,128,0,184414:0:0:0:0:
192,192,184255,128,0,184335:0:0:0:0:
448,192,184295,128,0,184375:0:0:0:0:
64,192,184335,128,0,184534:0:0:0:0:
192,192,184414,128,0,184494:0:0:0:0:
448,192,184454,128,0,184614:0:0:0:0:
320,192,184494,128,0,184574:0:0:0:0:
192,192,184574,128,0,184734:0:0:0:0:
64,192,184614,128,0,184694:0:0:0:0:
320,192,184654,128,0,184734:0:0:0:0:
448,192,184734,128,0,184853:0:0:0:0:
320,192,184813,128,0,184973:0:0:0:0:
192,192,184813,128,0,184853:0:0:0:0:
64,192,184893,128,0,184933:0:0:0:0:
448,192,184933,128,0,185013:0:0:0:0:
192,192,184973,128,0,185093:0:0:0:0:
64,192,185013,128,0,185053:0:0:0:0:
320,192,185053,128,0,185172:0:0:0:0:
448,192,185133,128,0,185252:0:0:0:0:
64,192,185172,128,0,185212:0:0:0:0:
320,192,185252,128,0,185332:0:0:0:0:
192,192,185292,128,0,185372:0:0:0:0:
64,192,185332,128,0,185452:0:0:0:0:
448,192,185412,128,0,185452:0:0:0:0:
192,192,185452,128,0,185611:0:0:0:0:
320,192,185452,128,0,185532:0:0:0:0:
64,192,185571,128,0,185611:0:0:0:0:
448,192,185611,128,0,185718:0:0:0:0:
320,192,185664,128,0,185771:0:0:0:0:
192,192,185718,128,0,185824:0:0:0:0:
64,192,185771,128,0,185877:0:0:0:0:
448,192,185824,128,0,185930:0:0:0:0:
320,192,185877,128,0,185984:0:0:0:0:
192,192,185930,128,0,186037:0:0:0:0:
64,192,185984,128,0,186090:0:0:0:0:
448,192,186037,128,0,186143:0:0:0:0:
320,192,186090,128,0,186196:0:0:0:0:
192,192,186143,128,0,186250:0:0:0:0:
64,192,186196,128,0,186303:0:0:0:0:
448,192,186250,128,0,186356:0:0:0:0:
320,192,186303,128,0,186409:0:0:0:0:
192,192,186356,128,0,186462:0:0:0:0:
64,192,186409,128,0,186516:0:0:0:0:
64,192,186569,128,0,186649:0:0:0:0:
192,192,186569,128,0,186649:0:0:0:0:
320,192,186569,128,0,186649:0:0:0:0:
448,192,186569,128,0,186649:0:0:0:0:
64,192,186728,128,0,186808:0:0:0:0:
192,192,186728,128,0,186808:0:0:0:0:
320,192,186728,128,0,186808:0:0:0:0:
448,192,186728,128,0,186808:0:0:0:0:
64,192,187047,128,0,187127:0:0:0:0:
192,192,187047,128,0,187127:0:0:0:0:
320,192,187047,128,0,187127:0:0:0:0:
448,192,187047,128,0,187127:0:0:0:0:
192,192,187207,1,0,0:0:0:0:
64,192,187207,1,0,0:0:0:0:
64,192,187367,128,0,187446:0:0:0:0:
192,192,187367,128,0,187446:0:0:0:0:
320,192,187367,128,0,187446:0:0:0:0:
448,192,187367,128,0,187446:0:0:0:0:
64,192,187686,128,0,187766:0:0:0:0:
192,192,187686,128,0,187766:0:0:0:0:
448,192,187686,128,0,187766:0:0:0:0:
320,192,187766,1,0,0:0:0:0:
192,192,187845,1,0,0:0:0:0:
64,192,187845,1,0,0:0:0:0:
320,192,187925,1,0,0:0:0:0:
64,192,188005,1,0,0:0:0:0:
448,192,188005,1,0,0:0:0:0:
320,192,188085,1,0,0:0:0:0:
192,192,188164,128,0,188324:0:0:0:0:
64,192,188164,128,0,188204:0:0:0:0:
320,192,188204,128,0,188244:0:0:0:0:
448,192,188284,128,0,188364:0:0:0:0:
320,192,188324,128,0,188484:0:0:0:0:
64,192,188324,128,0,188404:0:0:0:0:
192,192,188404,128,0,188444:0:0:0:0:
448,192,188484,128,0,188643:0:0:0:0:
64,192,188484,128,0,188563:0:0:0:0:
192,192,188524,128,0,188603:0:0:0:0:
320,192,188603,128,0,188683:0:0:0:0:
64,192,188643,128,0,188803:0:0:0:0:
192,192,188683,128,0,188723:0:0:0:0:
448,192,188723,128,0,188803:0:0:0:0:
192,192,188803,128,0,188962:0:0:0:0:
320,192,188803,128,0,188883:0:0:0:0:
64,192,188883,128,0,188922:0:0:0:0:
448,192,188922,128,0,188962:0:0:0:0:
320,192,188962,128,0,189162:0:0:0:0:
64,192,189002,128,0,189082:0:0:0:0:
192,192,189042,128,0,189122:0:0:0:0:
448,192,189082,128,0,189202:0:0:0:0:
320,192,189282,128,0,189641:0:0:0:0:
192,192,189282,128,0,189561:0:0:0:0:
64,192,189282,128,0,189481:0:0:0:0:
448,192,189282,128,0,189601:0:0:0:0:
64,192,189521,128,0,189561:0:0:0:0:
192,192,189601,128,0,189641:0:0:0:0:
448,192,189641,128,0,189760:0:0:0:0:
64,192,189641,128,0,189720:0:0:0:0:
320,192,189680,128,0,189720:0:0:0:0:
192,192,189760,128,0,189840:0:0:0:0:
64,192,189800,128,0,189880:0:0:0:0:
320,192,189800,128,0,189840:0:0:0:0:
448,192,189880,128,0,189960:0:0:0:0:
320,192,189920,128,0,190079:0:0:0:0:
192,192,189920,128,0,190000:0:0:0:0:
64,192,190000,128,0,190079:0:0:0:0:
448,192,190039,128,0,190119:0:0:0:0:
192,192,190079,128,0,190239:0:0:0:0:
64,192,190159,1,0,0:0:0:0:
320,192,190199,128,0,190279:0:0:0:0:
448,192,190199,1,0,0:0:0:0:
64,192,190239,128,0,190399:0:0:0:0:
448,192,190279,128,0,190359:0:0:0:0:
192,192,190359,128,0,190438:0:0:0:0:
320,192,190399,128,0,190598:0:0:0:0:
448,192,190438,128,0,190518:0:0:0:0:
192,192,190478,128,0,190558:0:0:0:0:
64,192,190558,128,0,190598:0:0:0:0:
448,192,190598,128,0,190638:0:0:0:0:
320,192,190678,128,0,190718:0:0:0:0:
64,192,190718,128,0,190877:0:0:0:0:
192,192,190718,128,0,190797:0:0:0:0:
448,192,190758,128,0,190797:0:0:0:0:
320,192,190797,128,0,190957:0:0:0:0:
448,192,190877,128,0,191037:0:0:0:0:
192,192,190877,128,0,190957:0:0:0:0:
64,192,190957,128,0,191117:0:0:0:0:
192,192,191037,128,0,191196:0:0:0:0:
320,192,191037,128,0,191117:0:0:0:0:
448,192,191117,128,0,191276:0:0:0:0:
320,192,191196,128,0,191356:0:0:0:0:
64,192,191196,128,0,191276:0:0:0:0:
192,192,191276,128,0,191436:0:0:0:0:
64,192,191356,128,0,191436:0:0:0:0:
448,192,191356,128,0,191595:0:0:0:0:
320,192,191436,128,0,191516:0:0:0:0:
192,192,191516,128,0,191755:0:0:0:0:
64,192,191516,128,0,191595:0:0:0:0:
320,192,191595,128,0,191675:0:0:0:0:
64,192,191675,128,0,191755:0:0:0:0:
448,192,191675,128,0,191914:0:0:0:0:
320,192,191755,128,0,191835:0:0:0:0:
192,192,191835,128,0,191914:0:0:0:0:
64,192,191835,128,0,192074:0:0:0:0:
320,192,191914,128,0,191994:0:0:0:0:
192,192,191994,128,0,192074:0:0:0:0:
448,192,191994,128,0,192154:0:0:0:0:
320,192,192074,128,0,192234:0:0:0:0:
192,192,192154,128,0,192313:0:0:0:0:
64,192,192154,128,0,192234:0:0:0:0:
448,192,192234,128,0,192393:0:0:0:0:
320,192,192313,128,0,192393:0:0:0:0:
64,192,192313,128,0,192553:0:0:0:0:
192,192,192393,128,0,192473:0:0:0:0:
320,192,192473,128,0,192553:0:0:0:0:
448,192,192473,128,0,192633:0:0:0:0:
192,192,192553,128,0,192712:0:0:0:0:
64,192,192633,128,0,192792:0:0:0:0:
320,192,192633,128,0,192712:0:0:0:0:
448,192,192712,128,0,192872:0:0:0:0:
192,192,192792,128,0,192872:0:0:0:0:
320,192,192792,128,0,192952:0:0:0:0:
64,192,192872,128,0,193032:0:0:0:0:
192,192,192952,128,0,193032:0:0:0:0:
448,192,192952,128,0,193191:0:0:0:0:
320,192,193032,128,0,193111:0:0:0:0:
192,192,193111,128,0,193191:0:0:0:0:
64,192,193111,128,0,193271:0:0:0:0:
320,192,193191,128,0,193351:0:0:0:0:
192,192,193271,128,0,193351:0:0:0:0:
448,192,193271,128,0,193430:0:0:0:0:
64,192,193351,128,0,193510:0:0:0:0:
192,192,193430,128,0,193590:0:0:0:0:
320,192,193430,128,0,193510:0:0:0:0:
448,192,193510,128,0,193670:0:0:0:0:
320,192,193590,128,0,193670:0:0:0:0:
64,192,193590,128,0,193750:0:0:0:0:
192,192,193670,128,0,193829:0:0:0:0:
320,192,193750,128,0,193829:0:0:0:0:
448,192,193750,128,0,193909:0:0:0:0:
64,192,193829,128,0,193989:0:0:0:0:
192,192,193909,128,0,194069:0:0:0:0:
320,192,193909,128,0,193989:0:0:0:0:
448,192,193989,128,0,194149:0:0:0:0:
320,192,194069,128,0,194149:0:0:0:0:
64,192,194069,128,0,194149:0:0:0:0:
192,192,194149,128,0,194228:0:0:0:0:
320,192,194228,128,0,194547:0:0:0:0:
448,192,194228,128,0,194587:0:0:0:0:
64,192,194282,1,0,0:0:0:0:
192,192,194335,1,0,0:0:0:0:
64,192,194388,1,0,0:0:0:0:
192,192,194441,1,0,0:0:0:0:
64,192,194494,1,0,0:0:0:0:
192,192,194547,128,0,194627:0:0:0:0:
64,192,194627,128,0,194946:0:0:0:0:
320,192,194627,128,0,194707:0:0:0:0:
448,192,194667,128,0,194787:0:0:0:0:
192,192,194707,128,0,194867:0:0:0:0:
320,192,194787,128,0,194907:0:0:0:0:
448,192,194867,128,0,194986:0:0:0:0:
320,192,194946,128,0,195066:0:0:0:0:
192,192,194986,128,0,195026:0:0:0:0:
64,192,195026,128,0,195106:0:0:0:0:
448,192,195066,128,0,195146:0:0:0:0:
192,192,195106,128,0,195266:0:0:0:0:
320,192,195106,128,0,195186:0:0:0:0:
64,192,195186,128,0,195226:0:0:0:0:
320,192,195266,128,0,195305:0:0:0:0:
64,192,195345,128,0,195505:0:0:0:0:
448,192,195345,128,0,195385:0:0:0:0:
192,192,195345,128,0,195425:0:0:0:0:
320,192,195385,128,0,195465:0:0:0:0:
448,192,195465,128,0,195545:0:0:0:0:
192,192,195505,128,0,195625:0:0:0:0:
320,192,195545,128,0,195585:0:0:0:0:
64,192,195585,128,0,195664:0:0:0:0:
448,192,195625,128,0,195704:0:0:0:0:
192,192,195664,128,0,195744:0:0:0:0:
320,192,195704,128,0,195784:0:0:0:0:
448,192,195784,128,0,195864:0:0:0:0:
64,192,195824,128,0,195944:0:0:0:0:
192,192,195864,128,0,195984:0:0:0:0:
320,192,195904,128,0,196024:0:0:0:0:
448,192,195944,128,0,196063:0:0:0:0:
192,192,196024,128,0,196143:0:0:0:0:
64,192,196063,128,0,196183:0:0:0:0:
448,192,196103,128,0,196223:0:0:0:0:
320,192,196143,128,0,196263:0:0:0:0:
64,192,196223,128,0,196343:0:0:0:0:
192,192,196263,128,0,196383:0:0:0:0:
320,192,196303,128,0,196422:0:0:0:0:
448,192,196343,128,0,196462:0:0:0:0:
64,192,196422,128,0,196542:0:0:0:0:
192,192,196462,128,0,196582:0:0:0:0:
448,192,196502,128,0,196622:0:0:0:0:
320,192,196542,128,0,196662:0:0:0:0:
192,192,196622,128,0,196742:0:0:0:0:
64,192,196662,128,0,196782:0:0:0:0:
320,192,196702,128,0,196821:0:0:0:0:
448,192,196742,128,0,196861:0:0:0:0:
64,192,196821,128,0,196941:0:0:0:0:
192,192,196861,128,0,196981:0:0:0:0:
448,192,196901,128,0,197021:0:0:0:0:
320,192,196941,128,0,197061:0:0:0:0:
192,192,197021,128,0,197141:0:0:0:0:
64,192,197061,128,0,197180:0:0:0:0:
448,192,197061,128,0,197180:0:0:0:0:
192,192,197180,128,0,197300:0:0:0:0:
320,192,197220,128,0,197340:0:0:0:0:
448,192,197260,128,0,197380:0:0:0:0:
192,192,197340,128,0,197460:0:0:0:0:
64,192,197380,128,0,197500:0:0:0:0:
448,192,197420,128,0,197539:0:0:0:0:
320,192,197460,128,0,197579:0:0:0:0:
192,192,197539,128,0,197659:0:0:0:0:
64,192,197579,128,0,197699:0:0:0:0:
320,192,197619,128,0,197739:0:0:0:0:
448,192,197659,128,0,197779:0:0:0:0:
192,192,197699,128,0,197819:0:0:0:0:
64,192,197739,128,0,197859:0:0:0:0:
448,192,197819,128,0,197938:0:0:0:0:
320,192,197859,128,0,197978:0:0:0:0:
192,192,197899,128,0,198018:0:0:0:0:
64,192,197978,128,0,198098:0:0:0:0:
448,192,197978,128,0,198058:0:0:0:0:
192,192,198058,128,0,198178:0:0:0:0:
320,192,198098,128,0,198218:0:0:0:0:
448,192,198138,128,0,198258:0:0:0:0:
192,192,198271,128,0,198377:0:0:0:0:
64,192,198324,128,0,198377:0:0:0:0:
320,192,198377,128,0,198430:0:0:0:0:
448,192,198430,128,0,198484:0:0:0:0:
64,192,198457,128,0,198577:0:0:0:0:
192,192,198497,128,0,198537:0:0:0:0:
320,192,198537,128,0,198617:0:0:0:0:
448,192,198617,128,0,198696:0:0:0:0:
192,192,198657,128,0,198736:0:0:0:0:
64,192,198657,128,0,198696:0:0:0:0:
320,192,198696,128,0,198816:0:0:0:0:
448,192,198776,128,0,198856:0:0:0:0:
64,192,198776,128,0,198816:0:0:0:0:
192,192,198816,128,0,198896:0:0:0:0:
320,192,198896,128,0,198976:0:0:0:0:
64,192,198896,1,0,0:0:0:0:
448,192,198936,128,0,199016:0:0:0:0:
64,192,198976,128,0,199055:0:0:0:0:
192,192,199016,128,0,199135:0:0:0:0:
320,192,199055,128,0,199095:0:0:0:0:
448,192,199095,128,0,199175:0:0:0:0:
64,192,199135,128,0,199175:0:0:0:0:
320,192,199175,128,0,199255:0:0:0:0:
192,192,199215,128,0,199295:0:0:0:0:
64,192,199255,128,0,199335:0:0:0:0:
320,192,199335,128,0,200851:0:0:0:0:
448,192,199335,128,0,200851:0:0:0:0:
192,192,200930,128,0,202207:0:0:0:0:
64,192,200930,128,0,202207:0:0:0:0:
320,192,200930,1,0,0:0:0:0:
448,192,200930,1,0,0:0:0:0:
320,192,202207,1,0,0:0:0:0:
448,192,202207,1,0,0:0:0:0:
320,192,202367,1,0,0:0:0:0:
448,192,202367,1,0,0:0:0:0:
320,192,203005,1,0,0:0:0:0:
448,192,203005,1,0,0:0:0:0:
192,192,203085,1,0,0:0:0:0:
64,192,203085,1,0,0:0:0:0:
320,192,203164,128,0,203404:0:0:0:0:
448,192,203164,128,0,203404:0:0:0:0:
64,192,203484,128,0,204361:0:0:0:0:
192,192,203484,128,0,204361:0:0:0:0:
320,192,203484,128,0,203883:0:0:0:0:
448,192,203484,128,0,203883:0:0:0:0:
320,192,203962,1,0,0:0:0:0:
448,192,203962,1,0,0:0:0:0:
320,192,204122,1,0,0:0:0:0:
448,192,204122,1,0,0:0:0:0:
320,192,204282,1,0,0:0:0:0:
448,192,204282,1,0,0:0:0:0:
192,192,204441,1,0,0:0:0:0:
64,192,204441,1,0,0:0:0:0:
192,192,204601,1,0,0:0:0:0:
64,192,204601,1,0,0:0:0:0:
192,192,204760,1,0,0:0:0:0:
320,192,204760,1,0,0:0:0:0:
448,192,204920,1,0,0:0:0:0:
320,192,204920,1,0,0:0:0:0:
320,192,205079,1,0,0:0:0:0:
192,192,205079,1,0,0:0:0:0:
64,192,205239,1,0,0:0:0:0:
192,192,205239,1,0,0:0:0:0:
192,192,205399,128,0,205718:0:0:0:0:
320,192,205718,128,0,205957:0:0:0:0:
192,192,206037,128,0,206196:0:0:0:0:
64,192,206037,128,0,206117:0:0:0:0:
448,192,206037,1,0,0:0:0:0:
320,192,206117,128,0,206157:0:0:0:0:
448,192,206157,128,0,206236:0:0:0:0:
64,192,206196,128,0,206276:0:0:0:0:
320,192,206236,128,0,206276:0:0:0:0:
192,192,206276,128,0,206356:0:0:0:0:
448,192,206316,128,0,206396:0:0:0:0:
320,192,206356,128,0,206516:0:0:0:0:
64,192,206356,128,0,206436:0:0:0:0:
448,192,206476,128,0,206516:0:0:0:0:
192,192,206516,128,0,206675:0:0:0:0:
64,192,206516,128,0,206595:0:0:0:0:
448,192,206595,128,0,206715:0:0:0:0:
320,192,206635,128,0,206675:0:0:0:0:
64,192,206675,128,0,206835:0:0:0:0:
192,192,206715,128,0,206755:0:0:0:0:
448,192,206795,128,0,206835:0:0:0:0:
320,192,206835,128,0,207154:0:0:0:0:
192,192,206875,128,0,206954:0:0:0:0:
64,192,206914,128,0,206994:0:0:0:0:
448,192,206954,128,0,207034:0:0:0:0:
192,192,207034,128,0,207074:0:0:0:0:
64,192,207114,128,0,207194:0:0:0:0:
448,192,207114,128,0,207154:0:0:0:0:
192,192,207154,128,0,207274:0:0:0:0:
320,192,207234,128,0,207313:0:0:0:0:
448,192,207274,128,0,207393:0:0:0:0:
64,192,207274,128,0,207353:0:0:0:0:
320,192,207353,128,0,207433:0:0:0:0:
192,192,207393,128,0,207473:0:0:0:0:
64,192,207433,128,0,207553:0:0:0:0:
448,192,207473,128,0,207593:0:0:0:0:
320,192,207513,128,0,207553:0:0:0:0:
192,192,207593,128,0,207672:0:0:0:0:
320,192,207633,128,0,207792:0:0:0:0:
64,192,207633,128,0,207712:0:0:0:0:
448,192,207752,128,0,207792:0:0:0:0:
192,192,207792,128,0,208071:0:0:0:0:
64,192,207792,128,0,207872:0:0:0:0:
320,192,207872,128,0,207952:0:0:0:0:
448,192,207912,128,0,207992:0:0:0:0:
64,192,207952,128,0,207992:0:0:0:0:
320,192,208032,128,0,208111:0:0:0:0:
448,192,208071,128,0,208151:0:0:0:0:
64,192,208111,128,0,208191:0:0:0:0:
320,192,208151,128,0,208231:0:0:0:0:
192,192,208231,128,0,208271:0:0:0:0:
448,192,208271,128,0,208470:0:0:0:0:
64,192,208311,128,0,208351:0:0:0:0:
320,192,208351,128,0,208430:0:0:0:0:
192,192,208391,128,0,208470:0:0:0:0:
64,192,208470,128,0,208510:0:0:0:0:
192,192,208510,128,0,208590:0:0:0:0:
320,192,208550,128,0,208670:0:0:0:0:
64,192,208590,128,0,208789:0:0:0:0:
448,192,208630,128,0,208670:0:0:0:0:
192,192,208670,128,0,208750:0:0:0:0:
320,192,208710,128,0,208750:0:0:0:0:
192,192,208789,128,0,208829:0:0:0:0:
448,192,208789,128,0,208869:0:0:0:0:
320,192,208829,128,0,208909:0:0:0:0:
64,192,208869,128,0,208949:0:0:0:0:
192,192,208909,128,0,209069:0:0:0:0:
448,192,208949,128,0,209029:0:0:0:0:
320,192,208989,1,0,0:0:0:0:
64,192,209029,128,0,209109:0:0:0:0:
320,192,209069,128,0,209228:0:0:0:0:
448,192,209109,128,0,209149:0:0:0:0:
192,192,209149,128,0,209188:0:0:0:0:
64,192,209188,128,0,209268:0:0:0:0:
448,192,209228,128,0,209268:0:0:0:0:
192,192,209268,128,0,209348:0:0:0:0:
320,192,209308,128,0,209348:0:0:0:0:
64,192,209348,128,0,209428:0:0:0:0:
448,192,209348,128,0,209388:0:0:0:0:
320,192,209428,128,0,209468:0:0:0:0:
192,192,209468,128,0,209547:0:0:0:0:
64,192,209547,128,0,209787:0:0:0:0:
320,192,209547,128,0,209587:0:0:0:0:
448,192,209547,128,0,209587:0:0:0:0:
448,192,209707,128,0,209787:0:0:0:0:
320,192,209707,128,0,209787:0:0:0:0:
192,192,209707,128,0,209787:0:0:0:0:
192,192,209867,128,0,210106:0:0:0:0:
64,192,209867,128,0,209907:0:0:0:0:
320,192,209867,128,0,209907:0:0:0:0:
448,192,209867,128,0,209907:0:0:0:0:
448,192,210026,128,0,210106:0:0:0:0:
320,192,210026,128,0,210106:0:0:0:0:
64,192,210026,128,0,210106:0:0:0:0:
320,192,210186,128,0,210425:0:0:0:0:
64,192,210186,128,0,210226:0:0:0:0:
192,192,210186,128,0,210226:0:0:0:0:
448,192,210186,128,0,210226:0:0:0:0:
192,192,210345,128,0,210425:0:0:0:0:
448,192,210345,128,0,210425:0:0:0:0:
64,192,210345,128,0,210425:0:0:0:0:
448,192,210505,128,0,210664:0:0:0:0:
64,192,210505,128,0,210545:0:0:0:0:
192,192,210505,128,0,210545:0:0:0:0:
320,192,210505,128,0,210545:0:0:0:0:
192,192,210664,128,0,210704:0:0:0:0:
64,192,210664,128,0,210744:0:0:0:0:
320,192,210744,1,0,0:0:0:0:
448,192,210744,1,0,0:0:0:0:
192,192,210824,1,0,0:0:0:0:
64,192,210824,1,0,0:0:0:0:
320,192,210904,1,0,0:0:0:0:
448,192,210904,1,0,0:0:0:0:
192,192,210984,1,0,0:0:0:0:
64,192,210984,1,0,0:0:0:0:
320,192,211063,1,0,0:0:0:0:
448,192,211063,1,0,0:0:0:0:
192,192,211143,128,0,211303:0:0:0:0:
64,192,211143,128,0,211223:0:0:0:0:
448,192,211183,1,0,0:0:0:0:
320,192,211223,1,0,0:0:0:0:
320,192,211303,128,0,211383:0:0:0:0:
448,192,211343,128,0,211462:0:0:0:0:
64,192,211343,128,0,211383:0:0:0:0:
320,192,211462,128,0,211622:0:0:0:0:
192,192,211462,128,0,211542:0:0:0:0:
64,192,211462,128,0,211502:0:0:0:0:
64,192,211582,128,0,211662:0:0:0:0:
448,192,211622,128,0,211742:0:0:0:0:
192,192,211622,128,0,211742:0:0:0:0:
320,192,211702,128,0,211821:0:0:0:0:
64,192,211742,128,0,211782:0:0:0:0:
192,192,211821,128,0,211901:0:0:0:0:
448,192,211821,1,0,0:0:0:0:
64,192,211861,128,0,211981:0:0:0:0:
448,192,211901,128,0,212180:0:0:0:0:
320,192,211941,128,0,212141:0:0:0:0:
192,192,211981,128,0,212061:0:0:0:0:
64,192,212101,128,0,212180:0:0:0:0:
192,192,212141,128,0,212260:0:0:0:0:
320,192,212220,128,0,212340:0:0:0:0:
448,192,212260,128,0,212420:0:0:0:0:
64,192,212300,128,0,212420:0:0:0:0:
192,192,212380,128,0,212500:0:0:0:0:
320,192,212420,128,0,212579:0:0:0:0:
64,192,212500,128,0,212619:0:0:0:0:
448,192,212539,128,0,212659:0:0:0:0:
192,192,212579,128,0,212659:0:0:0:0:
320,192,212659,128,0,212739:0:0:0:0:
64,192,212739,128,0,212819:0:0:0:0:
192,192,212739,128,0,213058:0:0:0:0:
448,192,212779,128,0,212899:0:0:0:0:
320,192,212859,128,0,212938:0:0:0:0:
64,192,212899,128,0,212978:0:0:0:0:
448,192,213018,128,0,213098:0:0:0:0:
320,192,213058,128,0,213218:0:0:0:0:
64,192,213058,128,0,213138:0:0:0:0:
192,192,213178,128,0,213297:0:0:0:0:
448,192,213218,128,0,213537:0:0:0:0:
64,192,213258,128,0,213297:0:0:0:0:
320,192,213337,128,0,213417:0:0:0:0:
192,192,213417,128,0,213457:0:0:0:0:
64,192,213457,128,0,213497:0:0:0:0:
320,192,213497,128,0,213577:0:0:0:0:
192,192,213577,128,0,213617:0:0:0:0:
64,192,213617,128,0,213657:0:0:0:0:
320,192,213696,128,0,214016:0:0:0:0:
192,192,213696,128,0,213776:0:0:0:0:
448,192,213776,128,0,213896:0:0:0:0:
64,192,213776,128,0,213816:0:0:0:0:
192,192,213856,128,0,213896:0:0:0:0:
64,192,213936,128,0,214016:0:0:0:0:
448,192,213976,128,0,214016:0:0:0:0:
192,192,214016,128,0,214175:0:0:0:0:
64,192,214095,1,0,0:0:0:0:
448,192,214135,128,0,214175:0:0:0:0:
64,192,214175,128,0,214414:0:0:0:0:
320,192,214215,128,0,214255:0:0:0:0:
192,192,214295,128,0,214335:0:0:0:0:
320,192,214375,128,0,214414:0:0:0:0:
448,192,214375,128,0,214454:0:0:0:0:
192,192,214494,128,0,214654:0:0:0:0:
64,192,214494,128,0,214574:0:0:0:0:
448,192,214534,128,0,214574:0:0:0:0:
320,192,214574,128,0,214614:0:0:0:0:
64,192,214654,128,0,214774:0:0:0:0:
448,192,214654,128,0,214774:0:0:0:0:
320,192,214734,128,0,214813:0:0:0:0:
192,192,214774,128,0,214853:0:0:0:0:
448,192,214853,128,0,214893:0:0:0:0:
64,192,214853,128,0,214893:0:0:0:0:
320,192,214893,128,0,214933:0:0:0:0:
192,192,214933,128,0,214973:0:0:0:0:
64,192,214973,128,0,215013:0:0:0:0:
448,192,214973,128,0,215053:0:0:0:0:
320,192,215013,128,0,215133:0:0:0:0:
192,192,215053,128,0,215172:0:0:0:0:
64,192,215093,128,0,215252:0:0:0:0:
448,192,215212,128,0,215372:0:0:0:0:
320,192,215252,128,0,215332:0:0:0:0:
192,192,215332,128,0,215372:0:0:0:0:
64,192,215412,128,0,215452:0:0:0:0:
320,192,215452,128,0,215611:0:0:0:0:
192,192,215492,128,0,215532:0:0:0:0:
448,192,215532,128,0,215691:0:0:0:0:
192,192,215611,128,0,215851:0:0:0:0:
64,192,215611,128,0,215731:0:0:0:0:
320,192,215691,128,0,215731:0:0:0:0:
448,192,215771,128,0,215811:0:0:0:0:
64,192,215851,128,0,216010:0:0:0:0:
320,192,215851,128,0,215930:0:0:0:0:
192,192,215930,128,0,216050:0:0:0:0:
448,192,215930,128,0,216050:0:0:0:0:
320,192,216010,128,0,216170:0:0:0:0:
64,192,216090,128,0,216170:0:0:0:0:
448,192,216130,128,0,216210:0:0:0:0:
192,192,216170,128,0,216409:0:0:0:0:
320,192,216250,128,0,216329:0:0:0:0:
64,192,216289,128,0,216329:0:0:0:0:
448,192,216369,128,0,216489:0:0:0:0:
64,192,216409,128,0,216489:0:0:0:0:
320,192,216449,128,0,216569:0:0:0:0:
192,192,216529,128,0,216649:0:0:0:0:
448,192,216569,128,0,216728:0:0:0:0:
64,192,216609,128,0,216728:0:0:0:0:
320,192,216728,128,0,216928:0:0:0:0:
192,192,216728,128,0,216808:0:0:0:0:
64,192,216808,128,0,216888:0:0:0:0:
448,192,216848,128,0,216928:0:0:0:0:
192,192,216888,128,0,216968:0:0:0:0:
64,192,216968,128,0,217087:0:0:0:0:
448,192,217008,128,0,217127:0:0:0:0:
320,192,217008,128,0,217047:0:0:0:0:
192,192,217047,128,0,217087:0:0:0:0:
320,192,217127,128,0,217207:0:0:0:0:
192,192,217167,128,0,217287:0:0:0:0:
64,192,217207,128,0,217367:0:0:0:0:
448,192,217247,128,0,217367:0:0:0:0:
320,192,217287,128,0,217327:0:0:0:0:
192,192,217367,128,0,217566:0:0:0:0:
320,192,217407,128,0,217486:0:0:0:0:
64,192,217446,128,0,217646:0:0:0:0:
448,192,217446,1,0,0:0:0:0:
448,192,217526,128,0,217646:0:0:0:0:
320,192,217606,128,0,217726:0:0:0:0:
192,192,217686,128,0,217845:0:0:0:0:
64,192,217726,128,0,217805:0:0:0:0:
448,192,217766,128,0,217965:0:0:0:0:
320,192,217805,128,0,217885:0:0:0:0:
64,192,217925,1,0,0:0:0:0:
192,192,217925,128,0,218005:0:0:0:0:
320,192,217965,128,0,218085:0:0:0:0:
64,192,218005,128,0,218164:0:0:0:0:
448,192,218045,128,0,218204:0:0:0:0:
192,192,218085,128,0,218164:0:0:0:0:
320,192,218164,128,0,218284:0:0:0:0:
192,192,218244,128,0,218364:0:0:0:0:
64,192,218324,128,0,218484:0:0:0:0:
448,192,218324,128,0,218444:0:0:0:0:
320,192,218404,128,0,218524:0:0:0:0:
192,192,218484,128,0,218603:0:0:0:0:
64,192,218563,128,0,218683:0:0:0:0:
448,192,218563,128,0,218603:0:0:0:0:
320,192,218643,128,0,218803:0:0:0:0:
192,192,218683,128,0,218723:0:0:0:0:
448,192,218723,128,0,218843:0:0:0:0:
64,192,218763,128,0,218803:0:0:0:0:
192,192,218803,128,0,218922:0:0:0:0:
320,192,218883,128,0,219002:0:0:0:0:
64,192,218883,128,0,219002:0:0:0:0:
448,192,218962,128,0,219082:0:0:0:0:
192,192,219002,128,0,219122:0:0:0:0:
320,192,219082,128,0,219202:0:0:0:0:
64,192,219122,128,0,219242:0:0:0:0:
448,192,219162,128,0,219242:0:0:0:0:
192,192,219202,128,0,219282:0:0:0:0:
320,192,219282,128,0,219401:0:0:0:0:
448,192,219321,128,0,219361:0:0:0:0:
64,192,219361,128,0,219481:0:0:0:0:
192,192,219401,128,0,219561:0:0:0:0:
448,192,219441,128,0,219561:0:0:0:0:
320,192,219481,128,0,219521:0:0:0:0:
64,192,219561,128,0,219641:0:0:0:0:
320,192,219601,128,0,219760:0:0:0:0:
448,192,219641,128,0,219680:0:0:0:0:
64,192,219720,128,0,219800:0:0:0:0:
192,192,219760,128,0,220000:0:0:0:0:
320,192,219840,128,0,219920:0:0:0:0:
64,192,219880,1,0,0:0:0:0:
448,192,219920,128,0,220000:0:0:0:0:
64,192,220000,128,0,220079:0:0:0:0:
320,192,220079,128,0,220199:0:0:0:0:
448,192,220119,128,0,220159:0:0:0:0:
192,192,220159,128,0,220399:0:0:0:0:
64,192,220239,128,0,220319:0:0:0:0:
448,192,220239,1,0,0:0:0:0:
320,192,220279,128,0,220478:0:0:0:0:
448,192,220359,128,0,220558:0:0:0:0:
64,192,220399,128,0,220518:0:0:0:0:
192,192,220478,128,0,220598:0:0:0:0:
64,192,220598,128,0,220638:0:0:0:0:
320,192,220638,128,0,220877:0:0:0:0:
448,192,220638,128,0,220678:0:0:0:0:
192,192,220718,128,0,220797:0:0:0:0:
64,192,220758,128,0,220797:0:0:0:0:
192,192,220877,1,0,0:0:0:0:
64,192,220877,1,0,0:0:0:0:
320,192,220957,1,0,0:0:0:0:
448,192,220957,1,0,0:0:0:0:
192,192,221037,1,0,0:0:0:0:
64,192,221037,1,0,0:0:0:0:
320,192,221117,1,0,0:0:0:0:
448,192,221117,1,0,0:0:0:0:
192,192,221196,1,0,0:0:0:0:
64,192,221196,1,0,0:0:0:0:
320,192,221276,1,0,0:0:0:0:
448,192,221276,1,0,0:0:0:0:
64,192,221356,128,0,221595:0:0:0:0:
192,192,221356,128,0,221396:0:0:0:0:
320,192,221356,128,0,221396:0:0:0:0:
448,192,221356,128,0,221396:0:0:0:0:
448,192,221516,128,0,221595:0:0:0:0:
320,192,221516,128,0,221595:0:0:0:0:
192,192,221516,128,0,221595:0:0:0:0:
320,192,221675,1,0,0:0:0:0:
448,192,221675,1,0,0:0:0:0:
192,192,221835,128,0,222074:0:0:0:0:
64,192,221835,128,0,221875:0:0:0:0:
320,192,221835,128,0,221875:0:0:0:0:
448,192,221835,128,0,221875:0:0:0:0:
64,192,221994,128,0,222074:0:0:0:0:
448,192,221994,128,0,222074:0:0:0:0:
320,192,221994,128,0,222074:0:0:0:0:
192,192,222154,1,0,0:0:0:0:
320,192,222154,1,0,0:0:0:0:
320,192,222313,128,0,222553:0:0:0:0:
192,192,222313,128,0,222353:0:0:0:0:
64,192,222313,128,0,222353:0:0:0:0:
448,192,222313,128,0,222353:0:0:0:0:
192,192,222473,128,0,222553:0:0:0:0:
64,192,222473,128,0,222553:0:0:0:0:
448,192,222473,128,0,222553:0:0:0:0:
192,192,222633,1,0,0:0:0:0:
448,192,222633,1,0,0:0:0:0:
448,192,222792,128,0,223032:0:0:0:0:
64,192,222792,128,0,222832:0:0:0:0:
192,192,222792,128,0,222832:0:0:0:0:
320,192,222792,128,0,222832:0:0:0:0:
64,192,222952,128,0,223032:0:0:0:0:
192,192,222952,128,0,223032:0:0:0:0:
320,192,222952,128,0,223032:0:0:0:0:
64,192,223111,1,0,0:0:0:0:
192,192,223111,1,0,0:0:0:0:
64,192,223271,128,0,223537:0:0:0:0:
192,192,223271,128,0,223537:0:0:0:0:
320,192,223271,128,0,223537:0:0:0:0:
448,192,223271,128,0,223537:0:0:0:0:
192,192,223590,128,0,223856:0:0:0:0:
64,192,223590,128,0,223856:0:0:0:0:
320,192,223590,128,0,223856:0:0:0:0:
448,192,223590,128,0,223856:0:0:0:0:
64,192,223909,128,0,224149:0:0:0:0:
192,192,223909,128,0,223949:0:0:0:0:
320,192,223909,128,0,223949:0:0:0:0:
448,192,223909,128,0,223949:0:0:0:0:
448,192,224069,128,0,224149:0:0:0:0:
320,192,224069,128,0,224149:0:0:0:0:
192,192,224069,128,0,224149:0:0:0:0:
320,192,224228,1,0,0:0:0:0:
192,192,224228,1,0,0:0:0:0:
192,192,224388,128,0,224627:0:0:0:0:
64,192,224388,128,0,224428:0:0:0:0:
320,192,224388,128,0,224428:0:0:0:0:
448,192,224388,128,0,224428:0:0:0:0:
64,192,224547,128,0,224627:0:0:0:0:
448,192,224547,128,0,224627:0:0:0:0:
320,192,224547,128,0,224627:0:0:0:0:
320,192,224707,1,0,0:0:0:0:
448,192,224707,1,0,0:0:0:0:
320,192,224867,128,0,225106:0:0:0:0:
192,192,224867,128,0,224907:0:0:0:0:
64,192,224867,128,0,224907:0:0:0:0:
448,192,224867,128,0,224907:0:0:0:0:
192,192,225026,128,0,225106:0:0:0:0:
64,192,225026,128,0,225106:0:0:0:0:
448,192,225026,128,0,225106:0:0:0:0:
64,192,225186,1,0,0:0:0:0:
320,192,225186,1,0,0:0:0:0:
448,192,225345,128,0,225585:0:0:0:0:
64,192,225345,128,0,225385:0:0:0:0:
192,192,225345,128,0,225385:0:0:0:0:
320,192,225345,128,0,225385:0:0:0:0:
64,192,225505,128,0,225585:0:0:0:0:
192,192,225505,128,0,225585:0:0:0:0:
320,192,225505,128,0,225585:0:0:0:0:
320,192,225664,128,0,225904:0:0:0:0:
448,192,225664,128,0,225704:0:0:0:0:
64,192,225664,128,0,225704:0:0:0:0:
192,192,225664,128,0,225704:0:0:0:0:
64,192,225824,128,0,225904:0:0:0:0:
448,192,225824,128,0,225904:0:0:0:0:
192,192,225824,128,0,225904:0:0:0:0:
64,192,225984,1,0,0:0:0:0:
448,192,225984,1,0,0:0:0:0:
448,192,226143,128,0,226409:0:0:0:0:
64,192,226143,128,0,226409:0:0:0:0:
192,192,226143,128,0,226409:0:0:0:0:
320,192,226143,128,0,226409:0:0:0:0:
448,192,226462,128,0,226702:0:0:0:0:
64,192,226462,128,0,226502:0:0:0:0:
192,192,226462,128,0,226502:0:0:0:0:
320,192,226462,128,0,226502:0:0:0:0:
192,192,226622,128,0,226702:0:0:0:0:
64,192,226622,128,0,226702:0:0:0:0:
320,192,226622,128,0,226702:0:0:0:0:
320,192,226782,128,0,227021:0:0:0:0:
64,192,226782,128,0,226821:0:0:0:0:
192,192,226782,128,0,226821:0:0:0:0:
448,192,226782,128,0,226821:0:0:0:0:
192,192,226941,128,0,227021:0:0:0:0:
64,192,226941,128,0,227021:0:0:0:0:
448,192,226941,128,0,227021:0:0:0:0:
192,192,227101,128,0,227340:0:0:0:0:
64,192,227101,128,0,227141:0:0:0:0:
320,192,227101,128,0,227141:0:0:0:0:
448,192,227101,128,0,227141:0:0:0:0:
64,192,227260,128,0,227340:0:0:0:0:
320,192,227260,128,0,227340:0:0:0:0:
448,192,227260,128,0,227340:0:0:0:0:
64,192,227420,128,0,227659:0:0:0:0:
192,192,227420,128,0,227460:0:0:0:0:
320,192,227420,128,0,227460:0:0:0:0:
448,192,227420,128,0,227460:0:0:0:0:
192,192,227579,128,0,227659:0:0:0:0:
320,192,227579,128,0,227659:0:0:0:0:
448,192,227579,128,0,227659:0:0:0:0:
192,192,227739,128,0,227978:0:0:0:0:
64,192,227739,128,0,227779:0:0:0:0:
320,192,227739,128,0,227779:0:0:0:0:
448,192,227739,128,0,227779:0:0:0:0:
64,192,227899,128,0,227978:0:0:0:0:
320,192,227899,128,0,227978:0:0:0:0:
448,192,227899,128,0,227978:0:0:0:0:
320,192,228058,128,0,228297:0:0:0:0:
64,192,228058,128,0,228098:0:0:0:0:
192,192,228058,128,0,228098:0:0:0:0:
448,192,228058,128,0,228098:0:0:0:0:
64,192,228218,128,0,228297:0:0:0:0:
192,192,228218,128,0,228297:0:0:0:0:
448,192,228218,128,0,228297:0:0:0:0:
320,192,228377,128,0,228643:0:0:0:0:
192,192,228377,128,0,228643:0:0:0:0:
64,192,228377,128,0,228643:0:0:0:0:
448,192,228377,128,0,228643:0:0:0:0:
192,192,228696,128,0,228962:0:0:0:0:
320,192,228696,128,0,228962:0:0:0:0:
448,192,228696,128,0,228962:0:0:0:0:
64,192,228696,128,0,228962:0:0:0:0:
320,192,229016,128,0,229095:0:0:0:0:
448,192,229016,128,0,229175:0:0:0:0:
64,192,229016,128,0,229095:0:0:0:0:
192,192,229095,128,0,229255:0:0:0:0:
64,192,229175,128,0,229335:0:0:0:0:
320,192,229175,128,0,229255:0:0:0:0:
448,192,229255,128,0,229414:0:0:0:0:
320,192,229335,128,0,229494:0:0:0:0:
192,192,229335,128,0,229414:0:0:0:0:
64,192,229414,128,0,229574:0:0:0:0:
192,192,229494,128,0,229574:0:0:0:0:
448,192,229494,128,0,229734:0:0:0:0:
320,192,229574,128,0,229654:0:0:0:0:
192,192,229654,128,0,229893:0:0:0:0:
64,192,229654,128,0,229734:0:0:0:0:
320,192,229734,128,0,229813:0:0:0:0:
448,192,229813,128,0,229893:0:0:0:0:
64,192,229813,128,0,230053:0:0:0:0:
320,192,229893,128,0,229973:0:0:0:0:
192,192,229973,128,0,230053:0:0:0:0:
448,192,229973,128,0,230053:0:0:0:0:
320,192,230053,128,0,230133:0:0:0:0:
192,192,230133,128,0,230292:0:0:0:0:
64,192,230133,128,0,230292:0:0:0:0:
448,192,230133,128,0,230292:0:0:0:0:
320,192,230212,128,0,230292:0:0:0:0:
448,192,231090,1,0,0:0:0:0:
320,192,231130,1,0,0:0:0:0:
192,192,231170,1,0,0:0:0:0:
64,192,231210,1,0,0:0:0:0:
448,192,231250,1,0,0:0:0:0:
320,192,231289,1,0,0:0:0:0:
192,192,231329,1,0,0:0:0:0:
64,192,231369,1,0,0:0:0:0:
448,192,231409,1,0,0:0:0:0:
320,192,231449,1,0,0:0:0:0:
192,192,231489,1,0,0:0:0:0:
64,192,231529,1,0,0:0:0:0:
448,192,231569,128,0,231728:0:0:0:0:
320,192,231569,1,0,0:0:0:0:
192,192,231569,1,0,0:0:0:0:
64,192,231728,128,0,231888:0:0:0:0:
192,192,231888,1,0,0:0:0:0:
448,192,231888,1,0,0:0:0:0:
320,192,231888,128,0,232047:0:0:0:0:
192,192,232047,128,0,232207:0:0:0:0:
64,192,232207,128,0,232367:0:0:0:0:
448,192,232207,1,0,0:0:0:0:
320,192,232367,128,0,232526:0:0:0:0:
192,192,232367,1,0,0:0:0:0:
448,192,232526,128,0,232686:0:0:0:0:
64,192,232526,1,0,0:0:0:0:
192,192,232526,1,0,0:0:0:0:
320,192,232686,128,0,232845:0:0:0:0:
64,192,232845,128,0,233005:0:0:0:0:
192,192,233005,128,0,233164:0:0:0:0:
448,192,233005,1,0,0:0:0:0:
320,192,233164,128,0,233324:0:0:0:0:
64,192,233164,1,0,0:0:0:0:
448,192,233164,1,0,0:0:0:0:
64,192,233324,128,0,233484:0:0:0:0:
192,192,233484,1,0,0:0:0:0:
448,192,233484,128,0,233643:0:0:0:0:
320,192,233643,128,0,233803:0:0:0:0:
64,192,233643,1,0,0:0:0:0:
192,192,233803,128,0,234122:0:0:0:0:
448,192,233803,128,0,234122:0:0:0:0:
320,192,234122,1,0,0:0:0:0:
64,192,234122,128,0,234282:0:0:0:0:
448,192,234282,128,0,234441:0:0:0:0:
192,192,234441,128,0,234601:0:0:0:0:
64,192,234441,1,0,0:0:0:0:
320,192,234441,1,0,0:0:0:0:
448,192,234601,128,0,234760:0:0:0:0:
320,192,234760,128,0,234920:0:0:0:0:
192,192,234760,1,0,0:0:0:0:
64,192,234920,128,0,235079:0:0:0:0:
448,192,234920,1,0,0:0:0:0:
192,192,235079,1,0,0:0:0:0:
320,192,235079,128,0,235239:0:0:0:0:
448,192,235079,1,0,0:0:0:0:
64,192,235239,128,0,235399:0:0:0:0:
192,192,235399,128,0,235558:0:0:0:0:
320,192,235558,128,0,235718:0:0:0:0:
448,192,235558,1,0,0:0:0:0:
64,192,235718,128,0,235877:0:0:0:0:
192,192,235718,1,0,0:0:0:0:
448,192,235718,1,0,0:0:0:0:
320,192,235877,128,0,236037:0:0:0:0:
448,192,236037,128,0,236196:0:0:0:0:
192,192,236037,1,0,0:0:0:0:
64,192,236196,1,0,0:0:0:0:
192,192,236196,128,0,236356:0:0:0:0:
320,192,236356,128,0,236675:0:0:0:0:
448,192,236356,128,0,236675:0:0:0:0:
192,192,236675,128,0,236835:0:0:0:0:
64,192,236675,1,0,0:0:0:0:
64,192,236835,128,0,236994:0:0:0:0:
448,192,236994,1,0,0:0:0:0:
320,192,236994,128,0,237154:0:0:0:0:
192,192,236994,1,0,0:0:0:0:
448,192,237154,128,0,237313:0:0:0:0:
64,192,237313,128,0,237473:0:0:0:0:
192,192,237313,1,0,0:0:0:0:
192,192,237473,128,0,237633:0:0:0:0:
320,192,237473,1,0,0:0:0:0:
448,192,237633,1,0,0:0:0:0:
320,192,237633,128,0,237792:0:0:0:0:
64,192,237633,1,0,0:0:0:0:
192,192,237792,128,0,237952:0:0:0:0:
448,192,237952,128,0,238111:0:0:0:0:
64,192,238111,1,0,0:0:0:0:
320,192,238111,128,0,238271:0:0:0:0:
64,192,238271,128,0,238430:0:0:0:0:
192,192,238271,1,0,0:0:0:0:
448,192,238271,1,0,0:0:0:0:
320,192,238430,128,0,238590:0:0:0:0:
192,192,238590,128,0,238750:0:0:0:0:
448,192,238590,1,0,0:0:0:0:
64,192,238750,128,0,238909:0:0:0:0:
320,192,238750,1,0,0:0:0:0:
192,192,238909,1,0,0:0:0:0:
448,192,238909,128,0,239228:0:0:0:0:
320,192,238909,128,0,239228:0:0:0:0:
192,192,239228,128,0,239388:0:0:0:0:
64,192,239228,1,0,0:0:0:0:
320,192,239388,128,0,239547:0:0:0:0:
448,192,239388,1,0,0:0:0:0:
192,192,239547,128,0,239707:0:0:0:0:
448,192,239707,128,0,239867:0:0:0:0:
320,192,239867,1,0,0:0:0:0:
192,192,239867,1,0,0:0:0:0:
64,192,239867,128,0,240026:0:0:0:0:
320,192,240026,128,0,240186:0:0:0:0:
192,192,240186,128,0,240345:0:0:0:0:
448,192,240186,1,0,0:0:0:0:
64,192,240345,1,0,0:0:0:0:
448,192,240345,128,0,240505:0:0:0:0:
320,192,240505,128,0,240664:0:0:0:0:
192,192,240664,128,0,240824:0:0:0:0:
64,192,240664,1,0,0:0:0:0:
448,192,240664,1,0,0:0:0:0:
64,192,240824,128,0,240984:0:0:0:0:
320,192,240984,1,0,0:0:0:0:
448,192,240984,1,0,0:0:0:0:
192,192,241063,1,0,0:0:0:0:
64,192,241063,1,0,0:0:0:0:
320,192,241143,1,0,0:0:0:0:
448,192,241143,1,0,0:0:0:0:
64,192,241143,1,0,0:0:0:0:
192,192,241143,1,0,0:0:0:0:
64,192,241303,1,0,0:0:0:0:
320,192,241303,1,0,0:0:0:0:
448,192,241303,1,0,0:0:0:0:
192,192,241303,1,0,0:0:0:0:
