osu file format v14

[General]
AudioFilename: audio.mp3
AudioLeadIn: 0
PreviewTime: 52307
Countdown: 0
SampleSet: Soft
StackLeniency: 0.9
Mode: 0
LetterboxInBreaks: 0
WidescreenStoryboard: 0

[Editor]
Bookmarks: 12094,17200,22307,33557,42732,52945,77041,78477,88690,98902,109115,119328,144860,155073,165285,180605,201030,206136,230232,231668
DistanceSpacing: 0.4
BeatDivisor: 4
GridSize: 32
TimelineZoom: 2.1

[Metadata]
Title:SPEED STAR
TitleUnicode:SPEED STAR
Artist:GARNiDELiA
ArtistUnicode:GARNiDELiA
Creator:HeTo
Version:STARDUST
Source:劇場版 魔法科高校の劣等生 星を呼ぶ少女
Tags:mahouka koukou no rettousei hoshi o yobu shoujo japanese jrock j-rock rock movie anime gekijouhan Irregular at Magic High School The Girl Who Calls the Stars Saggin
BeatmapID:2756344
BeatmapSetID:1330359

[Difficulty]
HPDrainRate:6
CircleSize:4.3
OverallDifficulty:8.8
ApproachRate:9.3
SliderMultiplier:1.75
SliderTickRate:1

[Events]
//Background and Video events
0,0,"bg.jpg",0,0
//Break Periods
2,145060,153561
//Storyboard Layer 0 (Background)
//Storyboard Layer 1 (Fail)
//Storyboard Layer 2 (Pass)
//Storyboard Layer 3 (Foreground)
//Storyboard Layer 4 (Overlay)
//Storyboard Sound Samples

[TimingPoints]
605,319.148936170213,4,2,5,40,1,0
1881,-192.307692307692,4,2,5,40,0,0
6349,-192.307692307692,4,2,5,55,0,0
6987,-212.765957446809,4,2,5,60,0,0
8184,-212.765957446809,4,2,5,5,0,0
8264,-212.765957446809,4,2,5,60,0,0
9541,-129.87012987013,4,2,5,60,0,0
9860,-129.87012987013,4,2,5,45,0,0
10179,-129.87012987013,4,2,5,50,0,0
10498,-129.87012987013,4,2,5,55,0,0
10817,-93.4579439252339,4,2,5,65,0,0
10897,-93.4579439252339,4,2,5,5,0,0
10977,-129.87012987013,4,2,5,65,0,0
12094,-149.253731343284,4,2,5,50,0,0
14328,-270.270270270272,4,2,5,50,0,0
14567,-270.270270270272,4,2,5,5,0,0
14647,-149.253731343284,4,2,5,50,0,0
17200,-108.695652173913,4,2,5,65,0,0
18477,-108.695652173913,4,2,5,65,0,0
19434,-75.7575757575758,4,2,5,65,0,0
19674,-75.7575757575758,4,2,5,5,0,0
19753,-108.695652173913,4,2,5,65,0,0
21987,-238.095238095238,4,2,5,65,0,0
22227,-238.095238095238,4,2,5,5,0,0
22307,-129.87012987013,4,2,5,55,0,0
27413,-114.942528735632,4,2,5,60,0,0
28051,-78.7401574803149,4,2,5,60,0,0
28530,-85.4700854700855,4,2,5,60,0,0
28849,-114.942528735632,4,2,5,60,0,0
30605,-78.7401574803149,4,2,5,60,0,0
31083,-85.4700854700855,4,2,5,60,0,0
31402,-114.942528735632,4,2,5,60,0,0
33158,-85.4700854700854,4,2,5,60,0,0
33956,-114.942528735632,4,2,5,60,0,0
34753,-93.4579439252336,4,2,5,60,0,0
35073,-114.942528735632,4,2,5,60,0,0
35711,-85.4700854700854,4,2,5,60,0,0
36509,-114.942528735632,4,2,5,60,0,0
37626,-114.942528735632,4,2,5,60,0,0
38264,-85.4700854700854,4,2,5,60,0,0
39062,-114.942528735632,4,2,5,60,0,0
39860,-93.4579439252336,4,2,5,60,0,0
40179,-114.942528735632,4,2,5,60,0,0
40817,-85.4700854700854,4,2,5,60,0,0
41615,-114.942528735632,4,2,5,60,0,0
42094,-85.4700854700854,4,2,5,60,0,0
42732,-98.0392156862745,4,2,5,60,0,0
43051,-108.695652173913,4,2,5,60,0,0
45924,-81.9672131147541,4,2,5,60,0,0
46003,-81.9672131147541,4,2,5,5,0,0
46083,-108.695652173913,4,2,5,65,0,0
46402,-98.0392156862745,4,2,5,65,0,0
47041,-89.2857142857143,4,2,5,65,0,0
47839,-108.695652173913,4,2,5,65,0,0
50392,-89.2857142857143,4,2,5,65,0,0
50791,-89.2857142857143,4,2,5,5,0,0
50870,-89.2857142857143,4,2,5,65,0,0
52945,-93.4579439252336,4,2,5,70,0,1
62519,-93.4579439252336,4,2,5,60,0,0
63158,-93.4579439252336,4,2,5,70,0,1
76642,-93.4579439252336,4,2,5,5,0,1
76722,-93.4579439252336,4,2,5,70,0,1
76801,-93.4579439252336,4,2,5,5,0,1
76881,-93.4579439252336,4,2,5,70,0,1
76961,-93.4579439252336,4,2,5,5,0,1
77041,-98.0392156862745,4,2,5,70,0,0
78477,-108.695652173913,4,2,5,65,0,0
80711,-75.7575757575758,4,2,5,65,0,0
80950,-75.7575757575758,4,2,5,65,0,0
81030,-108.695652173913,4,2,5,65,0,0
83503,-108.695652173913,4,2,5,5,0,0
83583,-108.695652173913,4,2,5,65,0,0
88690,-175.438596491228,4,2,5,40,0,0
96349,-121.951219512195,4,2,5,45,0,0
96668,-121.951219512195,4,2,5,50,0,0
96987,-121.951219512195,4,2,5,55,0,0
97307,-81.967213114754,4,2,5,60,0,0
97386,-81.967213114754,4,2,5,5,0,0
97466,-121.951219512195,4,2,5,60,0,0
98902,-114.942528735632,4,2,5,60,0,0
99541,-85.4700854700855,4,2,5,60,0,0
100339,-114.942528735632,4,2,5,60,0,0
101136,-85.4700854700855,4,2,5,60,0,0
101376,-85.4700854700855,4,2,5,5,0,0
101456,-114.942528735632,4,2,5,60,0,0
102094,-85.4700854700855,4,2,5,60,0,0
102892,-114.942528735632,4,2,5,60,0,0
104647,-85.4700854700855,4,2,5,60,0,0
105445,-114.942528735632,4,2,5,60,0,0
106243,-93.4579439252336,4,2,5,60,0,0
106482,-93.4579439252336,4,2,5,5,0,0
106562,-114.942528735632,4,2,5,60,0,0
107200,-85.4700854700855,4,2,5,60,0,0
107998,-114.942528735632,4,2,5,60,0,0
109115,-98.0392156862745,4,2,5,60,0,0
109434,-108.695652173913,4,2,5,60,0,0
112307,-81.9672131147541,4,2,5,60,0,0
112386,-81.9672131147541,4,2,5,5,0,0
112466,-108.695652173913,4,2,5,60,0,0
112785,-98.0392156862745,4,2,5,60,0,0
113424,-89.2857142857143,4,2,5,60,0,0
114222,-108.695652173913,4,2,5,60,0,0
116775,-89.2857142857143,4,2,5,65,0,0
117174,-89.2857142857143,4,2,5,5,0,0
117253,-89.2857142857143,4,2,5,65,0,0
119328,-93.4579439252336,4,2,5,70,0,1
128902,-93.4579439252336,4,2,5,60,0,0
129541,-93.4579439252336,4,2,5,70,0,1
143424,-98.0392156862745,4,2,5,70,0,0
144860,-238.095238095238,4,2,5,35,0,0
154115,-212.765957446809,4,2,5,35,0,0
155073,-192.307692307692,4,2,5,65,0,0
155312,-192.307692307692,4,2,5,5,0,0
155392,-54.9450549450549,4,2,5,65,0,1
155631,-54.9450549450549,4,2,5,5,0,1
155711,-85.4700854700855,4,2,5,65,0,1
156509,-114.942528735632,4,2,5,65,0,1
158264,-93.4579439252336,4,2,5,65,0,1
159062,-114.942528735632,4,2,5,65,0,1
159541,-93.4579439252336,4,2,5,65,0,1
159780,-93.4579439252336,4,2,5,5,0,1
159860,-75.7575757575758,4,2,5,65,0,1
160099,-75.7575757575758,4,2,5,5,0,1
160179,-192.307692307692,4,2,5,65,0,1
160418,-192.307692307692,4,2,5,5,0,1
160498,-54.9450549450549,4,2,5,65,0,1
160737,-54.9450549450549,4,2,5,5,0,1
160817,-93.4579439252336,4,2,5,65,0,1
161615,-114.942528735632,4,2,5,65,0,1
163370,-93.4579439252336,4,2,5,65,0,1
164168,-114.942528735632,4,2,5,65,0,1
165285,-98.0392156862745,4,2,5,70,0,0
179168,-98.0392156862745,4,2,5,65,0,0
179966,-370.37037037037,4,2,5,65,0,0
180525,-370.37037037037,4,2,5,5,0,0
180605,-108.695652173913,4,2,5,65,0,0
186828,-89.2857142857143,4,2,5,65,0,0
186908,-89.2857142857143,4,2,5,5,0,0
186987,-89.2857142857143,4,2,5,65,0,0
187227,-89.2857142857143,4,2,5,5,0,0
187307,-89.2857142857143,4,2,5,65,0,0
187546,-89.2857142857143,4,2,5,5,0,0
187626,-89.2857142857143,4,2,5,65,0,0
188264,-108.695652173913,4,2,5,65,0,0
189381,-89.2857142857143,4,2,5,65,0,0
190498,-238.095238095238,4,2,5,65,0,0
190737,-238.095238095238,4,2,5,5,0,0
190817,-93.4579439252336,4,2,5,60,0,0
199434,-114.942528735632,4,2,5,65,0,0
199514,-114.942528735632,4,2,5,5,0,0
200950,-114.942528735632,4,2,5,5,0,0
201030,-238.095238095238,4,2,5,55,0,0
202307,-81.9672131147541,4,2,5,55,0,0
202386,-81.9672131147541,4,2,5,5,0,0
202466,-238.095238095238,4,2,5,55,0,0
203503,-238.095238095238,4,2,5,5,0,0
203583,-121.951219512195,4,2,5,70,0,0
203982,-121.951219512195,4,2,5,5,0,0
204062,-98.0392156862745,4,2,5,70,0,0
205099,-98.0392156862745,4,2,5,5,0,0
205179,-98.0392156862745,4,2,5,70,0,0
205259,-98.0392156862745,4,2,5,5,0,0
205339,-98.0392156862745,4,2,5,70,0,0
205418,-98.0392156862745,4,2,5,5,0,0
205498,-138.888888888889,4,2,5,55,0,0
205737,-138.888888888889,4,2,5,5,0,0
205817,-192.307692307692,4,2,5,55,0,0
206057,-192.307692307692,4,2,5,5,0,0
206136,-93.4579439252336,4,2,5,70,0,1
210605,-93.4579439252336,4,2,5,60,0,0
211243,-93.4579439252336,4,2,5,70,0,1
229833,-93.4579439252336,4,2,5,5,0,1
229913,-93.4579439252336,4,2,5,70,0,1
229993,-93.4579439252336,4,2,5,5,0,1
230073,-93.4579439252336,4,2,5,70,0,1
230152,-93.4579439252336,4,2,5,5,0,1
230232,-98.0392156862745,4,2,5,70,0,0
231668,-108.695652173913,4,2,5,65,0,0
233583,-89.2857142857143,4,2,5,65,0,0
234222,-108.695652173913,4,2,5,65,0,0
236456,-181.818181818182,4,2,5,65,0,0
236695,-181.818181818182,4,2,5,5,0,0
236775,-108.695652173913,4,2,5,65,0,0
238690,-89.2857142857143,4,2,5,65,0,0
239328,-108.695652173913,4,2,5,65,0,0
240126,-89.2857142857143,4,2,5,65,0,0
240605,-108.695652173913,4,2,5,65,0,0
241243,-89.2857142857143,4,2,5,65,0,0
241323,-89.2857142857143,4,2,5,5,0,0
241402,-108.695652173913,4,2,5,65,0,0

[Colours]
Combo1 : 104,180,255
Combo2 : 192,192,192
Combo3 : 117,117,255
Combo4 : 2,132,249

[HitObjects]
84,132,1722,5,2,0:0:0:0:
84,132,1801,1,2,0:0:0:0:
84,132,1881,2,0,P|93:169|96:185,2,45.49999972229,2|0|0,0:0|0:0|0:0,0:0:0:0:
165,42,2360,2,0,P|186:62|256:72,1,90.9999994445801,2|0,0:0|3:0,0:0:0:0:
321,222,2839,1,2,0:0:0:0:
336,143,2998,1,2,0:0:0:0:
336,143,3078,1,2,0:0:0:0:
336,143,3158,6,0,P|289:146|256:179,1,90.9999994445801,2|2,0:0|0:0,0:0:0:0:
175,326,3636,1,2,0:0:0:0:
248,253,3796,1,0,3:0:0:0:
181,212,3956,1,2,0:0:0:0:
279,339,4115,5,0,3:0:0:0:
294,335,4195,1,0,3:0:0:0:
309,332,4275,1,0,3:0:0:0:
326,329,4355,1,0,3:0:0:0:
341,326,4434,6,0,P|345:293|350:278,2,45.49999972229,2|0|2,0:0|0:0|0:0,0:0:0:0:
510,254,4913,2,0,P|470:244|423:212,1,90.9999994445801,2|0,0:0|0:0,0:0:0:0:
265,102,5392,1,2,0:0:0:0:
341,79,5551,1,2,0:0:0:0:
341,79,5631,1,2,0:0:0:0:
341,79,5711,6,0,P|346:125|353:182,1,90.9999994445801,2|2,0:0|0:0,0:0:0:0:
157,346,6190,5,0,0:0:0:0:
102,287,6349,2,0,P|109:254|111:225,1,45.49999972229,2|8,0:0|0:3,0:0:0:0:
188,50,6668,1,8,0:3:0:0:
251,213,6828,1,4,0:3:0:0:
67,117,6987,6,0,B|49:74|11:59|11:59|81:36|123:83|104:105|150:146|224:123,1,308.437495293617,6|0,1:2|0:0,0:0:0:0:
360,104,8264,6,0,P|308:100|261:292,1,287.874995607376,6|2,1:2|0:0,0:0:0:0:
265,295,9461,1,2,0:0:0:0:
265,295,9541,6,0,P|295:280|332:275,1,67.3749986635208,2|0,1:2|1:2,0:0:0:0:
424,147,9860,5,0,1:2:0:0:
354,183,10019,1,0,1:2:0:0:
464,290,10179,5,0,1:2:0:0:
360,104,10339,1,8,0:0:0:0:
234,366,10498,5,8,0:0:0:0:
503,223,10658,1,8,0:0:0:0:
175,85,10817,6,0,P|141:94|117:99,1,46.8124985713959,10|0,0:0|0:0,0:0:0:0:
328,275,10977,1,10,0:0:0:0:
376,12,12094,6,0,P|368:55|367:80,1,58.624997226906,0|0,1:2|0:0,0:0:0:0:
196,178,12413,2,0,P|201:147|204:117,1,58.624997226906,0|0,1:2|0:0,0:0:0:0:
275,0,12732,2,0,B|275:79|292:44|289:125,1,117.249994453812,0|0,1:2|1:2,0:0:0:0:
381,237,13211,1,0,3:0:0:0:
381,237,13291,1,0,3:0:0:0:
381,237,13370,6,0,P|388:188|395:162,1,58.624997226906,0|0,1:2|0:0,0:0:0:0:
259,249,13690,2,0,P|263:271|263:286,5,19.541665742302,0|0|0|0|0|0,1:2|3:0|3:0|3:0|3:0|3:0,0:0:0:0:
331,302,14009,1,0,1:2:0:0:
209,157,14168,5,0,3:0:0:0:
209,157,14248,1,0,3:0:0:0:
209,157,14328,2,0,P|182:168|151:171,1,48.5625011856079,4|0,1:2|0:0,0:0:0:0:
98,126,14647,6,0,P|106:86|106:44,1,58.624997226906,0|0,1:2|0:0,0:0:0:0:
274,209,14966,2,0,P|266:249|266:291,1,58.624997226906,0|0,1:2|0:0,0:0:0:0:
163,373,15206,1,0,3:0:0:0:
152,366,15285,2,0,B|152:287|169:322|166:241,1,117.249994453812,0|0,1:2|1:2,0:0:0:0:
252,366,15764,1,0,3:0:0:0:
252,366,15844,1,0,3:0:0:0:
252,366,15924,6,0,P|282:369|310:380,1,58.624997226906,0|0,1:2|0:0,0:0:0:0:
93,231,16243,2,0,P|64:242|34:245,1,58.624997226906,0|0,1:2|0:0,0:0:0:0:
0,314,16562,5,0,1:2:0:0:
264,119,16722,1,14,0:0:0:0:
181,54,16881,5,2,0:0:0:0:
182,81,16960,1,2,0:0:0:0:
184,109,17040,1,2,0:0:0:0:
185,136,17120,1,2,0:0:0:0:
185,136,17200,6,0,B|297:148|219:196|347:206,1,160.999994595337,6|8,1:2|0:0,0:0:0:0:
463,34,17679,1,0,0:0:0:0:
342,124,17839,1,2,1:2:0:0:
305,54,17998,1,2,1:2:0:0:
508,165,18158,1,8,0:0:0:0:
325,280,18317,5,2,1:2:0:0:
426,144,18477,2,0,P|424:174|413:248,1,80.4999972976685,2|0,0:0|1:2,0:0:0:0:
208,84,18796,2,0,P|229:59|295:60,1,80.4999972976685,10|0,0:0|0:0,0:0:0:0:
143,286,19115,5,2,1:2:0:0:
108,220,19275,1,2,1:2:0:0:
250,306,19434,2,0,P|155:317|70:356,1,173.249999471283,10|0,0:0|0:0,0:0:0:0:
8,310,19753,6,0,P|22:263|22:210,1,80.4999972976685,6|0,1:2|0:0,0:0:0:0:
167,53,20073,1,10,0:0:0:0:
0,122,20232,2,0,B|45:82|99:93|99:93|116:123|165:129,1,160.999994595337,2|0,0:0|1:2,0:0:0:0:
257,293,20711,5,10,0:0:0:0:
310,235,20870,2,0,P|301:193|303:151,1,80.4999972976685,0|0,1:2|0:0,0:0:0:0:
346,46,21190,5,2,1:2:0:0:
106,260,21349,2,0,P|150:267|192:292,1,80.4999972976685,10|0,0:0|0:0,0:0:0:0:
389,151,21668,5,2,1:2:0:0:
259,52,21828,1,0,1:2:0:0:
389,151,21987,2,0,P|427:134|453:134,1,55.1249983177186,10|0,0:0|0:0,0:0:0:0:
499,83,22307,5,6,1:2:0:0:
499,83,22626,2,0,P|499:45|507:12,1,67.3749986635208,10|0,0:0|0:0,0:0:0:0:
304,148,22945,6,0,P|303:185|297:235,1,67.3749986635208,0|0,1:2|0:0,0:0:0:0:
273,286,23184,1,0,1:2:0:0:
273,286,23424,6,0,B|175:295|239:338|127:353,1,134.749997327042,10|2,0:0|1:2,0:0:0:0:
25,258,23902,2,0,P|24:216|52:189,1,67.3749986635208,10|0,0:0|0:0,0:0:0:0:
126,49,24222,5,0,1:2:0:0:
166,117,24381,1,0,1:2:0:0:
126,49,24541,2,0,P|89:46|58:33,1,67.3749986635208,10|0,0:0|0:0,0:0:0:0:
125,189,24860,5,0,1:2:0:0:
125,189,25179,2,0,P|160:191|192:204,1,67.3749986635208,8|0,0:0|0:0,0:0:0:0:
366,165,25498,6,0,P|367:128|373:78,1,67.3749986635208,0|0,1:2|0:0,0:0:0:0:
399,26,25737,1,0,1:2:0:0:
399,26,25977,6,0,P|347:66|249:65,1,134.749997327042,10|0,0:0|1:2,0:0:0:0:
192,204,26456,1,10,0:0:0:0:
132,150,26615,1,2,0:0:0:0:
132,150,26695,1,2,0:0:0:0:
132,150,26775,2,0,P|140:106|140:75,1,67.3749986635208,0|0,1:2|1:2,0:0:0:0:
238,283,27094,1,10,0:0:0:0:
307,249,27253,1,8,0:0:0:0:
313,237,27333,1,8,0:0:0:0:
311,223,27413,6,0,B|399:209|335:169|449:155,1,152.250001277733,2|10,1:2|0:0,0:0:0:0:
300,16,27892,1,4,3:0:0:0:
300,16,27972,1,4,3:0:0:0:
300,16,28051,6,0,P|357:42|424:47,1,111.124999152184,6|0,1:2|0:0,0:0:0:0:
232,191,28291,2,0,P|226:128|195:68,1,111.124999152184,6|0,1:2|0:0,0:0:0:0:
337,155,28530,6,0,B|327:269|366:193|359:332,1,153.562500585794,10|0,0:0|0:0,0:0:0:0:
401,374,28849,1,0,1:2:0:0:
229,282,29009,2,0,P|188:303|153:312,1,76.1250006388664,10|0,0:0|0:0,0:0:0:0:
61,143,29328,5,0,1:2:0:0:
5,194,29487,1,0,1:2:0:0:
61,143,29647,2,0,P|71:97|74:53,1,76.1250006388664,10|0,0:0|0:0,0:0:0:0:
168,322,29966,6,0,B|271:305|190:263|315:252,1,152.250001277733,2|10,1:2|0:0,0:0:0:0:
457,148,30445,1,2,0:0:0:0:
457,148,30525,1,2,0:0:0:0:
457,148,30605,6,0,P|438:207|441:273,1,111.124999152184,6|0,1:2|0:0,0:0:0:0:
302,118,30845,2,0,P|363:104|419:68,1,111.124999152184,6|0,1:2|0:0,0:0:0:0:
296,253,31083,6,0,B|198:238|256:193|149:183,1,153.562500585794,10|0,0:0|0:0,0:0:0:0:
99,218,31402,1,0,1:2:0:0:
302,118,31562,2,0,P|313:65|320:25,1,76.1250006388664,10|0,0:0|0:0,0:0:0:0:
58,115,31881,5,0,1:2:0:0:
30,44,32041,1,0,1:2:0:0:
163,184,32200,2,0,P|152:237|143:327,1,114.1875009583,10|0,0:0|0:0,0:0:0:0:
139,308,32519,6,0,P|63:303|39:232,1,152.250001277733,2|10,1:2|0:0,0:0:0:0:
265,126,32998,5,2,0:0:0:0:
265,126,33078,1,2,0:0:0:0:
265,126,33158,2,0,P|329:157|398:163,1,102.37500039053,2|0,1:2|0:0,0:0:0:0:
326,337,33397,2,0,P|320:266|291:203,1,102.37500039053,2|0,1:2|0:0,0:0:0:0:
504,137,33636,6,0,P|441:172|404:266,1,153.562500585794,10|0,0:0|0:0,0:0:0:0:
428,319,33956,1,0,1:2:0:0:
309,237,34115,2,0,P|253:260|210:259,1,76.1250006388664,10|0,0:0|0:0,0:0:0:0:
438,340,34434,6,0,P|494:317|531:318,1,76.1250006388664,2|0,1:2|1:2,0:0:0:0:
373,95,34753,2,0,B|272:101|342:149|228:159,1,140.437495714188,10|0,0:0|0:0,0:0:0:0:
246,165,35073,6,0,P|257:98|268:-1,1,152.250001277733,2|10,1:2|0:0,0:0:0:0:
216,239,35551,5,2,0:0:0:0:
216,239,35631,1,2,0:0:0:0:
216,239,35711,2,0,P|163:246|116:271,1,102.37500039053,2|0,1:2|0:0,0:0:0:0:
49,106,35950,2,0,P|81:147|126:176,1,102.37500039053,2|0,1:2|0:0,0:0:0:0:
17,378,36190,6,0,P|36:328|35:217,1,153.562500585794,10|0,0:0|0:0,0:0:0:0:
0,166,36509,1,2,1:2:0:0:
169,329,36668,2,0,P|202:349|242:351,1,76.1250006388664,8|0,0:0|0:0,0:0:0:0:
364,196,36987,5,2,1:2:0:0:
299,154,37147,1,0,1:2:0:0:
363,343,37307,5,10,0:0:0:0:
505,192,37466,1,8,0:0:0:0:
490,178,37546,1,8,0:0:0:0:
470,183,37626,6,0,P|481:258|497:347,1,152.250001277733,2|10,1:2|0:0,0:0:0:0:
299,154,38105,5,2,0:0:0:0:
299,154,38184,1,2,0:0:0:0:
299,154,38264,2,0,P|253:183|196:190,1,102.37500039053,2|0,1:2|0:0,0:0:0:0:
220,373,38503,2,0,P|217:318|240:265,1,102.37500039053,2|0,1:2|0:0,0:0:0:0:
49,152,38743,6,0,P|103:167|142:260,1,153.562500585794,10|0,0:0|0:0,0:0:0:0:
111,322,39062,1,0,1:2:0:0:
233,274,39222,2,0,P|281:295|319:297,1,76.1250006388664,10|0,0:0|0:0,0:0:0:0:
512,126,39541,6,0,P|500:175|500:218,1,76.1250006388664,2|0,1:2|1:2,0:0:0:0:
342,372,39860,2,0,P|348:334|350:213,1,140.437495714188,10|0,0:0|0:0,0:0:0:0:
341,214,40179,6,0,B|302:168|245:184|245:184|224:215|177:214,1,152.250001277733,2|10,1:2|0:0,0:0:0:0:
62,91,40658,5,2,0:0:0:0:
62,91,40737,1,2,0:0:0:0:
62,91,40817,2,0,P|111:122|161:131,1,102.37500039053,2|0,1:2|0:0,0:0:0:0:
118,315,41057,2,0,P|120:257|103:209,1,102.37500039053,2|0,1:2|0:0,0:0:0:0:
306,103,41296,6,0,P|254:129|207:223,1,153.562500585794,10|0,0:0|0:0,0:0:0:0:
232,280,41615,1,0,1:2:0:0:
94,207,41775,2,0,P|38:229|5:232,1,76.1250006388664,10|0,0:0|0:0,0:0:0:0:
146,4,42094,6,0,B|147:47|147:47|161:66|161:66|165:114,1,102.37500039053,2|0,1:2|0:0,0:0:0:0:
344,344,42413,5,8,0:0:0:0:
335,287,42493,1,8,0:0:0:0:
285,260,42573,1,8,0:0:0:0:
232,280,42652,1,8,0:0:0:0:
258,358,42732,6,0,B|368:347|286:292|429:282,1,178.500001089478,6|8,1:2|0:0,0:0:0:0:
277,161,43211,1,2,0:0:0:0:
462,71,43370,1,2,1:2:0:0:
415,136,43530,1,2,1:2:0:0:
308,0,43690,1,8,0:0:0:0:
512,158,43849,6,0,P|496:223|494:287,1,120.749995946503,6|0,1:2|0:0,0:0:0:0:
475,353,44168,2,0,P|422:361|385:382,1,80.4999972976685,2|8,1:2|0:0,0:0:0:0:
277,161,44487,2,0,P|317:149|356:182,1,80.4999972976685,2|0,0:0|1:2,0:0:0:0:
493,276,44807,1,2,1:2:0:0:
309,379,44966,2,0,P|290:332|309:288,1,80.4999972976685,10|0,0:0|0:0,0:0:0:0:
214,85,45285,6,0,B|167:95|167:95|148:122|148:122|87:136,1,120.749995946503,2|0,1:2|0:0,0:0:0:0:
41,96,45605,2,0,P|37:60|82:18,1,80.4999972976685,10|2,0:0|0:0,0:0:0:0:
271,172,45924,6,0,L|263:242,1,53.3749978010178,2|0,1:2|0:0,0:0:0:0:
101,372,46083,2,0,B|65:364|65:364|59:358|59:358|2:349,1,80.4999972976685,10|0,0:0|0:0,0:0:0:0:
109,130,46402,6,0,P|162:142|188:200,1,89.2500005447388,6|0,1:2|0:0,0:0:0:0:
248,9,46722,2,0,P|264:60|226:112,1,89.2500005447388,6|0,1:2|0:0,0:0:0:0:
460,246,47041,6,0,P|405:243|357:224,1,98.0000011962891,6|0,1:2|0:0,0:0:0:0:
230,382,47360,2,0,P|205:332|197:281,1,98.0000011962891,6|0,1:2|0:0,0:0:0:0:
340,137,47679,5,8,0:0:0:0:
323,124,47759,1,8,0:0:0:0:
304,134,47839,2,0,P|312:196|326:318,1,160.999994595337,6|10,1:2|0:0,0:0:0:0:
152,120,48317,2,0,P|144:182|138:225,1,80.4999972976685,2|0,0:0|1:2,0:0:0:0:
244,72,48636,1,2,1:2:0:0:
59,167,48796,5,10,0:0:0:0:
248,242,48956,2,0,B|134:245|208:302|101:309,1,160.999994595337,6|0,1:2|1:2,0:0:0:0:
288,137,49434,1,10,0:0:0:0:
100,50,49594,6,0,P|54:64|22:68,1,80.4999972976685,2|0,0:0|1:2,0:0:0:0:
209,143,49913,1,2,1:2:0:0:
244,72,50073,1,10,0:0:0:0:
57,189,50232,1,0,0:0:0:0:
293,366,50392,6,0,B|348:357|348:357|367:327|367:327|453:315,1,147.000001794434,6|0,1:2|0:0,0:0:0:0:
472,257,50711,6,0,B|483:232|483:232|463:198,1,49.0000005981445,10|0,0:0|0:0,0:0:0:0:
422,66,50870,1,0,1:2:0:0:
301,290,51030,5,10,0:0:0:0:
430,54,51190,2,0,P|380:47|333:26,1,98.0000011962891,10|0,0:0|0:0,0:0:0:0:
182,286,51509,5,10,0:0:0:0:
40,24,51668,1,0,1:2:0:0:
182,286,51828,2,0,B|300:286|225:202|379:208,1,196.000002392578,10|8,0:0|0:0,0:0:0:0:
427,242,52227,5,8,0:0:0:0:
427,242,52307,2,0,P|420:266|417:292,1,49.0000005981445,8|8,0:0|0:0,0:0:0:0:
267,147,52466,2,0,P|263:121|257:96,1,49.0000005981445,8|8,3:0|3:0,0:0:0:0:
436,3,52626,5,4,3:0:0:0:
433,23,52706,1,4,3:0:0:0:
430,43,52785,1,4,3:0:0:0:
428,63,52865,1,4,3:0:0:0:
426,82,52945,6,0,B|374:65|340:97|340:97|327:145|262:148,1,187.249994285584,6|10,1:2|0:0,0:0:0:0:
57,8,53424,2,0,P|70:44|78:112,1,93.6249971427918,2|0,0:0|1:2,0:0:0:0:
0,212,53743,5,2,1:2:0:0:
0,133,53902,2,0,P|86:137|161:200,1,187.249994285584,10|0,0:0|1:2,0:0:0:0:
312,51,54381,1,0,1:2:0:0:
250,0,54541,2,0,P|229:43|239:93,1,93.6249971427918,10|0,0:0|0:0,0:0:0:0:
309,195,54860,5,2,1:2:0:0:
347,130,55019,1,0,1:2:0:0:
159,199,55179,5,10,0:0:0:0:
327,325,55339,1,0,0:0:0:0:
227,226,55498,6,0,B|174:237|174:237|160:264|160:264|82:282,1,140.437495714188,2|0,1:2|0:0,0:0:0:0:
90,266,55817,1,10,0:0:0:0:
226,136,55977,1,2,0:0:0:0:
226,136,56057,1,2,0:0:0:0:
226,136,56136,1,2,1:2:0:0:
46,28,56296,1,2,1:2:0:0:
110,171,56456,6,0,P|115:142|118:113,1,46.8124985713959,10|2,0:0|0:0,0:0:0:0:
279,0,56615,2,0,P|285:30|291:57,1,46.8124985713959,2|2,0:0|0:0,0:0:0:0:
385,211,56775,6,0,P|445:187|482:185,1,93.6249971427918,2|0,1:2|1:2,0:0:0:0:
298,56,57094,2,0,P|302:99|286:169,1,93.6249971427918,8|0,0:0|0:0,0:0:0:0:
250,290,57413,5,2,1:2:0:0:
188,161,57573,1,0,1:2:0:0:
327,313,57732,2,0,B|273:326|273:326|260:350|260:350|199:362,1,140.437495714188,10|0,0:0|0:0,0:0:0:0:
136,327,58051,6,0,P|134:272|159:241,1,93.6249971427918,6|0,1:2|0:0,0:0:0:0:
293,148,58370,1,10,0:0:0:0:
136,62,58530,2,0,P|82:88|24:90,1,93.6249971427918,2|0,0:0|1:0,0:0:0:0:
218,8,58849,5,2,1:2:0:0:
0,171,59009,2,0,B|109:172|44:248|182:248,1,187.249994285584,10|0,0:0|1:2,0:0:0:0:
294,148,59487,1,0,1:2:0:0:
338,341,59647,5,10,0:0:0:0:
214,138,59807,2,0,P|226:196|240:340,1,187.249994285584,2|0,0:0|1:2,0:0:0:0:
403,107,60285,2,0,P|391:165|382:257,1,140.437495714188,10|0,0:0|0:0,0:0:0:0:
305,228,60605,6,0,P|313:178|317:130,1,93.6249971427918,2|0,1:2|0:0,0:0:0:0:
416,318,60924,1,10,0:0:0:0:
512,125,61083,2,0,P|506:74|506:30,1,93.6249971427918,2|0,0:0|1:2,0:0:0:0:
305,228,61402,5,2,1:2:0:0:
512,316,61562,2,0,B|384:315|458:385|337:385,1,187.249994285584,10|0,0:0|1:2,0:0:0:0:
209,128,62041,1,0,1:2:0:0:
381,244,62200,1,14,0:0:0:0:
381,244,62519,5,8,0:0:0:0:
349,207,62598,1,8,0:0:0:0:
302,197,62678,1,8,0:0:0:0:
259,216,62758,1,8,0:0:0:0:
248,238,62838,5,8,0:0:0:0:
216,272,62918,1,8,0:0:0:0:
171,283,62998,1,8,0:0:0:0:
128,265,63078,1,8,0:0:0:0:
102,225,63158,6,0,P|94:177|131:134,1,93.6249971427918,6|0,1:2|0:0,0:0:0:0:
182,95,63477,1,10,0:0:0:0:
313,277,63636,2,0,P|313:327|326:379,1,93.6249971427918,2|0,0:0|1:2,0:0:0:0:
480,139,63956,5,2,0:0:0:0:
350,202,64115,2,0,B|421:210|421:210|446:245|446:245|536:259,1,187.249994285584,10|0,0:0|1:2,0:0:0:0:
373,115,64594,1,0,0:0:0:0:
495,0,64753,6,0,P|488:42|488:105,1,93.6249971427918,10|0,0:0|0:0,0:0:0:0:
266,235,65073,2,0,P|244:194|273:122,1,93.6249971427918,2|0,1:2|0:0,0:0:0:0:
368,35,65392,1,10,0:0:0:0:
373,115,65551,5,2,0:0:0:0:
373,115,65631,1,2,0:0:0:0:
373,115,65711,2,0,B|284:102|341:76|244:67,1,140.437495714188,2|0,1:2|0:0,0:0:0:0:
233,79,66030,1,10,0:0:0:0:
82,240,66190,2,0,P|42:223|-7:214,1,93.6249971427918,2|0,0:0|1:2,0:0:0:0:
120,15,66509,5,2,0:0:0:0:
249,181,66668,2,0,P|238:246|227:339,1,140.437495714188,10|0,0:0|0:0,0:0:0:0:
154,326,66987,6,0,P|163:258|164:206,1,93.6249971427918,0|0,1:2|0:0,0:0:0:0:
128,98,67307,1,10,0:0:0:0:
311,304,67466,5,2,0:0:0:0:
311,304,67546,1,2,0:0:0:0:
311,304,67626,2,0,B|367:296|367:296|389:272|389:272|446:264,1,140.437495714188,2|2,1:2|0:0,0:0:0:0:
512,290,67945,1,8,0:0:0:0:
284,119,68105,1,2,0:0:0:0:
380,66,68264,6,0,P|370:126|369:173,1,93.6249971427918,6|0,1:2|0:0,0:0:0:0:
269,24,68583,1,10,0:0:0:0:
455,173,68743,2,0,B|333:172|397:235|280:232,1,187.249994285584,2|0,0:0|0:0,0:0:0:0:
194,137,69222,1,10,0:0:0:0:
424,269,69381,6,0,P|479:273|513:291,1,93.6249971427918,2|0,0:0|1:2,0:0:0:0:
284,119,69700,2,0,P|243:136|191:137,1,93.6249971427918,2|8,0:0|0:0,0:0:0:0:
284,232,70019,5,2,0:0:0:0:
381,68,70179,1,0,1:2:0:0:
276,245,70339,2,0,P|287:310|292:350,1,93.6249971427918,2|8,0:0|0:0,0:0:0:0:
378,190,70658,1,2,0:0:0:0:
171,336,70817,6,0,B|138:312|88:322|88:322|73:346|38:349,1,140.437495714188,6|0,1:2|0:0,0:0:0:0:
0,289,71136,1,10,0:0:0:0:
170,129,71296,2,0,P|214:153|270:157,1,93.6249971427918,2|0,0:0|1:2,0:0:0:0:
60,16,71615,5,2,0:0:0:0:
117,205,71775,2,0,P|128:140|137:29,1,140.437495714188,10|0,0:0|0:0,0:0:0:0:
134,47,72094,5,2,1:2:0:0:
264,246,72253,1,2,0:0:0:0:
383,65,72413,5,10,0:0:0:0:
256,158,72573,1,0,1:2:0:0:
442,304,72732,5,10,0:0:0:0:
335,138,72892,1,0,1:2:0:0:
359,313,73051,5,10,0:0:0:0:
385,243,73211,1,0,1:2:0:0:
251,379,73370,5,10,0:0:0:0:
466,193,73530,2,0,P|454:126|454:83,1,93.6249971427918,10|0,0:0|1:2,0:0:0:0:
412,369,73849,5,10,0:0:0:0:
235,156,74009,2,0,P|245:112|251:62,1,93.6249971427918,10|0,0:0|1:2,0:0:0:0:
123,316,74328,5,10,0:0:0:0:
366,99,74487,2,0,P|355:55|349:7,1,93.6249971427918,10|0,0:0|1:2,0:0:0:0:
265,288,74807,5,10,0:0:0:0:
113,120,74966,2,0,P|123:76|129:27,1,93.6249971427918,10|0,0:0|1:2,0:0:0:0:
19,328,75285,5,10,0:0:0:0:
247,193,75445,1,0,1:2:0:0:
22,126,75605,5,10,0:0:0:0:
123,295,75764,1,0,1:2:0:0:
245,47,75924,5,6,1:2:0:0:
245,47,76243,5,10,0:0:0:0:
40,230,76402,1,8,0:0:0:0:
20,210,76482,1,8,0:0:0:0:
23,183,76562,6,0,L|29:127,1,46.8124985713959,10|0,0:0|0:0,0:0:0:0:
233,203,76722,2,0,L|278:236,1,46.8124985713959,10|0,0:0|0:0,0:0:0:0:
111,364,76881,2,0,L|59:386,1,46.8124985713959,10|0,0:0|0:0,0:0:0:0:
126,243,77041,5,4,1:2:0:0:
223,263,78158,5,2,0:0:0:0:
249,258,78237,1,2,0:0:0:0:
275,254,78317,1,2,0:0:0:0:
301,249,78397,1,2,0:0:0:0:
327,245,78477,6,0,B|433:252|366:321|486:325,1,160.999994595337,6|8,1:2|0:0,0:0:0:0:
302,156,78956,1,0,0:0:0:0:
452,102,79115,1,2,1:2:0:0:
405,166,79275,1,2,1:2:0:0:
301,46,79434,1,8,0:0:0:0:
483,175,79594,5,2,1:2:0:0:
327,245,79753,2,0,P|283:230|232:225,1,80.4999972976685,2|0,0:0|1:0,0:0:0:0:
81,92,80073,2,0,P|81:41|121:11,1,80.4999972976685,10|0,0:0|0:0,0:0:0:0:
165,216,80392,5,2,1:2:0:0:
207,154,80551,1,0,1:2:0:0:
22,239,80711,2,0,B|83:245|83:245|100:269|119:290|119:290|207:302,1,173.249999471283,10|0,0:0|0:0,0:0:0:0:
241,346,81030,6,0,P|254:295|240:258,1,80.4999972976685,6|2,1:2|0:0,0:0:0:0:
384,95,81349,1,8,0:0:0:0:
445,250,81509,2,0,B|354:245|407:178|296:176,1,160.999994595337,2|0,0:0|1:2,0:0:0:0:
160,28,81987,5,10,0:0:0:0:
111,92,82147,2,0,P|125:141|131:176,1,80.4999972976685,0|0,1:2|0:0,0:0:0:0:
316,13,82466,5,2,1:2:0:0:
364,228,82626,2,0,P|350:277|344:312,1,80.4999972976685,10|0,0:0|0:0,0:0:0:0:
251,115,82945,1,2,1:2:0:0:
458,242,83105,1,2,1:2:0:0:
229,367,83264,2,0,B|178:359|178:359|174:351|174:351|112:340,1,120.749995946503,10|0,0:0|0:0,0:0:0:0:
55,295,83583,6,0,P|48:235|32:114,2,160.999994595337,6|8|0,1:2|0:0|1:2,1:2:0:0:
205,170,84381,1,0,1:2:0:0:
140,132,84541,1,10,0:0:0:0:
255,288,84700,6,0,P|318:224|405:228,1,160.999994595337,6|0,1:2|1:2,0:0:0:0:
502,366,85179,2,0,P|505:319|519:268,1,80.4999972976685,8|0,0:0|0:0,0:0:0:0:
333,109,85498,5,0,1:2:0:0:
333,109,85578,1,0,1:2:0:0:
333,109,85658,2,0,P|343:145|346:173,1,40.2499986488343,8|8,0:0|0:0,0:0:0:0:
494,208,85817,2,0,P|498:188|504:169,1,40.2499986488343,8|8,0:0|0:0,0:0:0:0:
342,300,85977,2,0,P|348:318|352:338,1,40.2499986488343,8|8,0:0|0:0,0:0:0:0:
424,374,86136,1,0,1:2:0:0:
200,236,86296,5,2,1:2:0:0:
440,97,86456,1,2,1:2:0:0:
339,223,86615,1,2,1:2:0:0:
225,37,86775,5,10,0:0:0:0:
494,208,86934,2,0,P|450:218|396:237,1,80.4999972976685,6|0,1:2|0:0,0:0:0:0:
168,375,87253,5,2,1:2:0:0:
269,176,87413,1,2,0:0:0:0:
328,311,87573,1,2,0:0:0:0:
132,201,87732,1,8,3:0:0:0:
345,105,87892,1,0,1:2:0:0:
220,295,88051,5,10,0:0:0:0:
47,64,88211,2,0,P|91:54|145:35,1,80.4999972976685,6|0,1:2|0:0,0:0:0:0:
124,43,88690,6,0,P|133:84|141:131,1,74.8124990867615,0|0,1:2|0:0,0:0:0:0:
98,181,89009,2,0,P|86:180|74:182,3,24.9374996955872,2|2|2|2,3:0|3:0|3:0|3:0,0:0:0:0:
161,268,89328,6,0,P|169:224|177:180,1,74.8124990867615,2|0,3:0|0:0,0:0:0:0:
189,184,89647,1,2,3:0:0:0:
226,90,89807,6,0,P|267:113|329:117,1,99.7499987823486,2|2,3:0|3:0,0:0:0:0:
413,60,90285,2,0,P|404:25|401:-6,1,49.8749993911743,2|0,3:0|0:0,0:0:0:0:
330,133,90605,2,0,P|325:157|325:186,1,49.8749993911743,2|2,3:0|3:0,0:0:0:0:
353,253,90844,5,2,3:0:0:0:
353,253,90924,2,0,L|387:258,1,24.9374996955872,2|2,3:0|3:0,0:0:0:0:
284,305,91083,2,0,L|250:310,1,24.9374996955872,2|2,3:0|3:0,0:0:0:0:
351,371,91243,5,2,3:0:0:0:
351,371,91562,2,0,P|403:361|409:360,1,49.8749993911743,2|0,3:0|0:0,0:0:0:0:
486,329,91881,2,0,P|494:272|507:240,1,74.8124990867615,2|0,3:0|0:0,0:0:0:0:
497,242,92200,1,2,3:0:0:0:
424,158,92360,1,2,3:0:0:0:
424,158,92440,1,2,3:0:0:0:
424,158,92519,6,0,P|381:182|362:185,1,49.8749993911743,2|2,3:0|3:0,0:0:0:0:
293,100,92839,1,2,3:0:0:0:
360,58,92998,1,0,0:0:0:0:
293,100,93158,6,0,P|291:136|282:169,1,49.8749993911743,2|0,3:0|0:0,0:0:0:0:
247,211,93397,1,2,3:0:0:0:
247,211,93477,2,0,P|225:207|206:203,1,24.9374996955872,2|2,3:0|3:0,0:0:0:0:
161,156,93636,2,0,P|139:160|120:164,1,24.9374996955872,2|2,3:0|3:0,0:0:0:0:
64,225,93796,6,0,P|56:178|44:138,1,74.8124990867615,2|0,3:0|0:0,0:0:0:0:
81,80,94115,2,0,L|122:90,3,24.9374996955872,2|2|2|2,3:0|3:0|3:0|3:0,0:0:0:0:
161,24,94434,1,2,3:0:0:0:
48,152,94594,2,0,P|14:158|-8:163,1,49.8749993911743,2|2,3:0|3:0,0:0:0:0:
132,271,94913,6,0,P|163:262|244:241,1,99.7499987823486,2|2,3:0|3:0,0:0:0:0:
336,158,95392,1,2,3:0:0:0:
290,94,95551,1,2,3:0:0:0:
336,158,95711,2,0,P|330:195|327:228,1,49.8749993911743,2|0,3:0|0:0,0:0:0:0:
203,147,95950,1,2,3:0:0:0:
194,138,96030,2,0,P|200:101|203:68,1,49.8749993911743,2|0,3:0|0:0,0:0:0:0:
338,33,96349,5,0,1:2:0:0:
290,94,96509,1,0,1:2:0:0:
429,168,96668,5,0,1:0:0:0:
262,13,96828,1,8,0:0:0:0:
226,310,96987,5,8,0:0:0:0:
370,107,97147,1,10,0:0:0:0:
489,323,97307,6,0,L|479:397,1,53.3749978010178,10|0,0:0|0:0,0:0:0:0:
321,165,97466,1,10,0:0:0:0:
7,71,98902,6,0,B|102:95|102:95|72:101|51:140,1,152.250001277733,6|10,1:2|0:0,0:0:0:0:
230,283,99381,5,2,0:0:0:0:
230,283,99461,1,2,0:0:0:0:
230,283,99541,2,0,P|242:218|257:178,1,102.37500039053,2|0,1:2|0:0,0:0:0:0:
131,314,99780,2,0,P|119:249|104:209,1,102.37500039053,2|0,1:2|0:0,0:0:0:0:
228,369,100019,6,0,B|320:354|266:303|378:293,1,153.562500585794,10|0,0:0|0:0,0:0:0:0:
418,346,100339,1,2,1:2:0:0:
322,151,100498,2,0,P|327:198|307:243,1,76.1250006388664,10|0,0:0|0:0,0:0:0:0:
511,61,100817,6,0,P|479:33|424:46,1,76.1250006388664,2|0,1:2|1:2,0:0:0:0:
254,184,101136,2,0,P|332:198|427:216,1,153.562500585794,10|0,0:0|0:0,0:0:0:0:
416,220,101456,6,0,P|377:236|374:340,1,152.250001277733,2|10,1:2|0:0,0:0:0:0:
224,86,101934,5,2,0:0:0:0:
224,86,102014,1,2,0:0:0:0:
224,86,102094,2,0,P|249:153|255:202,1,102.37500039053,2|0,1:2|0:0,0:0:0:0:
370,70,102333,2,0,P|345:137|339:186,1,102.37500039053,2|0,1:2|0:0,0:0:0:0:
232,4,102573,6,0,B|173:13|173:13|150:41|150:41|58:58,1,153.562500585794,10|0,0:0|0:0,0:0:0:0:
27,8,102892,1,2,1:2:0:0:
108,183,103051,1,10,0:0:0:0:
145,115,103211,1,2,0:0:0:0:
2,199,103370,1,2,1:2:0:0:
185,309,103530,1,0,1:2:0:0:
61,118,103690,1,10,0:0:0:0:
0,324,103849,1,8,0:0:0:0:
0,324,103929,1,8,0:0:0:0:
0,324,104009,6,0,B|95:310|31:263|158:251,1,152.250001277733,2|8,1:2|0:0,0:0:0:0:
280,49,104487,5,2,0:0:0:0:
280,49,104567,1,2,0:0:0:0:
280,49,104647,2,0,P|258:116|261:185,1,102.37500039053,2|0,1:2|0:0,0:0:0:0:
79,138,104886,2,0,P|148:122|206:84,1,102.37500039053,2|0,1:2|0:0,0:0:0:0:
301,287,105125,6,0,P|257:229|159:205,1,153.562500585794,10|0,0:0|0:0,0:0:0:0:
126,255,105445,1,2,1:2:0:0:
256,147,105605,2,0,P|310:137|345:120,1,76.1250006388664,10|0,0:0|0:0,0:0:0:0:
201,352,105924,6,0,P|165:338|127:333,1,76.1250006388664,2|0,1:2|0:0,0:0:0:0:
363,206,106243,2,0,P|356:280|348:367,1,140.437495714188,10|0,0:0|0:0,0:0:0:0:
360,365,106562,6,0,P|403:343|442:348,1,76.1250006388664,2|0,1:2|0:0,0:0:0:0:
281,245,106881,1,10,0:0:0:0:
509,135,107041,5,2,0:0:0:0:
509,135,107120,1,2,0:0:0:0:
509,135,107200,2,0,P|502:209|497:268,1,102.37500039053,2|0,1:2|1:2,0:0:0:0:
498,261,107440,2,0,P|472:249|447:249,1,51.1875001952648,2|8,0:0|0:0,0:0:0:0:
315,65,107679,6,0,P|371:67|399:167,1,153.562500585794,2|0,1:2|0:0,0:0:0:0:
363,206,107998,1,2,1:2:0:0:
488,14,108158,5,10,0:0:0:0:
264,147,108317,1,0,1:2:0:0:
498,261,108477,1,10,0:0:0:0:
264,147,108636,6,0,P|240:157|206:166,1,38.0625003194332,8|8,0:0|0:0,0:0:0:0:
124,272,108796,1,8,0:0:0:0:
133,329,108876,1,8,0:0:0:0:
183,356,108956,1,8,0:0:0:0:
236,336,109035,1,8,0:0:0:0:
209,264,109115,6,0,B|99:275|181:330|38:344,1,178.500001089478,6|8,1:2|0:0,0:0:0:0:
217,176,109594,1,2,0:0:0:0:
111,91,109753,1,2,1:2:0:0:
209,264,109913,1,2,1:2:0:0:
320,78,110073,1,8,0:0:0:0:
127,202,110232,6,0,B|81:195|81:195|63:172|63:172|10:163,1,120.749995946503,6|0,1:2|0:0,0:0:0:0:
0,93,110551,2,0,P|9:49|36:25,1,80.4999972976685,2|8,1:2|0:0,0:0:0:0:
217,176,110870,2,0,P|207:221|201:262,1,80.4999972976685,2|0,0:0|1:2,0:0:0:0:
111,91,111190,1,2,1:2:0:0:
280,252,111349,2,0,P|330:233|382:225,1,80.4999972976685,8|0,0:0|0:0,0:0:0:0:
512,68,111668,6,0,P|482:16|419:23,1,120.749995946503,6|0,1:2|0:0,0:0:0:0:
369,62,111987,2,0,P|381:121|384:160,1,80.4999972976685,10|2,0:0|0:0,0:0:0:0:
242,15,112307,6,0,P|218:23|191:30,1,53.3749978010178,0|0,1:2|0:0,0:0:0:0:
387,158,112466,2,0,B|425:166|425:166|430:172|430:172|485:184,1,80.4999972976685,10|0,0:0|0:0,0:0:0:0:
254,340,112785,6,0,P|233:284|246:246,1,89.2500005447388,6|0,1:2|0:0,0:0:0:0:
105,272,113105,2,0,P|142:225|182:218,1,89.2500005447388,6|0,1:2|0:0,0:0:0:0:
242,15,113424,6,0,P|268:64|274:110,1,98.0000011962891,6|0,1:2|0:0,0:0:0:0:
445,80,113744,2,0,P|418:126|376:166,1,98.0000011962891,6|0,1:2|0:0,0:0:0:0:
240,287,114062,5,8,0:0:0:0:
229,270,114142,1,8,0:0:0:0:
239,257,114222,2,0,P|309:266|417:297,1,160.999994595337,6|8,1:2|0:0,0:0:0:0:
274,105,114700,2,0,P|288:48|291:2,1,80.4999972976685,2|0,0:0|1:2,0:0:0:0:
386,157,115019,1,2,1:2:0:0:
239,257,115179,5,10,0:0:0:0:
462,158,115339,2,0,B|352:172|431:214|321:236,1,160.999994595337,6|0,1:2|1:0,0:0:0:0:
158,139,115817,1,8,0:0:0:0:
109,276,115977,6,0,P|123:336|126:372,1,80.4999972976685,2|0,0:0|1:2,0:0:0:0:
272,184,116296,1,2,1:2:0:0:
239,257,116456,1,10,0:0:0:0:
80,169,116615,1,0,0:0:0:0:
287,72,116775,6,0,B|326:37|372:51|372:51|394:83|446:84,1,147.000001794434,6|0,1:2|0:0,0:0:0:0:
494,60,117094,2,0,P|499:90|479:121,1,49.0000005981445,10|0,0:0|0:0,0:0:0:0:
415,270,117253,1,0,1:2:0:0:
435,2,117413,5,10,0:0:0:0:
406,287,117573,2,0,B|362:295|362:295|354:305|354:305|312:315,1,98.0000011962891,10|0,0:0|1:2,0:0:0:0:
123,61,117892,5,14,0:0:0:0:
56,337,118051,1,0,1:2:0:0:
123,61,118211,2,0,B|237:89|237:89|251:134|216:152|183:143,1,196.000002392578,14|8,0:0|0:0,0:0:0:0:
143,197,118610,5,8,0:0:0:0:
143,197,118690,2,0,P|106:187|74:183,1,49.0000005981445,8|8,0:0|0:0,0:0:0:0:
243,12,118849,2,0,P|267:7|290:0,1,49.0000005981445,8|0,3:0|1:2,0:0:0:0:
423,194,119009,5,4,3:0:0:0:
403,192,119089,1,4,3:0:0:0:
383,191,119168,1,4,3:0:0:0:
363,190,119248,1,4,3:0:0:0:
345,189,119328,6,0,B|229:203|302:267|184:286,1,187.249994285584,6|10,1:2|0:0,0:0:0:0:
11,124,119807,2,0,B|52:128|52:128|63:144|63:144|104:149,1,93.6249971427918,2|0,0:0|1:2,0:0:0:0:
278,62,120126,5,2,0:2:0:0:
211,20,120285,2,0,B|184:59|155:92|155:92|179:136|208:213,1,187.249994285584,10|0,0:0|1:2,0:0:0:0:
411,232,120764,1,2,0:0:0:0:
354,292,120924,2,0,P|331:246|340:195,1,93.6249971427918,10|0,0:0|0:0,0:0:0:0:
420,63,121243,5,2,1:2:0:0:
454,130,121402,1,0,1:2:0:0:
316,71,121562,5,10,0:0:0:0:
494,0,121722,1,2,0:0:0:0:
344,188,121881,6,0,P|291:178|206:165,1,140.437495714188,2|0,1:2|0:0,0:0:0:0:
187,175,122200,1,10,0:0:0:0:
367,286,122360,1,2,0:0:0:0:
367,286,122440,1,2,0:0:0:0:
367,286,122519,1,2,1:2:0:0:
177,376,122679,1,0,1:2:0:0:
291,249,122839,6,0,P|284:281|279:321,1,46.8124985713959,10|2,0:0|0:0,0:0:0:0:
115,237,122998,2,0,P|111:213|105:191,1,46.8124985713959,2|2,0:0|0:0,0:0:0:0:
270,36,123158,6,0,B|308:39|308:39|323:52|323:52|377:58,1,93.6249971427918,2|0,1:2|1:2,0:0:0:0:
194,250,123477,2,0,P|190:226|175:147,1,93.6249971427918,10|0,0:0|0:0,0:0:0:0:
367,286,123796,5,2,1:2:0:0:
423,142,123956,1,0,1:2:0:0:
298,316,124115,2,0,B|389:313|337:372|446:365,1,140.437495714188,10|0,0:0|0:0,0:0:0:0:
499,333,124434,6,0,P|487:277|487:229,1,93.6249971427918,6|0,1:2|0:0,0:0:0:0:
423,365,124753,1,10,0:0:0:0:
279,195,124913,2,0,P|291:139|291:91,1,93.6249971427918,2|0,0:0|1:2,0:0:0:0:
360,242,125232,5,2,1:2:0:0:
151,81,125392,2,0,B|217:72|217:72|247:33|247:33|318:25,1,187.249994285584,10|0,0:0|1:2,0:0:0:0:
193,198,125870,1,0,1:2:0:0:
127,10,126030,5,10,0:0:0:0:
279,195,126190,2,0,P|270:286|263:389,1,187.249994285584,2|0,0:0|1:2,0:0:0:0:
91,252,126668,2,0,P|116:201|203:206,1,140.437495714188,10|0,0:0|0:0,0:0:0:0:
90,274,126987,6,0,P|45:259|-3:253,1,93.6249971427918,2|0,1:2|0:0,0:0:0:0:
192,197,127307,1,10,0:0:0:0:
20,56,127466,2,0,P|66:50|110:35,1,93.6249971427918,2|0,0:0|1:2,0:0:0:0:
0,176,127785,5,0,1:2:0:0:
239,11,127945,2,0,P|190:59|191:179,1,187.249994285584,10|0,0:0|1:2,0:0:0:0:
321,46,128424,1,0,1:2:0:0:
90,184,128583,1,14,0:0:0:0:
90,184,128902,5,8,0:0:0:0:
90,184,128982,1,8,0:0:0:0:
90,184,129062,2,8,P|99:220|103:253,1,46.8124985713959
278,136,129222,2,8,P|282:113|288:90,1,46.8124985713959
98,0,129381,2,8,P|107:36|111:69,1,46.8124985713959
247,234,129541,6,0,P|299:210|357:216,1,93.6249971427918,6|0,1:2|0:0,0:0:0:0:
185,144,129860,1,10,0:0:0:0:
423,42,130019,2,0,P|376:39|335:17,1,93.6249971427918,2|0,0:0|1:2,0:0:0:0:
469,182,130339,5,2,0:0:0:0:
323,8,130498,2,0,P|263:35|283:151,1,187.249994285584,10|0,0:0|1:2,0:0:0:0:
435,278,130977,1,0,0:0:0:0:
268,358,131136,6,0,P|231:344|161:343,1,93.6249971427918,10|0,0:0|0:0,0:0:0:0:
370,233,131456,2,0,P|379:178|341:130,1,93.6249971427918,2|0,1:2|0:0,0:0:0:0:
195,24,131775,1,10,0:0:0:0:
182,103,131934,5,2,0:0:0:0:
182,103,132014,1,2,0:0:0:0:
182,103,132094,2,0,B|239:94|239:94|261:73|261:73|328:62,1,140.437495714188,2|0,1:2|0:0,0:0:0:0:
331,57,132413,1,10,0:0:0:0:
167,229,132573,2,0,P|178:270|182:324,1,93.6249971427918,2|0,0:0|1:2,0:0:0:0:
92,156,132892,5,2,0:0:0:0:
270,280,133051,2,0,B|313:246|358:256|358:256|373:276|419:281,1,140.437495714188,10|0,0:0|0:0,0:0:0:0:
473,242,133370,6,0,P|496:196|472:142,1,93.6249971427918,0|0,1:2|0:0,0:0:0:0:
397,277,133690,1,10,0:0:0:0:
282,70,133849,5,2,0:0:0:0:
282,70,133929,1,2,0:0:0:0:
282,70,134009,2,0,P|363:86|361:160,1,140.437495714188,2|2,1:2|0:0,0:0:0:0:
333,201,134328,1,8,0:0:0:0:
496,64,134487,1,2,0:0:0:0:
333,201,134647,6,0,P|292:209|239:226,1,93.6249971427918,6|0,1:2|0:0,0:0:0:0:
91,144,134966,1,10,0:0:0:0:
167,345,135126,2,0,B|144:307|116:272|116:272|149:233|183:181,1,187.249994285584,2|0,0:0|0:0,0:0:0:0:
167,345,135605,1,10,0:0:0:0:
91,144,135764,6,0,P|49:163|-4:162,1,93.6249971427918,2|0,0:0|1:2,0:0:0:0:
246,344,136083,2,0,P|292:344|334:363,1,93.6249971427918,2|8,0:0|0:0,0:0:0:0:
265,141,136402,5,2,0:0:0:0:
124,273,136562,1,0,1:2:0:0:
275,130,136722,2,0,P|287:74|279:24,1,93.6249971427918,2|8,0:0|0:0,0:0:0:0:
388,208,137041,1,2,0:0:0:0:
187,52,137200,6,0,P|133:56|115:152,1,140.437495714188,6|0,1:2|0:0,0:0:0:0:
145,192,137519,1,10,0:0:0:0:
297,32,137679,2,0,P|355:60|393:58,1,93.6249971427918,2|0,0:0|1:2,0:0:0:0:
187,52,137998,5,2,0:0:0:0:
388,208,138158,2,0,B|339:222|339:222|322:260|322:260|268:277,1,140.437495714188,10|0,0:0|0:0,0:0:0:0:
259,289,138477,5,2,1:2:0:0:
345,138,138636,1,2,0:0:0:0:
411,334,138796,5,10,0:0:0:0:
266,182,138956,1,0,1:2:0:0:
490,97,139115,5,10,0:0:0:0:
388,208,139275,1,0,1:2:0:0:
332,2,139434,5,10,0:0:0:0:
489,205,139594,1,0,1:2:0:0:
259,289,139753,5,10,0:0:0:0:
490,97,139913,2,0,P|480:149|472:212,1,93.6249971427918,10|0,0:0|1:2,0:0:0:0:
408,354,140232,5,10,0:0:0:0:
221,96,140392,2,0,P|231:148|239:211,1,93.6249971427918,10|0,0:0|1:2,0:0:0:0:
178,342,140711,5,10,0:0:0:0:
383,62,140870,2,0,P|373:114|365:177,1,93.6249971427918,10|0,0:0|1:2,0:0:0:0:
280,290,141190,5,10,0:0:0:0:
105,80,141349,2,0,P|115:132|123:195,1,93.6249971427918,10|0,0:0|1:2,0:0:0:0:
41,357,141668,5,10,0:0:0:0:
236,188,141828,1,0,1:2:0:0:
16,147,141987,5,10,0:0:0:0:
178,293,142147,1,0,1:2:0:0:
231,83,142307,5,6,1:2:0:0:
231,83,142626,6,0,B|273:86|273:86|285:98|285:98|339:104,1,93.6249971427918,10|0,0:0|1:2,0:0:0:0:
426,247,142945,1,8,0:3:0:0:
503,88,143105,1,4,0:3:0:0:
434,118,143264,1,4,0:3:0:0:
497,291,143424,5,6,1:2:0:0:
143,153,144860,5,2,0:0:0:0:
22,247,154115,6,0,B|24:284|24:284|31:291|31:291|34:334,2,82.2499987449646,2|2|2,0:0|0:0|0:0,0:0:0:0:
165,66,155073,6,0,P|197:96|196:125,1,68.2499995834351,6|0,1:2|0:0,0:0:0:0:
121,126,155392,6,0,P|193:89|366:63,1,238.875008018875,14|0,0:0|0:0,0:0:0:0:
469,287,155711,6,0,B|475:241|475:241|468:234|468:234|474:188,1,102.37500039053,2|0,1:2|0:0,0:0:0:0:
306,147,155950,2,0,B|343:175|343:175|353:173|353:173|390:200,1,102.37500039053,2|0,1:2|0:0,0:0:0:0:
512,78,156190,2,0,B|469:96|469:96|466:105|466:105|424:123,1,102.37500039053,10|0,0:0|0:0,0:0:0:0:
424,124,156509,5,2,1:2:0:0:
295,271,156668,2,0,P|255:267|227:233,1,76.1250006388664,10|0,0:0|0:0,0:0:0:0:
213,27,156987,5,2,1:2:0:0:
273,75,157147,1,0,1:2:0:0:
116,153,157307,5,10,0:0:0:0:
122,77,157466,1,2,0:0:0:0:
122,77,157546,1,2,0:0:0:0:
122,77,157626,2,0,B|214:88|154:150|276:158,1,152.250001277733,2|8,1:2|0:0,0:0:0:0:
110,334,158105,5,2,0:0:0:0:
110,334,158184,1,2,0:0:0:0:
110,334,158264,2,0,B|102:293|102:293|92:283|92:283|86:245,1,93.6249971427918,2|0,1:2|0:0,0:0:0:0:
235,174,158503,2,0,B|203:201|203:201|199:214|199:214|170:238,1,93.6249971427918,2|0,1:2|0:0,0:0:0:0:
31,147,158743,2,0,B|70:160|70:160|83:157|83:157|119:171,1,93.6249971427918,10|0,0:0|0:0,0:0:0:0:
119,171,159062,5,0,1:2:0:0:
355,118,159222,1,10,0:0:0:0:
129,20,159381,1,0,1:2:0:0:
355,118,159541,6,0,B|408:123|408:123|438:151|438:151|513:160,1,140.437495714188,10|0,0:0|0:0,0:0:0:0:
468,81,159860,6,0,P|425:85|392:213,1,173.249999471283,6|0,1:2|0:0,0:0:0:0:
336,291,160179,6,0,P|307:276|269:289,1,68.2499995834351,6|0,1:2|0:0,0:0:0:0:
301,356,160498,6,0,P|302:275|251:109,1,238.875008018875,14|2,0:0|0:0,0:0:0:0:
168,36,160817,6,0,B|160:79|160:79|165:89|165:89|156:142,1,93.6249971427918,2|0,1:2|0:0,0:0:0:0:
207,249,161057,2,0,B|173:220|173:220|162:219|162:219|121:185,1,93.6249971427918,2|0,1:2|0:0,0:0:0:0:
1,176,161296,2,0,B|42:161|42:161|48:152|48:152|98:133,1,93.6249971427918,10|0,0:0|0:0,0:0:0:0:
84,138,161615,5,0,1:2:0:0:
256,36,161775,2,0,P|319:56|360:55,1,76.1250006388664,10|0,0:0|0:0,0:0:0:0:
463,246,162094,5,2,1:2:0:0:
509,183,162253,1,0,1:2:0:0:
335,133,162413,5,10,0:0:0:0:
359,207,162572,1,2,0:0:0:0:
359,207,162652,1,2,0:0:0:0:
359,207,162732,2,0,B|446:179|381:140|486:108,1,152.250001277733,2|8,1:2|0:0,0:0:0:0:
289,284,163211,5,2,0:0:0:0:
289,284,163291,1,2,0:0:0:0:
289,284,163370,2,0,B|250:257|250:257|239:260|239:260|188:227,1,93.6249971427918,2|0,1:2|0:0,0:0:0:0:
101,358,163610,2,0,B|142:337|142:337|145:326|145:326|200:299,1,93.6249971427918,2|0,1:2|0:0,0:0:0:0:
128,114,163849,6,0,B|123:170|123:170|133:180|133:180|129:255,1,140.437495714188,10|0,0:0|0:0,0:0:0:0:
177,310,164168,1,2,1:2:0:0:
300,111,164328,5,10,0:0:0:0:
283,101,164408,1,2,0:0:0:0:
264,97,164487,1,2,0:0:0:0:
245,101,164567,1,2,0:0:0:0:
230,113,164647,2,0,P|236:141|240:172,1,38.0625003194332,0|0,1:2|0:0,0:0:0:0:
289,284,164807,5,8,0:0:0:0:
329,315,164886,1,8,0:0:0:0:
381,308,164966,1,8,0:0:0:0:
407,260,165046,1,8,0:0:0:0:
456,242,165126,1,8,0:0:0:0:
504,266,165206,1,8,0:0:0:0:
458,333,165285,6,0,P|452:241|452:143,1,178.500001089478,6|8,1:2|0:0,0:0:0:0:
289,284,165764,2,0,P|294:234|292:172,1,89.2500005447388,2|0,0:0|1:2,0:0:0:0:
424,33,166083,1,2,0:0:0:0:
388,99,166243,1,8,0:0:0:0:
248,7,166402,6,0,P|185:33|140:32,1,89.2500005447388,2|0,0:0|1:2,0:0:0:0:
304,127,166722,1,2,0:0:0:0:
149,209,166881,1,10,0:0:0:0:
170,134,167041,1,2,0:0:0:0:
292,286,167200,6,0,P|341:262|390:261,1,89.2500005447388,2|0,1:2|0:0,0:0:0:0:
162,121,167519,2,0,B|167:78|167:78|160:66|160:66|168:4,1,89.2500005447388,10|0,0:0|0:0,0:0:0:0:
4,208,167839,6,0,B|117:211|42:284|167:292,1,178.500001089478,2|10,1:2|0:0,0:0:0:0:
333,130,168317,2,0,P|297:94|248:102,1,89.2500005447388,2|0,0:0|1:2,0:0:0:0:
374,259,168636,1,2,0:0:0:0:
410,190,168796,1,8,0:0:0:0:
234,278,168956,1,2,0:0:0:0:
222,259,169035,1,2,0:0:0:0:
231,238,169115,5,2,1:2:0:0:
392,363,169275,2,0,P|449:341|506:344,1,89.2500005447388,2|8,0:0|0:0,0:0:0:0:
333,130,169594,2,0,P|330:206|316:310,1,178.500001089478,2|0,0:0|0:0,0:0:0:0:
496,175,170073,1,8,0:0:0:0:
466,244,170232,1,2,0:0:0:0:
299,56,170392,6,0,B|238:68|238:68|209:115|209:115|123:131,1,178.500001089478,6|8,1:2|0:0,0:0:0:0:
77,291,170870,1,2,0:0:0:0:
77,291,170950,1,2,0:0:0:0:
77,291,171030,6,0,P|50:230|63:200,1,89.2500005447388,2|0,1:2|0:0,0:0:0:0:
75,200,171269,2,0,L|139:214,1,44.6250002723694,2|8,0:0|0:0,0:0:0:0:
301,161,171509,1,2,0:0:0:0:
286,150,171589,1,2,0:0:0:0:
269,154,171668,6,0,P|263:211|253:305,1,133.875000817108,2|0,1:2|0:0,0:0:0:0:
290,357,171987,1,10,0:0:0:0:
428,248,172147,1,2,0:0:0:0:
290,357,172307,2,0,B|247:365|247:365|243:375|243:375|187:384,1,89.2500005447388,2|0,1:2|0:0,0:0:0:0:
75,200,172626,2,0,P|84:149|84:102,1,89.2500005447388,8|0,0:0|0:0,0:0:0:0:
254,287,172945,6,0,B|304:255|354:281|354:281|363:324|425:337,1,178.500001089478,2|8,1:2|0:0,0:0:0:0:
508,112,173424,2,0,P|498:158|490:221,1,89.2500005447388,2|0,0:0|1:2,0:0:0:0:
299,29,173743,5,2,0:0:0:0:
311,15,173823,1,2,0:0:0:0:
328,16,173902,2,0,P|338:62|359:223,1,178.500001089478,10|0,0:0|1:2,0:0:0:0:
438,15,174381,1,2,0:0:0:0:
252,146,174541,2,0,P|208:133|153:126,1,89.2500005447388,10|8,0:0|0:0,0:0:0:0:
148,114,174780,1,8,0:0:0:0:
148,114,174860,5,8,0:0:0:0:
29,236,175019,1,8,0:3:0:0:
193,276,175179,5,0,1:2:0:0:
145,214,175339,1,8,0:0:0:0:
7,353,175498,6,0,B|48:344|48:344|55:330|55:330|109:321,1,89.2500005447388,6|0,1:2|0:0,0:0:0:0:
252,146,175817,2,0,P|260:206|268:244,1,89.2500005447388,10|8,0:0|0:0,0:0:0:0:
294,306,176057,1,8,0:0:0:0:
294,306,176136,1,8,0:0:0:0:
145,214,176296,1,8,0:0:0:0:
346,165,176456,6,0,P|372:171|397:175,1,44.6250002723694,8|8,0:0|0:0,0:0:0:0:
215,296,176615,2,0,P|193:299|171:305,1,44.6250002723694,8|8,0:0|0:0,0:0:0:0:
376,356,176775,5,0,1:2:0:0:
252,146,176934,1,8,0:0:0:0:
246,124,177014,1,8,0:0:0:0:
260,106,177094,6,0,P|290:102|316:91,1,44.6250002723694,8|8,0:0|0:0,0:0:0:0:
145,214,177253,2,0,P|120:217|101:223,1,44.6250002723694,0|0,1:0|1:0,0:0:0:0:
30,61,177413,5,8,3:0:0:0:
67,49,177492,1,8,3:0:0:0:
104,64,177572,1,4,3:0:0:0:
122,99,177652,1,4,3:0:0:0:
115,138,177732,5,0,1:2:0:0:
98,144,177812,1,0,1:2:0:0:
81,150,177892,1,0,1:2:0:0:
64,155,177972,1,0,1:2:0:0:
47,161,178051,6,0,P|57:225|68:312,1,133.875000817108,6|0,1:2|0:0,0:0:0:0:
44,361,178370,5,10,0:0:0:0:
234,184,178530,1,0,1:2:0:0:
186,281,178690,1,8,3:0:0:0:
47,161,178849,1,0,1:2:0:0:
307,266,179009,1,10,0:0:0:0:
126,381,179168,5,6,1:2:0:0:
490,30,179966,6,0,P|487:75|484:122,1,82.6875020187378,2|0,0:0|0:0,0:0:0:0:
440,171,180605,6,0,B|384:201|335:151|335:151|369:151|401:117,2,160.999994595337,6|8|0,1:2|0:0|1:2,0:0:0:0:
284,244,181402,1,0,1:2:0:0:
380,347,181562,2,0,P|389:279|394:246,1,80.4999972976685,8|0,0:0|0:0,0:0:0:0:
227,58,181881,5,2,1:2:0:0:
293,12,182041,2,0,L|346:30,2,40.2499986488343,2|2|10,1:2|0:0|0:0,0:0:0:0:
181,178,182360,6,0,B|145:184|145:184|137:193|137:193|88:203,1,80.4999972976685,2|0,0:0|1:2,0:0:0:0:
152,23,182679,1,2,1:2:0:0:
247,223,182839,1,10,0:0:0:0:
62,76,182998,2,0,P|64:63|65:51,2,20.1249993244171,2|2|2,0:0|0:0|0:0,0:0:0:0:
152,23,183158,6,0,P|145:76|142:123,1,80.4999972976685,6|0,1:2|0:0,0:0:0:0:
0,258,183477,2,0,B|58:260|58:260|93:294|93:294|173:300,1,160.999994595337,8|0,0:0|1:2,0:0:0:0:
337,186,183956,1,0,1:2:0:0:
142,102,184115,5,10,0:0:0:0:
244,307,184275,2,0,P|243:233|275:117,1,160.999994595337,2|0,0:0|1:2,0:0:0:0:
147,299,184753,5,10,0:0:0:0:
346,168,184913,2,0,B|385:175|385:175|394:184|394:184|434:192,1,80.4999972976685,2|0,0:0|1:2,0:0:0:0:
213,78,185232,2,0,P|225:30|227:-9,1,80.4999972976685,2|8,1:2|0:0,0:0:0:0:
122,177,185551,1,2,0:0:0:0:
328,61,185711,6,0,B|431:46|377:126|499:114,2,160.999994595337,6|8|0,1:2|0:0|1:2,0:0:0:0:
228,227,186509,1,0,1:2:0:0:
204,155,186668,1,8,0:0:0:0:
332,264,186828,6,0,L|321:333,1,49.0000005981445,6|0,1:2|0:0,0:0:0:0:
105,212,187147,6,0,L|116:281,1,49.0000005981445,6|0,1:2|0:0,0:0:0:0:
129,336,187307,1,8,0:0:0:0:
389,133,187466,6,0,L|378:202,1,49.0000005981445,6|0,1:2|0:0,0:0:0:0:
126,70,187785,5,6,1:2:0:0:
228,227,187945,1,8,0:0:0:0:
265,160,188105,1,2,0:0:0:0:
112,260,188264,6,0,P|66:243|16:244,1,80.4999972976685,6|2,1:2|0:0,0:0:0:0:
186,122,188583,1,10,0:0:0:0:
126,70,188743,1,2,0:0:0:0:
218,241,188902,5,2,1:2:0:0:
348,91,189062,2,0,P|336:50|344:-7,1,80.4999972976685,2|8,1:2|0:0,0:0:0:0:
512,259,189381,6,0,B|467:234|407:256|407:256|391:305|334:309,1,196.000002392578,6|2,1:2|1:2,0:0:0:0:
323,300,189780,1,2,0:0:0:0:
323,300,189860,1,10,0:0:0:0:
186,122,190019,5,8,0:0:0:0:
209,113,190099,1,8,0:0:0:0:
231,123,190179,2,0,P|227:149|224:184,1,49.0000005981445,8|8,0:0|3:0,0:0:0:0:
74,287,190339,2,0,P|71:262|67:238,1,49.0000005981445,4|4,3:0|3:0,0:0:0:0:
210,371,190498,6,0,P|238:366|273:361,1,55.1249983177186,14|0,0:0|0:0,0:0:0:0:
340,384,190817,5,14,0:0:0:0:
464,240,190977,1,8,0:0:0:0:
481,224,191057,1,8,0:0:0:0:
474,201,191136,2,0,B|431:195|431:195|416:206|416:206|346:200,1,93.6249971427918,8|8,0:0|0:0,0:0:0:0:
320,163,191376,5,8,0:0:0:0:
320,163,191456,2,0,B|308:138|308:138|326:104,1,46.8124985713959,8|8,0:0|0:0,0:0:0:0:
409,27,191615,1,8,0:0:0:0:
315,243,191775,5,8,0:0:0:0:
272,261,191854,1,8,0:0:0:0:
228,248,191934,1,8,0:0:0:0:
202,210,192014,1,8,0:0:0:0:
206,164,192094,6,0,P|211:136|217:113,1,46.8124985713959,8|8,0:0|0:0,0:0:0:0:
53,212,192253,2,0,P|75:230|92:246,1,46.8124985713959,8|8,0:0|0:0,0:0:0:0:
122,52,192413,1,8,1:2:0:0:
122,52,192493,1,8,0:0:0:0:
122,52,192573,2,0,P|94:62|71:68,1,46.8124985713959,8|8,0:0|0:0,0:0:0:0:
124,154,192732,5,10,0:0:0:0:
331,20,192892,1,8,0:0:0:0:
310,7,192972,1,8,0:0:0:0:
288,16,193051,2,0,P|296:66|303:120,1,93.6249971427918,8|0,0:0|0:0,0:0:0:0:
356,191,193291,5,8,0:0:0:0:
356,191,193370,2,0,B|402:195|402:195|413:207|413:207|471:213,1,93.6249971427918,0|2,1:2|0:0,0:0:0:0:
512,181,193610,1,8,0:0:0:0:
512,181,193690,1,10,0:0:0:0:
330,300,193849,5,8,0:0:0:0:
308,305,193929,1,8,0:0:0:0:
290,288,194009,1,10,0:2:0:0:
439,91,194168,6,0,P|444:116|448:142,1,46.8124985713959,2|0,1:2|0:0,0:0:0:0:
432,314,194328,6,0,P|416:174|387:36,1,280.874991428376,14|2,0:0|1:2,0:0:0:0:
374,18,194886,1,2,0:0:0:0:
374,18,194966,1,10,0:0:0:0:
261,206,195126,5,8,0:0:0:0:
245,224,195206,1,8,0:0:0:0:
221,224,195285,1,8,0:0:0:0:
154,17,195445,5,8,0:0:0:0:
178,17,195524,1,8,0:0:0:0:
197,30,195605,2,0,P|185:86|183:150,1,93.6249971427918,8|0,0:0|0:0,0:0:0:0:
126,217,195844,5,8,0:0:0:0:
126,227,195924,2,0,B|88:220|88:220|80:208|80:208|35:200,1,93.6249971427918,2|0,1:2|0:0,0:0:0:0:
0,140,196163,1,8,0:0:0:0:
0,140,196243,1,8,0:0:0:0:
170,298,196402,6,0,P|166:327|161:352,1,46.8124985713959,10|8,0:0|0:0,0:0:0:0:
261,206,196562,2,0,P|256:182|253:159,2,46.8124985713959,10|8|8,1:2|0:0|0:0,0:0:0:0:
316,264,196801,1,8,0:0:0:0:
319,274,196881,2,0,P|373:284|420:298,1,93.6249971427918,10|0,0:0|0:0,0:0:0:0:
448,168,197120,5,8,0:0:0:0:
504,217,197200,2,0,P|523:163|504:118,1,93.6249971427918,10|8,0:0|0:0,0:0:0:0:
446,89,197440,5,8,0:0:0:0:
446,89,197519,2,0,P|415:99|384:103,1,46.8124985713959,8|8,0:0|0:0,0:0:0:0:
424,279,197679,2,0,P|446:283|468:291,1,46.8124985713959,8|8,0:0|0:0,0:0:0:0:
323,116,197839,6,0,B|283:121|283:121|276:135|276:135|217:144,1,93.6249971427918,10|8,0:0|0:0,0:0:0:0:
165,127,198078,1,8,0:0:0:0:
165,127,198158,1,10,0:0:0:0:
316,264,198317,2,0,P|312:297|309:337,1,46.8124985713959,10|8,0:0|0:0,0:0:0:0:
147,374,198477,5,10,0:0:0:0:
107,355,198583,5,2,0:0:0:0:
79,305,198690,5,2,0:0:0:0:
108,236,198796,5,10,0:0:0:0:
184,209,198902,5,2,0:0:0:0:
238,140,199009,5,2,0:0:0:0:
192,58,199115,5,4,3:0:0:0:
310,310,199275,1,0,1:2:0:0:
464,90,199434,6,0,B|509:163|476:224|476:224|401:194|392:113|392:113|307:57|200:122|183:209|183:209|222:247|293:251|333:207,1,723.187506069231,14|0,0:0|0:0,0:0:0:0:
330,190,201030,5,6,1:2:0:0:
74,129,202307,6,0,P|43:137|4:145,1,53.3749978010178,0|0,1:2|0:0,0:0:0:0:
89,249,202466,6,0,B|141:254|141:254|169:282|169:282|238:287,1,146.999995513916,0|0,1:2|1:2,0:0:0:0:
290,247,203184,1,0,1:2:0:0:
290,247,203264,2,0,P|295:214|301:184,1,55.1249983177186,12|0,0:0|0:0,0:0:0:0:
374,56,203583,6,0,P|425:46|494:158,1,179.375002737045,6|0,1:2|0:0,0:0:0:0:
473,202,204062,1,0,1:2:0:0:
212,88,204222,5,10,0:0:0:0:
392,178,204381,1,10,0:0:0:0:
224,285,204541,1,0,1:2:0:0:
392,178,204700,6,0,B|431:183|431:183|437:196|437:196|503:207,1,89.2500005447388,14|0,0:0|0:0,0:0:0:0:
101,309,205019,6,0,P|98:284|89:257,1,44.6250002723694,10|0,0:0|0:0,0:0:0:0:
245,58,205179,6,0,P|268:67|296:73,1,44.6250002723694,10|0,0:0|0:0,0:0:0:0:
389,296,205339,6,0,P|368:311|349:332,1,44.6250002723694,10|0,0:0|0:0,0:0:0:0:
220,201,205498,6,0,P|252:169|304:185,1,94.500002307129,2|0,0:0|0:0,0:0:0:0:
231,217,205817,6,0,P|226:267|221:306,1,68.2499995834351,2|0,0:0|0:0,0:0:0:0:
190,354,206136,6,0,P|145:334|93:330,1,93.6249971427918,6|0,1:2|0:0,0:0:0:0:
306,262,206456,1,10,0:0:0:0:
145,132,206615,2,0,P|102:151|56:156,1,93.6249971427918,2|0,0:0|1:2,0:0:0:0:
152,262,206934,5,2,1:2:0:0:
31,69,207094,2,0,P|26:131|6:267,1,187.249994285584,10|0,0:0|1:2,0:0:0:0:
205,93,207573,1,0,1:2:0:0:
223,284,207732,5,10,0:0:0:0:
142,37,207892,2,0,B|253:36|194:115|327:105,1,187.249994285584,2|0,0:0|1:2,0:0:0:0:
506,15,208370,2,0,P|457:42|450:144,1,140.437495714188,10|0,0:0|0:0,0:0:0:0:
473,191,208690,6,0,B|433:201|433:201|428:212|428:212|380:225,1,93.6249971427918,6|0,1:2|0:0,0:0:0:0:
307,105,209009,1,10,0:0:0:0:
486,276,209168,2,0,P|477:330|473:371,1,93.6249971427918,2|0,0:0|1:2,0:0:0:0:
303,206,209487,1,2,1:2:0:0:
257,369,209647,5,10,0:0:0:0:
473,191,209807,1,0,1:2:0:0:
387,383,209966,5,10,0:0:0:0:
215,169,210126,1,0,1:2:0:0:
97,372,210285,5,10,0:0:0:0:
367,235,210445,1,0,1:2:0:0:
95,88,210605,1,10,0:0:0:0:
270,364,210764,5,8,0:0:0:0:
270,364,210844,1,8,0:0:0:0:
270,364,210924,2,0,P|274:333|282:305,1,46.8124985713959,8|8,0:0|0:0,0:0:0:0:
101,203,211083,2,0,P|106:225|108:249,1,46.8124985713959,8|8,0:0|0:0,0:0:0:0:
272,93,211243,6,0,P|317:115|382:123,1,93.6249971427918,6|0,1:2|0:0,0:0:0:0:
400,40,211562,1,10,0:0:0:0:
190,155,211722,2,0,P|202:211|204:249,1,93.6249971427918,2|0,0:0|1:2,0:0:0:0:
121,106,212041,5,2,0:0:0:0:
292,244,212200,2,0,B|344:204|405:220|405:220|418:260|472:269,1,187.249994285584,8|0,0:0|1:2,0:0:0:0:
474,188,212679,1,0,0:0:0:0:
315,354,212839,2,0,B|276:351|276:351|268:341|268:341|215:333,1,93.6249971427918,10|0,0:0|0:0,0:0:0:0:
190,155,213158,2,0,P|236:152|278:131,1,93.6249971427918,2|0,1:2|0:0,0:0:0:0:
89,284,213477,1,10,0:0:0:0:
73,206,213636,5,2,0:0:0:0:
73,206,213716,1,2,0:0:0:0:
73,206,213796,2,0,B|172:197|117:262|224:245,1,140.437495714188,2|0,1:2|0:0,0:0:0:0:
273,228,214115,1,10,0:0:0:0:
115,93,214275,2,0,P|125:32|127:-6,1,93.6249971427918,2|0,0:0|1:2,0:0:0:0:
21,145,214594,5,2,0:0:0:0:
233,30,214753,2,0,P|282:48|390:63,1,140.437495714188,10|0,0:0|0:0,0:0:0:0:
442,25,215073,6,0,P|395:79|404:163,1,140.437495714188,0|2,1:2|0:0,0:0:0:0:
411,155,215392,1,8,0:0:0:0:
298,313,215551,5,2,0:0:0:0:
298,313,215631,1,2,0:0:0:0:
298,313,215711,2,0,B|249:301|249:301|226:268|226:268|145:254,1,140.437495714188,2|2,1:2|0:0,0:0:0:0:
108,291,216030,1,8,0:0:0:0:
298,231,216190,1,2,0:0:0:0:
108,291,216349,6,0,P|119:343|123:387,1,93.6249971427918,6|0,1:2|0:0,0:0:0:0:
192,168,216668,1,10,0:0:0:0:
334,379,216828,2,0,P|337:327|368:188,1,187.249994285584,2|0,0:0|0:0,0:0:0:0:
421,88,217307,1,10,0:0:0:0:
265,236,217466,6,0,P|220:257|175:259,1,93.6249971427918,2|0,0:0|1:2,0:0:0:0:
304,5,217785,2,0,B|307:48|307:48|316:58|316:58|321:120,1,93.6249971427918,2|8,0:0|0:0,0:0:0:0:
425,337,218105,5,2,0:0:0:0:
497,138,218264,1,0,1:2:0:0:
423,351,218424,2,0,P|469:354|511:374,1,93.6249971427918,2|8,0:0|0:0,0:0:0:0:
297,165,218743,1,2,0:0:0:0:
492,218,218902,6,0,B|405:221|459:274|342:276,1,140.437495714188,6|0,1:2|0:0,0:0:0:0:
295,254,219222,1,10,0:0:0:0:
430,93,219381,2,0,P|416:48|412:1,1,93.6249971427918,2|0,0:0|1:2,0:0:0:0:
492,218,219700,5,2,0:0:0:0:
295,17,219860,2,0,P|290:63|261:198,1,140.437495714188,10|0,0:0|0:0,0:0:0:0:
280,174,220179,5,2,1:2:0:0:
122,36,220339,1,0,1:2:0:0:
49,264,220498,5,10,0:0:0:0:
170,136,220658,1,2,1:2:0:0:
225,331,220817,5,2,1:2:0:0:
0,178,220977,1,8,0:0:0:0:
40,147,221056,1,8,0:0:0:0:
92,154,221136,1,8,0:0:0:0:
118,202,221216,1,8,0:0:0:0:
167,220,221296,1,8,0:0:0:0:
215,196,221376,1,8,0:0:0:0:
231,185,221456,6,0,B|274:190|274:190|287:203|287:203|340:210,1,93.6249971427918,2|0,1:2|1:2,0:0:0:0:
181,56,221775,5,10,0:0:0:0:
348,294,221934,2,0,P|352:222|381:134,1,140.437495714188,2|0,1:2|0:0,0:0:0:0:
419,102,222253,1,0,1:2:0:0:
226,329,222413,5,10,0:0:0:0:
94,64,222573,2,0,P|113:131|116:201,1,140.437495714188,2|0,1:2|0:0,0:0:0:0:
78,269,222892,5,10,0:0:0:0:
276,75,223051,2,0,P|236:42|195:49,1,93.6249971427918,2|0,1:2|1:2,0:0:0:0:
332,269,223370,5,10,0:0:0:0:
419,102,223530,1,0,1:2:0:0:
188,245,223690,5,10,0:0:0:0:
430,359,223849,1,0,1:2:0:0:
298,75,224009,6,0,B|293:117|293:117|299:125|299:125|293:182,1,93.6249971427918,14|0,0:0|1:2,0:0:0:0:
362,201,224248,1,8,3:0:0:0:
362,201,224328,2,0,P|390:190|422:184,1,46.8124985713959,0|0,1:2|1:2,0:0:0:0:
262,243,224487,6,0,B|267:285|267:285|261:293|261:293|267:350,1,93.6249971427918,14|0,0:0|1:2,0:0:0:0:
198,380,224726,1,8,3:0:0:0:
198,380,224806,2,0,P|170:369|138:363,1,46.8124985713959,0|0,1:2|1:2,0:0:0:0:
0,196,224966,6,0,P|42:158|85:168,1,93.6249971427918,14|0,0:0|1:2,0:0:0:0:
131,218,225206,1,8,3:0:0:0:
131,218,225285,2,0,L|118:291,1,46.8124985713959,0|0,1:2|1:2,0:0:0:0:
278,75,225445,6,0,P|236:37|193:47,1,93.6249971427918,14|0,0:0|1:2,0:0:0:0:
147,97,225685,1,8,3:0:0:0:
147,97,225764,2,0,L|160:170,1,46.8124985713959,0|0,1:2|1:2,0:0:0:0:
66,18,225924,5,10,0:0:0:0:
237,200,226083,1,0,1:2:0:0:
237,200,226163,1,0,1:2:0:0:
237,200,226243,2,0,B|288:191|288:191|310:164|310:164|383:156,1,140.437495714188,6|0,1:2|0:0,0:0:0:0:
448,216,226562,5,14,0:0:0:0:
476,251,226641,1,8,0:0:0:0:
472,297,226721,1,8,0:0:0:0:
437,326,226801,1,8,0:0:0:0:
420,335,226881,2,0,L|365:325,1,46.8124985713959,8|8,0:0|0:0,0:0:0:0:
237,200,227041,5,14,0:0:0:0:
208,164,227120,1,8,0:0:0:0:
212,118,227200,1,8,0:0:0:0:
247,89,227280,1,8,0:0:0:0:
265,81,227360,2,0,L|320:91,1,46.8124985713959,8|8,0:0|0:0,0:0:0:0:
277,284,227519,5,14,0:0:0:0:
237,315,227598,1,8,0:0:0:0:
185,308,227679,1,8,0:0:0:0:
172,289,227758,1,8,0:0:0:0:
123,271,227838,1,8,0:0:0:0:
75,295,227918,1,8,0:0:0:0:
59,337,227998,6,0,P|64:361|68:391,1,46.8124985713959,14|8,0:0|0:0,0:0:0:0:
322,220,228158,2,0,P|325:196|330:173,1,46.8124985713959,14|8,0:0|0:0,0:0:0:0:
174,22,228317,5,8,0:0:0:0:
174,22,228397,1,8,0:0:0:0:
174,22,228477,1,8,0:0:0:0:
129,17,228556,1,8,0:0:0:0:
89,41,228636,1,8,0:0:0:0:
71,83,228716,1,8,0:0:0:0:
83,128,228796,5,8,3:0:0:0:
101,125,228876,1,8,3:0:0:0:
119,123,228956,1,4,3:0:0:0:
137,121,229035,1,4,3:0:0:0:
155,118,229115,6,0,B|197:123|197:123|209:137|209:137|262:144,1,93.6249971427918,6|0,1:2|0:0,0:0:0:0:
436,0,229434,1,10,0:0:0:0:
261,65,229594,1,0,1:2:0:0:
455,237,229753,6,0,L|514:216,1,46.8124985713959,10|0,0:0|0:0,0:0:0:0:
365,74,229913,2,0,L|317:33,1,46.8124985713959,10|0,0:0|0:0,0:0:0:0:
270,224,230073,2,0,L|258:285,1,46.8124985713959,10|0,0:0|0:0,0:0:0:0:
473,95,230232,5,6,1:2:0:0:
232,299,231668,6,0,B|186:277|137:295|137:295|121:331|69:333,1,160.999994595337,6|10,1:2|0:0,0:0:0:0:
260,182,232147,1,0,0:0:0:0:
92,99,232307,1,2,1:2:0:0:
134,166,232466,1,2,1:2:0:0:
208,35,232626,5,8,0:0:0:0:
48,180,232785,2,0,P|58:222|63:281,1,80.4999972976685,2|0,1:2|0:0,0:0:0:0:
193,112,233105,5,2,1:2:0:0:
275,250,233264,2,0,P|265:289|260:329,1,80.4999972976685,10|0,0:0|0:0,0:0:0:0:
423,186,233583,5,2,1:2:0:0:
303,89,233743,1,2,1:2:0:0:
423,186,233902,2,0,P|474:188|518:216,1,98.0000011962891,10|0,0:0|0:0,0:0:0:0:
315,11,234222,6,0,B|213:13|262:83|144:80,1,160.999994595337,6|10,1:2|0:0,0:0:0:0:
267,251,234700,1,2,0:0:0:0:
301,182,234860,1,2,1:2:0:0:
232,143,235019,1,2,1:2:0:0:
337,304,235179,5,10,0:0:0:0:
397,155,235339,2,0,P|385:99|382:64,1,80.4999972976685,2|0,1:2|0:0,0:0:0:0:
409,266,235658,5,0,1:2:0:0:
232,143,235817,2,0,P|244:87|247:52,1,80.4999972976685,10|0,0:0|0:0,0:0:0:0:
116,245,236136,6,0,B|79:254|79:254|74:263|74:263|23:275,1,80.4999972976685,2|0,1:2|1:2,0:0:0:0:
126,71,236456,2,0,P|130:118|143:157,1,72.1875022029877,10|0,0:0|0:0,0:0:0:0:
182,206,236775,6,0,B|234:214|234:214|267:251|267:251|342:258,1,160.999994595337,6|10,1:2|0:0,0:0:0:0:
478,156,237253,1,0,0:0:0:0:
305,91,237413,1,2,1:2:0:0:
346,155,237573,1,2,1:2:0:0:
440,17,237732,5,8,0:0:0:0:
267,163,237892,2,0,P|262:214|254:253,1,80.4999972976685,2|0,1:2|0:0,0:0:0:0:
215,72,238211,5,0,1:2:0:0:
405,207,238371,2,0,P|410:258|418:297,1,80.4999972976685,10|0,0:0|0:0,0:0:0:0:
305,91,238690,5,2,1:2:0:0:
179,236,238849,1,0,1:2:0:0:
305,91,239009,2,0,B|347:95|347:95|361:109|361:109|424:117,1,98.0000011962891,10|0,0:0|0:0,0:0:0:0:
146,312,239328,5,6,1:2:0:0:
100,250,239487,2,0,P|109:197|112:160,1,80.4999972976685,0|0,1:2|0:0,0:0:0:0:
25,280,239807,1,0,1:2:0:0:
237,182,239966,5,10,0:0:0:0:
96,88,240126,2,0,P|48:108|-2:114,1,98.0000011962891,2|0,1:2|1:2,0:0:0:0:
153,336,240445,6,0,P|188:316|251:307,1,98.0000011962891,2|0,1:2|0:0,0:0:0:0:
424,197,240764,1,10,0:0:0:0:
233,67,240924,1,0,1:2:0:0:
306,219,241083,1,0,1:2:0:0:
320,225,241163,1,0,1:2:0:0:
335,219,241243,6,0,P|340:179|346:143,1,49.0000005981445,10|0,0:0|0:0,0:0:0:0:
153,336,241402,1,10,0:0:0:0:
