osu file format v14

[General]
AudioFilename: audio.mp3
AudioLeadIn: 0
PreviewTime: 52307
Countdown: 0
SampleSet: Soft
StackLeniency: 0.7
Mode: 0
LetterboxInBreaks: 0
WidescreenStoryboard: 1

[Editor]
Bookmarks: 233902
DistanceSpacing: 0.8
BeatDivisor: 4
GridSize: 8
TimelineZoom: 1.8

[Metadata]
Title:SPEED STAR
TitleUnicode:SPEED STAR
Artist:GARNiDELiA
ArtistUnicode:GARNiDELiA
Creator:HeTo
Version:SAGGIN'S INSANE
Source:劇場版 魔法科高校の劣等生 星を呼ぶ少女
Tags:mahouka koukou no rettousei hoshi o yobu shoujo japanese jrock j-rock rock movie anime gekijouhan Irregular at Magic High School The Girl Who Calls the Stars Saggin
BeatmapID:2757646
BeatmapSetID:1330359

[Difficulty]
HPDrainRate:5.5
CircleSize:3.8
OverallDifficulty:8
ApproachRate:9
SliderMultiplier:1.7
SliderTickRate:1

[Events]
//Background and Video events
0,0,"bg.jpg",0,0
//Break Periods
2,145060,154473
//Storyboard Layer 0 (Background)
//Storyboard Layer 1 (Fail)
//Storyboard Layer 2 (Pass)
//Storyboard Layer 3 (Foreground)
//Storyboard Layer 4 (Overlay)
//Storyboard Sound Samples

[TimingPoints]
605,319.148936170213,4,2,5,40,1,0
1881,-200,4,2,5,40,0,0
6190,-200,4,2,5,40,0,0
6987,-200,4,2,5,60,0,0
7067,-200,4,2,5,100,0,0
8264,-200,4,2,5,60,0,0
9541,-200,4,2,5,60,0,0
9860,-200,4,2,5,45,0,0
10179,-200,4,2,5,50,0,0
10498,-200,4,2,5,55,0,0
10817,-200,4,2,5,65,0,0
12094,-200,4,2,5,50,0,0
15605,-200,4,2,5,50,0,0
15924,-133.333333333333,4,2,5,50,0,0
17200,-90.9090909090909,4,2,5,65,0,0
19753,-90.9090909090909,4,2,5,65,0,0
20551,-90.9090909090909,4,2,5,65,0,0
22307,-90.9090909090909,4,2,5,55,0,0
22626,-111.111111111111,4,2,5,55,0,0
27333,-100,4,2,5,55,0,0
27413,-100,4,2,5,60,0,0
28530,-100,4,2,5,60,0,0
28849,-100,4,2,5,60,0,0
29966,-125,4,2,5,60,0,0
30285,-125,4,2,5,60,0,0
32519,-111.111111111111,4,2,5,60,0,0
35073,-111.111111111111,4,2,5,60,0,0
37626,-100,4,2,5,60,0,0
40179,-125,4,2,5,60,0,0
40498,-125,4,2,5,60,0,0
42094,-100,4,2,5,60,0,0
46003,-100,4,2,5,5,0,0
46083,-100,4,2,5,65,0,0
50392,-100,4,2,5,65,0,0
52945,-90.9090909090909,4,2,5,70,0,1
62519,-90.9090909090909,4,2,5,60,0,1
77041,-90.9090909090909,4,2,5,70,0,0
78477,-90.9090909090909,4,2,5,65,0,0
81030,-90.9090909090909,4,2,5,65,0,0
83583,-90.9090909090909,4,2,5,65,0,0
84222,-90.9090909090909,4,2,5,65,0,0
85019,-90.9090909090909,4,2,5,65,0,0
88690,-111.111111111111,4,2,5,40,0,0
89807,-111.111111111111,4,2,5,40,0,0
90126,-111.111111111111,4,2,5,40,0,0
90285,-111.111111111111,4,2,5,40,0,0
92360,-111.111111111111,4,2,5,40,0,0
93158,-111.111111111111,4,2,5,40,0,0
94913,-111.111111111111,4,2,5,40,0,0
95232,-111.111111111111,4,2,5,40,0,0
95392,-111.111111111111,4,2,5,40,0,0
96349,-111.111111111111,4,2,5,45,0,0
96668,-111.111111111111,4,2,5,50,0,0
96987,-111.111111111111,4,2,5,55,0,0
97307,-111.111111111111,4,2,5,60,0,0
98902,-100,4,2,5,60,0,0
106243,-100,4,2,5,60,0,0
106562,-111.111111111111,4,2,5,60,0,0
108636,-111.111111111111,4,2,5,60,0,0
109115,-100,4,2,5,60,0,0
111030,-100,4,2,5,60,0,0
111987,-100,4,2,5,60,0,0
112386,-100,4,2,5,5,0,0
112466,-100,4,2,5,60,0,0
116775,-100,4,2,5,65,0,0
119328,-90.9090909090909,4,2,5,70,0,1
128902,-90.9090909090909,4,2,5,60,0,1
143424,-90.9090909090909,4,2,5,70,0,0
144860,-90.9090909090909,4,2,5,35,0,0
155073,-250,4,2,5,65,0,0
155312,-250,4,2,5,5,0,0
155392,-66.6666666666667,4,2,5,65,0,0
155631,-66.6666666666667,4,2,5,5,0,0
155711,-90.9090909090909,4,2,5,65,0,0
158264,-83.3333333333333,4,2,5,65,0,0
158743,-250,4,2,5,65,0,0
159780,-250,4,2,5,5,0,0
159860,-83.3333333333333,4,2,5,65,0,0
160099,-83.3333333333333,4,2,5,5,0,0
160179,-250,4,2,5,65,0,0
160418,-250,4,2,5,5,0,0
160498,-66.6666666666667,4,2,5,65,0,0
160737,-66.6666666666667,4,2,5,5,0,0
160817,-83.3333333333333,4,2,5,65,0,0
161296,-250,4,2,5,65,0,0
162094,-90.9090909090909,4,2,5,65,0,0
163370,-250,4,2,5,65,0,0
163849,-83.3333333333333,4,2,5,65,0,0
165285,-90.9090909090909,4,2,5,70,0,0
171509,-90.9090909090909,4,2,5,70,0,0
172945,-90.9090909090909,4,2,5,70,0,0
176296,-90.9090909090909,4,2,5,70,0,0
176456,-90.9090909090909,4,2,5,70,0,0
179168,-90.9090909090909,4,2,5,65,0,0
179966,-133.333333333333,4,2,5,65,0,0
180524,-133.333333333333,4,2,5,5,0,0
180605,-100,4,2,5,65,0,0
180924,-100,4,2,5,65,0,0
181242,-100,4,2,5,65,0,0
183796,-100,4,2,5,65,0,0
184753,-100,4,2,5,65,0,0
185711,-100,4,2,5,65,0,0
186030,-100,4,2,5,65,0,0
186349,-100,4,2,5,65,0,0
190737,-100,4,2,5,5,0,0
190817,-100,4,2,5,60,0,0
193529,-100,4,2,5,60,0,0
194807,-100,4,2,5,60,0,0
198796,-100,4,2,5,60,0,0
199434,-100,4,2,5,65,0,0
201030,-100,4,2,5,55,0,0
203583,-133.333333333333,4,2,5,70,0,0
205498,-133.333333333333,4,2,5,55,0,0
206136,-90.9090909090909,4,2,5,70,0,1
206934,-90.9090909090909,4,2,5,70,0,1
208211,-90.9090909090909,4,2,5,70,0,1
208690,-90.9090909090909,4,2,5,70,0,1
209487,-90.9090909090909,4,2,5,70,0,1
210605,-90.9090909090909,4,2,5,60,0,1
211243,-83.3333333333333,4,2,5,70,0,1
212041,-83.3333333333333,4,2,5,70,0,1
214434,-83.3333333333333,4,2,5,70,0,1
215312,-83.3333333333333,4,2,5,70,0,1
215950,-83.3333333333333,4,2,5,70,0,1
216190,-83.3333333333333,4,2,5,70,0,1
222253,-83.3333333333333,4,2,5,70,0,1
222892,-83.3333333333333,4,2,5,70,0,1
226243,-66.6666666666667,4,2,5,70,0,1
226562,-83.3333333333333,4,2,5,70,0,1
230232,-83.3333333333333,4,2,5,70,0,0
231668,-100,4,2,5,65,0,0
231987,-100,4,2,5,65,0,0
236695,-100,4,2,5,5,0,0
236775,-90.9090909090909,4,2,5,65,0,0

[Colours]
Combo1 : 104,180,255
Combo2 : 192,192,192
Combo3 : 117,117,255
Combo4 : 2,132,249

[HitObjects]
437,55,1243,5,0,0:0:0:0:
426,69,1562,1,0,0:0:0:0:
415,84,1881,2,0,L|430:173,1,85,2|0,0:0|0:0,0:0:0:0:
455,276,2360,2,0,P|446:237|354:211,1,127.5,2|2,0:0|0:0,0:0:0:0:
291,254,2998,1,2,0:0:0:0:
291,254,3078,1,2,0:0:0:0:
291,254,3158,1,2,0:0:0:0:
276,269,3477,5,2,0:0:0:0:
217,331,3636,2,0,B|133:330|180:284|81:287,1,127.5,2|0,0:0|3:0,0:0:0:0:
260,178,4434,2,0,P|318:167|363:159,1,85,2|2,0:0|0:0,0:0:0:0:
413,93,4913,2,0,P|402:141|386:236,1,127.5,2|2,0:0|0:0,0:0:0:0:
384,313,5551,1,2,0:0:0:0:
384,313,5631,1,2,0:0:0:0:
384,313,5711,1,2,0:0:0:0:
294,361,6030,5,2,0:0:0:0:
294,361,6190,2,0,B|207:359|262:313|161:313|161:313|187:327|201:352,1,191.25
290,275,6987,5,6,1:2:0:0:
256,192,7067,12,6,8264,1:2:0:0:
256,192,8344,12,0,9461,0:0:0:0:
239,149,9541,5,6,1:2:0:0:
100,105,9700,1,0,1:2:0:0:
164,193,9860,1,0,1:2:0:0:
214,64,10019,1,0,1:2:0:0:
65,198,10179,1,0,1:2:0:0:
256,261,10339,1,8,0:0:0:0:
93,95,10498,1,8,0:0:0:0:
155,303,10658,1,8,0:0:0:0:
251,162,10817,5,10,0:0:0:0:
102,376,10977,1,10,0:0:0:0:
102,376,12094,5,0,1:2:0:0:
102,376,12413,1,0,1:2:0:0:
102,376,12732,1,0,1:2:0:0:
102,376,13051,1,0,1:2:0:0:
218,282,13370,5,0,1:2:0:0:
218,282,13689,1,0,1:2:0:0:
218,282,14008,1,0,1:2:0:0:
88,199,14327,5,4,1:2:0:0:
88,199,14647,6,0,B|95:238|97:260,1,42.5,0|0,1:2|0:0,0:0:0:0:
184,160,14966,2,0,B|182:169|198:104,1,42.5,0|0,1:2|0:0,0:0:0:0:
88,199,15285,2,0,B|97:260,1,42.5,0|0,1:2|0:0,0:0:0:0:
184,160,15605,2,0,B|182:169|184:138|198:104,1,42.5,0|0,1:2|0:0,0:0:0:0:
329,56,15924,6,0,P|375:44|417:60,1,63.7500024318696,0|0,1:2|0:0,0:0:0:0:
335,171,16243,2,0,P|289:183|247:167,1,63.7500024318696,0|0,1:2|0:0,0:0:0:0:
411,128,16562,5,0,1:2:0:0:
213,248,16722,1,14,0:0:0:0:
213,248,17200,6,0,B|97:247|174:177|30:176,1,187.000005706787,6|8,1:2|0:0,0:0:0:0:
62,261,17679,1,0,0:0:0:0:
198,170,17839,1,2,1:2:0:0:
100,79,17998,1,2,1:2:0:0:
229,0,18158,2,0,P|217:56|208:102,1,93.5000028533936,8|2,0:0|1:2,0:0:0:0:
213,331,18477,6,0,P|268:316|281:195,1,187.000005706787,2|10,0:0|0:0,0:0:0:0:
218,251,18956,1,0,0:0:0:0:
375,214,19115,2,0,P|431:203|475:195,1,93.5000028533936,2|2,1:2|1:2,0:0:0:0:
222,337,19434,2,0,P|166:326|122:318,1,93.5000028533936,10|0,0:0|0:0,0:0:0:0:
323,358,19753,6,0,P|312:298|282:166,1,187.000005706787,6|10,1:2|0:0,0:0:0:0:
124,32,20232,1,2,0:0:0:0:
204,204,20392,1,0,1:2:0:0:
261,25,20551,1,0,1:2:0:0:
92,140,20711,2,0,P|107:197|119:260,1,93.5000028533936,10|0,0:0|1:2,0:0:0:0:
22,202,21030,5,0,0:0:0:0:
216,280,21190,1,2,1:2:0:0:
43,384,21349,2,0,P|33:338|20:293,1,93.5000028533936,10|0,0:0|0:0,0:0:0:0:
186,103,21668,6,0,B|293:87|244:174|373:146,1,187.000005706787,2|10,1:2|0:0,0:0:0:0:
422,57,22147,1,0,0:0:0:0:
333,231,22307,1,6,1:2:0:0:
333,231,22626,6,0,P|346:287|353:337,1,76.4999976654053,10|0,0:0|0:0,0:0:0:0:
260,350,22945,5,0,1:2:0:0:
407,185,23184,5,0,1:2:0:0:
230,55,23424,6,0,P|178:52|132:141,1,152.999995330811,10|2,0:0|1:2,0:0:0:0:
206,197,23902,2,0,P|184:262|156:363,1,152.999995330811,10|0,0:0|1:2,0:0:0:0:
100,262,24381,1,0,1:2:0:0:
245,354,24541,1,10,0:0:0:0:
245,354,24860,6,0,B|350:366|296:305|397:306,1,152.999995330811,0|8,1:2|0:0,0:0:0:0:
463,348,25339,1,0,0:0:0:0:
339,237,25498,5,0,1:2:0:0:
486,101,25737,5,0,1:2:0:0:
254,2,25977,6,0,P|265:69|276:171,1,152.999995330811,10|0,0:0|1:2,0:0:0:0:
207,271,26456,2,0,P|157:261|118:254,1,76.4999976654053,10|2,0:0|0:0,0:0:0:0:
43,116,26775,1,0,1:2:0:0:
141,180,26934,1,0,1:2:0:0:
8,264,27094,1,10,0:0:0:0:
134,99,27253,5,8,0:0:0:0:
134,99,27333,1,8,0:0:0:0:
134,99,27413,2,0,P|186:106|207:219,1,170,2|10,1:2|0:0,0:0:0:0:
107,313,27892,1,4,3:0:0:0:
271,371,28051,2,0,P|327:359|412:345,2,127.5,6|6|10,1:2|1:2|0:0,0:0:0:0:
271,371,28849,5,0,1:2:0:0:
341,177,29009,2,0,P|352:225|363:285,1,85,10|0,0:0|0:0,0:0:0:0:
196,306,29328,2,0,B|147:294|130:250|130:250|81:248|37:284,1,170,2|10,1:2|0:0,0:0:0:0:
136,167,29807,1,0,0:0:0:0:
20,57,29966,6,0,P|31:118|35:150,1,68,2|0,1:2|0:0,0:0:0:0:
136,167,30285,2,0,P|184:152|220:145,1,68,10|2,0:0|0:0,0:0:0:0:
304,83,30605,2,0,P|283:135|310:195,2,102,6|6|10,1:2|1:2|0:0,0:0:0:0:
304,83,31402,5,0,1:2:0:0:
409,161,31562,2,0,P|453:152|484:148,1,68,10|0,0:0|0:0,0:0:0:0:
311,267,31881,2,0,B|217:276|271:218|161:224,1,136,2|10,1:2|0:0,0:0:0:0:
187,223,32519,6,0,P|244:215|349:198,1,152.999995330811,2|10,1:2|0:0,0:0:0:0:
208,137,32998,1,2,0:0:0:0:
395,88,33158,5,2,1:2:0:0:
280,290,33397,5,2,1:2:0:0:
124,97,33636,6,0,P|70:90|29:175,1,152.999995330811,10|0,0:0|1:2,0:0:0:0:
126,278,34115,2,0,P|114:320|103:373,1,76.4999976654053,10|0,0:0|0:0,0:0:0:0:
95,205,34434,2,0,P|143:197|184:217,1,76.4999976654053,2|0,1:2|1:2,0:0:0:0:
280,290,34753,2,0,P|328:298|369:278,1,76.4999976654053,10|0,0:0|0:0,0:0:0:0:
499,360,35073,6,0,P|464:320|503:220,1,152.999995330811,2|10,1:2|0:0,0:0:0:0:
404,149,35551,1,2,0:0:0:0:
504,55,35711,5,2,1:2:0:0:
346,219,35950,5,2,1:2:0:0:
193,56,36190,6,0,B|110:46|131:106|27:91,1,152.999995330811,10|2,0:0|1:2,0:0:0:0:
181,139,36668,2,0,P|171:183|163:222,1,76.4999976654053,10|0,0:0|0:0,0:0:0:0:
43,351,36987,2,0,P|66:313|178:327,1,152.999995330811,2|10,1:2|0:0,0:0:0:0:
383,374,37466,5,8,0:0:0:0:
383,374,37546,1,8,0:0:0:0:
383,374,37626,2,0,P|401:314|439:201,1,170,2|10,1:2|0:0,0:0:0:0:
378,88,38105,1,2,0:0:0:0:
265,218,38264,6,0,P|313:202|333:157,1,85,2|0,1:2|0:0,0:0:0:0:
193,183,38503,6,0,P|182:232|211:272,1,85,2|0,1:2|0:0,0:0:0:0:
260,135,38743,6,0,P|226:107|112:153,1,170,10|0,0:0|1:2,0:0:0:0:
24,268,39222,2,0,P|37:325|44:383,1,85,10|0,0:0|0:0,0:0:0:0:
226,360,39541,2,0,B|341:367|280:300|403:302,1,170,2|10,1:2|0:0,0:0:0:0:
474,229,40019,1,0,0:0:0:0:
348,110,40179,6,0,P|358:157|365:199,1,68,2|0,1:2|0:0,0:0:0:0:
474,229,40498,2,0,P|464:276|457:318,1,68,10|2,0:0|0:0,0:0:0:0:
314,354,40817,2,0,P|276:344|203:331,2,102,2|2|10,1:2|1:2|0:0,0:0:0:0:
314,354,41615,5,0,1:2:0:0:
314,354,41775,1,10,0:0:0:0:
401,307,41934,1,0,0:0:0:0:
219,235,42094,2,0,B|123:212|164:296|40:267,1,170,2|8,1:2|0:0,0:0:0:0:
83,199,42493,1,8,0:0:0:0:
91,179,42573,1,8,0:0:0:0:
98,159,42652,1,8,0:0:0:0:
106,139,42732,6,0,B|150:115|202:111|202:111|218:155|289:155,1,170,6|8,1:2|0:0,0:0:0:0:
276,71,43211,1,2,0:0:0:0:
168,214,43370,1,2,1:2:0:0:
288,342,43530,2,0,P|301:289|316:248,1,85,2|8,1:2|0:0,0:0:0:0:
405,55,43849,6,0,P|460:73|451:190,1,170,6|2,1:2|1:2,0:0:0:0:
311,260,44328,1,8,0:0:0:0:
402,136,44487,2,0,P|391:185|381:236,1,85,2|0,0:0|1:2,0:0:0:0:
245,370,44807,1,2,1:2:0:0:
245,370,44966,2,0,P|236:328|227:286,1,85,10|0,0:0|0:0,0:0:0:0:
179,100,45285,6,0,B|132:43|55:63|55:63|71:83|82:100,1,170,2|10,1:2|0:0,0:0:0:0:
194,218,45764,1,2,0:0:0:0:
302,111,45924,1,0,1:2:0:0:
248,42,46083,5,10,0:0:0:0:
248,42,46402,5,6,1:2:0:0:
65,226,46722,5,6,1:2:0:0:
318,306,47041,5,6,1:2:0:0:
107,53,47360,6,0,P|121:119|132:173,1,85,6|0,1:2|0:0,0:0:0:0:
39,315,47679,1,8,0:0:0:0:
39,315,47759,1,8,0:0:0:0:
39,315,47839,6,0,B|146:325|82:257|222:267,1,170,6|10,1:2|0:0,0:0:0:0:
329,158,48317,2,0,P|271:148|231:143,1,85,2|0,0:0|1:2,0:0:0:0:
107,53,48636,1,2,1:2:0:0:
203,0,48796,1,10,0:0:0:0:
128,155,48956,6,0,P|142:221|166:354,1,170,6|0,1:2|1:2,0:0:0:0:
244,222,49434,1,10,0:0:0:0:
52,121,49594,2,0,P|91:81|203:126,1,170,2|2,0:0|1:2,0:0:0:0:
338,169,50073,2,0,P|328:222|314:310,1,127.5,10|0,0:0|0:0,0:0:0:0:
312,311,50392,5,2,1:2:0:0:
307,331,50711,5,10,0:0:0:0:
301,355,51030,5,10,0:0:0:0:
438,170,51190,1,10,0:0:0:0:
138,256,51509,5,10,0:0:0:0:
430,367,51828,5,10,0:0:0:0:
430,367,52147,5,8,0:0:0:0:
423,333,52227,1,8,0:0:0:0:
415,300,52307,1,8,0:0:0:0:
407,266,52386,1,8,0:0:0:0:
400,232,52466,2,0,L|391:190,1,42.5,8|8,3:0|3:0,0:0:0:0:
270,87,52626,2,0,L|261:45,1,42.5,4|4,3:0|3:0,0:0:0:0:
347,132,52785,5,4,3:0:0:0:
347,132,52865,1,4,3:0:0:0:
347,132,52945,2,0,P|286:171|184:116,1,187.000005706787,6|10,1:2|0:0,0:0:0:0:
0,23,53424,2,0,P|15:86|30:182,1,140.25000428009,2|0,0:0|0:0,0:0:0:0:
30,179,53743,1,2,1:2:0:0:
207,339,53902,6,0,B|243:299|316:283|316:283|326:326|394:343,1,187.000005706787,10|0,0:0|1:2,0:0:0:0:
394,251,54381,1,0,1:2:0:0:
189,126,54541,2,0,P|203:191|212:243,1,93.5000028533936,10|0,0:0|0:0,0:0:0:0:
339,62,54860,2,0,P|275:41|226:23,1,93.5000028533936,2|0,1:2|1:2,0:0:0:0:
298,232,55179,2,0,P|347:187|387:153,1,93.5000028533936,10|0,0:0|0:0,0:0:0:0:
119,57,55498,6,0,B|76:21|-9:26|-9:26|32:48|43:68,1,187.000005706787,2|10,1:2|0:0,0:0:0:0:
188,116,55977,2,0,P|208:64|190:13,1,93.5000028533936,2|2,0:0|1:2,0:0:0:0:
123,187,56296,1,2,1:2:0:0:
321,72,56456,2,0,P|373:83|426:97,1,93.5000028533936,10|2,0:0|0:0,0:0:0:0:
424,97,56695,1,2,0:0:0:0:
424,97,56775,5,2,1:2:0:0:
276,244,56934,1,0,1:2:0:0:
435,201,57094,2,0,B|310:213|382:132|230:148,1,187.000005706787,8|2,0:0|1:2,0:0:0:0:
129,199,57573,1,0,1:2:0:0:
246,332,57732,2,0,P|264:276|285:220,1,93.5000028533936,10|0,0:0|0:0,0:0:0:0:
115,44,58051,6,0,P|51:45|21:162,1,187.000005706787,6|10,1:2|0:0,0:0:0:0:
29,349,58530,2,0,B|95:337|95:337|116:314|116:314|176:303,1,140.25000428009,2|0,0:0|0:0,0:0:0:0:
169,305,58849,1,2,1:2:0:0:
377,166,59009,6,0,B|361:233|337:364,1,187.000005706787,10|0,0:0|1:2,0:0:0:0:
439,293,59487,1,0,1:2:0:0:
278,194,59647,2,0,P|223:181|179:174,1,93.5000028533936,10|2,0:0|0:0,0:0:0:0:
391,78,59966,1,0,1:2:0:0:
274,23,60126,1,0,1:2:0:0:
377,166,60285,2,0,P|432:153|476:146,1,93.5000028533936,10|0,0:0|0:0,0:0:0:0:
160,63,60605,6,0,B|115:28|59:29|59:29|43:73|-7:86,1,187.000005706787,2|10,1:2|0:0,0:0:0:0:
274,23,61083,2,0,P|256:88|245:136,1,93.5000028533936,2|0,0:0|1:2,0:0:0:0:
223,288,61402,1,2,1:2:0:0:
92,152,61562,2,0,B|198:134|156:221|289:196,1,187.000005706787,10|0,0:0|1:2,0:0:0:0:
340,152,62041,1,0,1:2:0:0:
119,232,62200,2,0,P|137:297|148:345,1,93.5000028533936,14|0,0:0|0:0,0:0:0:0:
0,181,62519,1,8,0:0:0:0:
0,181,62599,1,8,0:0:0:0:
0,181,62679,2,0,L|13:122,1,46.7500014266968,8|8,0:0|0:0,0:0:0:0:
133,12,62839,5,8,0:0:0:0:
178,7,62918,1,8,0:0:0:0:
220,28,62998,1,8,0:0:0:0:
243,68,63078,1,8,0:0:0:0:
243,114,63158,6,0,P|304:104|448:84,1,187.000005706787,6|10,1:2|0:0,0:0:0:0:
159,93,63636,2,0,P|175:159|189:233,1,140.25000428009,2|0,0:0|0:0,0:0:0:0:
191,249,63956,1,2,0:0:0:0:
422,283,64115,6,0,P|407:229|272:223,1,187.000005706787,10|0,0:0|1:2,0:0:0:0:
338,281,64594,1,0,0:0:0:0:
440,148,64753,2,0,P|448:102|460:56,1,93.5000028533936,10|0,0:0|0:0,0:0:0:0:
290,205,65073,2,0,P|282:159|269:114,1,93.5000028533936,2|0,1:2|0:0,0:0:0:0:
454,248,65392,2,0,P|441:293|433:339,1,93.5000028533936,10|2,0:0|0:0,0:0:0:0:
190,359,65711,6,0,B|65:353|164:283|-16:280,1,187.000005706787,2|10,1:2|0:0,0:0:0:0:
290,205,66190,2,0,P|354:188|458:166,1,140.25000428009,2|0,0:0|0:0,0:0:0:0:
442,166,66509,1,2,0:0:0:0:
234,283,66668,6,0,P|197:234|246:116,1,187.000005706787,10|0,0:0|1:2,0:0:0:0:
309,83,67147,1,0,0:0:0:0:
119,171,67307,2,0,P|63:154|3:139,1,93.5000028533936,10|2,0:0|0:0,0:0:0:0:
214,31,67626,6,0,P|230:109|238:156,1,93.5000028533936,2|0,1:2|0:0,0:0:0:0:
300,170,67865,6,0,P|316:248|324:295,1,93.5000028533936,2|0,0:0|0:0,0:0:0:0:
269,338,68105,5,2,0:0:0:0:
380,140,68264,6,0,P|436:143|445:266,1,187.000005706787,6|10,1:2|0:0,0:0:0:0:
269,338,68743,2,0,B|246:292|197:280|197:280|159:324|102:321,1,187.000005706787,2|0,0:0|0:0,0:0:0:0:
26,235,69222,1,10,0:0:0:0:
193,117,69381,6,0,B|207:168|207:168|184:218,1,93.5000028533936,2|0,0:0|1:2,0:0:0:0:
23,113,69700,2,0,B|6:76|6:76|20:25,1,93.5000028533936,2|8,0:0|0:0,0:0:0:0:
193,117,70019,2,0,P|248:104|316:91,1,93.5000028533936,2|0,0:0|1:2,0:0:0:0:
196,301,70339,2,0,P|141:288|73:275,1,93.5000028533936,2|8,0:0|0:0,0:0:0:0:
261,182,70658,1,2,0:0:0:0:
93,18,70817,6,0,P|110:105|126:208,1,187.000005706787,6|10,1:2|0:0,0:0:0:0:
303,306,71296,2,0,P|373:284|421:272,1,93.5000028533936,2|0,0:0|1:2,0:0:0:0:
467,218,71615,1,2,0:0:0:0:
267,376,71775,6,0,P|217:327|288:227,1,187.000005706787,10|2,0:0|1:2,0:0:0:0:
414,124,72253,1,2,0:0:0:0:
242,42,72413,2,0,P|251:90|262:159,1,93.5000028533936,10|0,0:0|1:2,0:0:0:0:
80,266,72732,6,0,B|196:282|136:200|267:216,1,187.000005706787,10|10,0:0|0:0,0:0:0:0:
101,186,73211,1,0,1:2:0:0:
328,106,73370,5,10,0:0:0:0:
229,292,73530,2,0,P|244:351|252:401,1,93.5000028533936,10|0,0:0|1:2,0:0:0:0:
101,186,73849,5,10,0:0:0:0:
313,272,74009,2,0,P|362:259|423:248,1,93.5000028533936,10|0,0:0|1:2,0:0:0:0:
229,292,74328,5,10,0:0:0:0:
424,159,74487,2,0,P|409:218|401:268,1,93.5000028533936,10|0,0:0|1:2,0:0:0:0:
497,82,74807,5,10,0:0:0:0:
293,184,74966,2,0,P|244:171|183:160,1,93.5000028533936,10|0,0:0|1:2,0:0:0:0:
27,30,75285,6,0,P|84:47|56:174,1,187.000005706787,10|10,0:0|0:0,0:0:0:0:
14,222,75764,1,0,1:2:0:0:
198,62,75924,6,0,B|303:47|260:133|389:93,1,187.000005706787,6|10,1:2|0:0,0:0:0:0:
507,24,76402,1,8,0:0:0:0:
502,42,76482,1,8,0:0:0:0:
499,60,76562,1,8,0:0:0:0:
401,192,76722,1,8,0:0:0:0:
326,25,76881,1,8,0:0:0:0:
502,209,77041,5,4,1:2:0:0:
131,49,78477,6,0,P|193:46|218:167,1,187.000005706787,6|8,1:2|0:0,0:0:0:0:
101,253,78956,1,0,0:0:0:0:
157,120,79115,1,2,1:2:0:0:
205,255,79275,1,2,1:2:0:0:
56,158,79434,2,0,P|41:99|31:59,1,93.5000028533936,8|2,0:0|1:2,0:0:0:0:
231,148,79753,6,0,B|350:165|287:85|439:100,1,187.000005706787,2|10,0:0|0:0,0:0:0:0:
302,36,80232,1,0,0:0:0:0:
470,151,80392,2,0,P|455:213|445:257,1,93.5000028533936,2|0,1:2|1:2,0:0:0:0:
205,255,80711,2,0,P|220:317|230:361,1,93.5000028533936,10|0,0:0|0:0,0:0:0:0:
109,174,81030,5,6,1:2:0:0:
296,248,81190,1,0,0:0:0:0:
138,372,81349,1,8,0:0:0:0:
280,167,81509,2,0,P|347:176|366:298,1,187.000005706787,2|0,0:0|1:2,0:0:0:0:
226,345,81987,1,10,0:0:0:0:
109,174,82147,6,0,P|124:237|134:285,1,93.5000028533936,0|0,1:2|0:0,0:0:0:0:
201,110,82466,1,2,1:2:0:0:
20,201,82626,1,10,0:0:0:0:
212,263,82785,1,0,0:0:0:0:
6,199,82945,2,0,L|41:86,1,93.5000028533936,2|2,1:2|1:2,0:0:0:0:
243,26,83264,2,0,L|215:115,1,93.5000028533936,10|0,0:0|0:0,0:0:0:0:
306,326,83583,6,0,P|375:330|406:224,1,187.000005706787,6|8,1:2|0:0,1:2:0:0:
315,91,84062,1,0,0:0:0:0:
434,29,84222,1,2,1:2:0:0:
434,29,84381,1,0,1:2:0:0:
339,189,84541,1,10,0:0:0:0:
229,44,84700,6,0,B|125:49|182:120|62:132,1,187.000005706787,6|0,1:2|1:2,0:0:0:0:
218,305,85179,2,0,P|224:258|237:213,1,93.5000028533936,8|0,0:0|0:0,0:0:0:0:
124,251,85498,1,0,1:2:0:0:
295,350,85658,1,8,0:0:0:0:
322,343,85737,1,8,0:0:0:0:
349,338,85817,1,8,0:0:0:0:
376,332,85897,1,8,0:0:0:0:
403,326,85977,1,8,0:0:0:0:
430,320,86057,1,8,0:0:0:0:
457,313,86136,1,0,1:2:0:0:
499,144,86296,5,2,1:2:0:0:
295,62,86456,1,2,1:2:0:0:
373,192,86615,1,2,1:2:0:0:
373,192,86775,1,10,0:0:0:0:
448,42,86934,1,6,1:2:0:0:
448,42,87253,5,2,1:2:0:0:
271,177,87413,1,2,0:0:0:0:
484,276,87573,1,2,0:0:0:0:
444,132,87732,5,8,3:0:0:0:
393,273,87892,1,0,1:2:0:0:
444,132,88051,1,10,0:0:0:0:
303,326,88211,5,6,1:2:0:0:
303,326,88690,6,0,B|199:336|269:275|137:285,1,152.999995330811,0|2,1:2|3:0,0:0:0:0:
99,225,89168,1,2,3:0:0:0:
256,188,89328,2,0,P|259:144|195:96,1,114.749996498108,2|0,3:0|0:0,0:0:0:0:
195,106,89647,1,2,3:0:0:0:
97,30,89807,6,0,P|109:88|114:130,1,76.4999976654053,2|0,3:0|0:0,0:0:0:0:
206,18,90126,1,2,0:3:0:0:
206,18,90285,2,0,P|258:8|310:-1,1,76.4999976654053,2|0,3:0|0:0,0:0:0:0:
383,130,90605,2,0,P|342:105|297:116,1,76.4999976654053,2|2,3:0|3:0,0:0:0:0:
301,120,90844,1,2,3:0:0:0:
301,120,90924,2,0,L|308:176,3,38.2499988327027,2|2|2|2,3:0|3:0|3:0|3:0,0:0:0:0:
421,203,91243,6,0,P|409:256|394:372,1,152.999995330811,2|2,3:0|3:0,0:0:0:0:
395,353,91722,1,2,0:3:0:0:
256,378,91881,2,0,P|201:346|136:359,1,114.749996498108,2|0,3:0|0:0,0:0:0:0:
136,351,92200,1,2,3:0:0:0:
92,197,92360,5,2,3:0:0:0:
92,197,92440,1,2,3:0:0:0:
92,197,92519,2,0,P|138:225|176:227,1,76.4999976654053,2|2,3:0|3:0,0:0:0:0:
316,51,92839,2,0,P|303:107|295:156,1,76.4999976654053,2|0,3:0|0:0,0:0:0:0:
309,287,93158,1,2,3:0:0:0:
373,234,93317,1,2,3:0:0:0:
373,234,93397,1,2,3:0:0:0:
373,234,93477,2,0,P|327:206|287:210,1,76.4999976654053,2|2,3:0|3:0,0:0:0:0:
130,77,93796,6,0,P|143:135|164:261,1,152.999995330811,2|2,3:0|3:0,0:0:0:0:
119,299,94195,1,2,3:0:0:0:
119,299,94275,2,0,L|107:354,1,38.2499988327027,2|2,3:0|3:0,0:0:0:0:
188,369,94434,2,0,P|240:376|291:386,1,76.4999976654053,2|2,3:0|3:0,0:0:0:0:
442,298,94753,1,2,3:0:0:0:
374,251,94913,6,0,P|363:284|364:326,1,76.4999976654053,2|0,3:0|0:0,0:0:0:0:
483,169,95232,1,2,0:3:0:0:
417,123,95392,2,0,P|378:146|319:149,1,76.4999976654053,2|2,3:0|3:0,0:0:0:0:
215,25,95711,2,0,P|257:42|293:90,1,76.4999976654053,2|0,3:0|0:0,0:0:0:0:
288,79,95950,1,2,3:0:0:0:
288,79,96030,1,2,3:0:0:0:
124,235,96190,1,0,0:0:0:0:
155,150,96349,5,0,1:2:0:0:
190,300,96509,1,0,1:2:0:0:
67,172,96668,1,0,1:0:0:0:
210,217,96828,1,8,0:0:0:0:
92,319,96987,5,8,0:0:0:0:
276,271,97147,1,10,0:0:0:0:
67,172,97307,1,10,0:0:0:0:
162,384,97466,1,10,0:0:0:0:
188,384,98902,6,0,B|242:374|260:338|260:338|320:337|350:391,1,170,6|10,1:2|0:0,0:0:0:0:
228,254,99381,1,2,0:0:0:0:
346,179,99541,6,0,P|334:236|321:295,1,85,2|0,1:2|0:0,0:0:0:0:
410,327,99780,6,0,P|418:285|427:243,1,85,2|0,1:2|0:0,0:0:0:0:
435,153,100019,6,0,P|410:112|272:127,1,170,10|2,0:0|1:2,0:0:0:0:
228,254,100498,5,10,0:0:0:0:
228,254,100817,6,0,B|122:266|183:187|44:209,2,170,2|10|2,1:2|0:0|1:2,0:0:0:0:
228,254,101775,5,10,0:0:0:0:
301,168,101934,1,2,0:0:0:0:
186,87,102094,6,0,P|194:128|203:170,1,85,2|0,1:2|0:0,0:0:0:0:
122,235,102333,6,0,P|113:193|104:151,1,85,2|0,1:2|0:0,0:0:0:0:
98,60,102572,6,0,P|153:0|235:8,1,170,10|2,0:0|1:2,0:0:0:0:
394,26,103051,2,0,P|379:85|372:128,1,85,10|2,0:0|0:0,0:0:0:0:
299,252,103370,6,0,B|405:264|344:185|483:207,1,170,2|10,1:2|0:0,0:0:0:0:
251,126,103849,1,8,0:0:0:0:
251,126,103929,1,8,0:0:0:0:
251,126,104009,2,0,B|202:111|184:79|184:79|126:79|91:126,1,170,2|8,1:2|0:0,0:0:0:0:
203,195,104487,1,2,0:0:0:0:
38,298,104647,6,0,P|22:252|37:210,1,85,2|0,1:2|0:0,0:0:0:0:
113,334,104886,6,0,P|81:370|37:378,1,85,2|0,1:2|0:0,0:0:0:0:
112,251,105126,6,0,P|158:259|189:375,1,170,10|2,0:0|1:2,0:0:0:0:
301,255,105605,2,0,P|347:243|399:231,1,85,10|0,0:0|0:0,0:0:0:0:
226,111,105924,2,0,P|169:98|66:80,1,127.5,2|0,1:2|0:0,0:0:0:0:
10,76,106243,2,0,P|54:91|69:153,1,85,10|2,0:0|0:0,0:0:0:0:
73,140,106482,1,2,0:0:0:0:
73,140,106562,6,0,P|62:192|57:248,1,76.4999976654053,2|0,1:2|0:0,0:0:0:0:
179,250,106881,2,0,P|190:302|195:358,1,76.4999976654053,10|2,0:0|0:0,0:0:0:0:
373,338,107200,2,0,P|400:300|486:268,2,114.749996498108,2|2|2,1:2|0:0|1:2,0:0:0:0:
373,338,107998,5,2,1:2:0:0:
286,247,108158,1,10,0:0:0:0:
385,174,108317,1,0,1:2:0:0:
270,334,108477,2,0,L|257:373,3,38.2499988327027,10|8|8|8,0:0|0:0|0:0|0:0,0:0:0:0:
196,222,108796,2,0,L|183:185,3,38.2499988327027,8|8|8|8,0:0|0:0|0:0|0:0,0:0:0:0:
110,280,109115,6,0,P|155:264|300:230,1,170,6|8,1:2|0:0,0:0:0:0:
429,127,109594,1,2,0:0:0:0:
357,305,109753,1,2,1:2:0:0:
238,153,109913,1,2,1:2:0:0:
351,208,110073,1,8,0:0:0:0:
228,352,110232,6,0,B|205:310|156:304|156:304|126:336|66:333,1,170,6|2,1:2|1:2,0:0:0:0:
155,225,110711,1,8,0:0:0:0:
33,142,110870,1,2,0:0:0:0:
33,142,110950,1,2,0:0:0:0:
33,142,111030,2,0,P|43:193|51:248,1,85,0|2,1:2|1:2,0:0:0:0:
260,83,111349,2,0,P|266:41|275:0,1,85,8|0,0:0|0:0,0:0:0:0:
137,125,111668,5,6,1:2:0:0:
79,54,111828,1,0,0:0:0:0:
241,163,111987,1,10,0:0:0:0:
48,225,112147,2,0,P|83:202|155:206,1,85,2|0,0:0|1:2,0:0:0:0:
215,250,112466,5,10,0:0:0:0:
215,250,112785,5,6,1:2:0:0:
393,94,113105,5,6,1:2:0:0:
184,15,113424,5,6,1:2:0:0:
338,253,113743,6,0,P|329:296|323:356,1,85,6|0,1:2|0:0,0:0:0:0:
425,229,114062,5,8,0:0:0:0:
425,229,114142,1,8,0:0:0:0:
425,229,114222,2,0,P|385:182|266:202,1,170,6|8,1:2|0:0,0:0:0:0:
210,322,114700,2,0,P|231:271|218:226,1,85,2|0,0:0|1:2,0:0:0:0:
106,84,115019,1,2,1:2:0:0:
201,158,115179,1,10,0:0:0:0:
1,262,115339,6,0,B|34:226|79:223|79:223|102:263|160:268,1,170,6|0,1:2|1:0,0:0:0:0:
28,154,115817,1,8,0:0:0:0:
244,75,115977,2,0,B|133:85|195:24|75:29,1,170,2|2,0:0|1:2,0:0:0:0:
210,185,116456,2,0,P|263:156|369:148,1,127.5,10|0,0:0|0:0,0:0:0:0:
347,143,116775,5,6,1:2:0:0:
364,148,117094,5,10,0:0:0:0:
381,153,117413,5,10,0:0:0:0:
215,286,117573,1,10,0:0:0:0:
328,61,117892,5,14,0:0:0:0:
419,283,118211,5,14,0:0:0:0:
419,283,118530,5,8,0:0:0:0:
386,271,118610,1,8,0:0:0:0:
353,259,118690,1,8,0:0:0:0:
321,247,118769,1,8,0:0:0:0:
289,234,118849,2,0,L|237:214,1,42.5,8|0,3:0|1:2,0:0:0:0:
123,155,119009,2,0,L|83:170,1,42.5,4|4,3:0|3:0,0:0:0:0:
185,76,119168,5,4,3:0:0:0:
185,76,119248,1,4,3:0:0:0:
185,76,119328,2,0,B|308:101|245:16|389:42,1,187.000005706787,6|10,1:2|0:0,0:0:0:0:
495,219,119807,2,0,P|447:205|419:117,1,140.25000428009,2|0,0:0|0:0,0:0:0:0:
422,110,120126,1,2,0:2:0:0:
213,189,120285,6,0,P|228:256|246:383,1,187.000005706787,10|0,0:0|1:2,0:0:0:0:
149,296,120764,1,2,0:0:0:0:
331,380,120924,2,0,P|373:353|437:345,1,93.5000028533936,10|0,0:0|0:0,0:0:0:0:
305,203,121243,2,0,P|249:193|193:187,1,93.5000028533936,2|0,1:2|1:2,0:0:0:0:
342,43,121562,2,0,P|398:33|454:27,1,93.5000028533936,10|0,0:0|0:0,0:0:0:0:
212,188,121881,6,0,P|200:130|71:100,1,187.000005706787,2|10,1:2|0:0,0:0:0:0:
146,294,122360,2,0,P|215:278|299:264,1,140.25000428009,2|0,0:0|0:0,0:0:0:0:
298,264,122679,1,0,1:2:0:0:
486,135,122839,2,0,P|471:200|460:252,1,93.5000028533936,10|2,0:0|0:0,0:0:0:0:
464,244,123078,1,2,0:0:0:0:
464,244,123158,5,2,1:2:0:0:
314,350,123317,1,0,1:2:0:0:
366,184,123477,2,0,P|381:249|407:386,1,187.000005706787,10|2,0:0|1:2,0:0:0:0:
464,244,123956,1,0,1:2:0:0:
281,182,124115,2,0,P|229:173|160:167,1,93.5000028533936,10|0,0:0|0:0,0:0:0:0:
8,264,124434,6,0,B|37:226|97:227|97:227|121:265|170:270,1,187.000005706787,6|10,1:2|0:0,0:0:0:0:
301,93,124913,2,0,P|240:96|194:164,1,140.25000428009,2|0,0:0|0:0,0:0:0:0:
188,168,125232,1,2,1:2:0:0:
318,348,125392,6,0,B|398:329|398:329|424:292|424:292|494:277,1,187.000005706787,10|0,0:0|1:2,0:0:0:0:
315,187,125870,1,0,1:2:0:0:
435,75,126030,2,0,P|427:141|421:201,1,93.5000028533936,10|2,0:0|0:0,0:0:0:0:
252,44,126349,1,0,1:2:0:0:
354,0,126509,1,0,1:2:0:0:
232,142,126668,2,0,P|186:132|140:124,1,93.5000028533936,10|0,0:0|0:0,0:0:0:0:
225,334,126987,6,0,P|241:286|371:273,1,187.000005706787,2|10,1:2|0:0,0:0:0:0:
141,348,127466,2,0,B|52:348|118:290|-19:296,1,140.25000428009,2|0,0:0|0:0,0:0:0:0:
4,294,127785,1,0,1:2:0:0:
232,142,127945,6,0,P|302:128|457:99,1,187.000005706787,10|0,0:0|1:2,0:0:0:0:
295,35,128424,1,0,1:2:0:0:
457,187,128583,2,0,P|440:240|425:297,1,93.5000028533936,14|0,0:0|0:0,0:0:0:0:
289,338,128902,1,8,0:0:0:0:
289,338,128982,1,8,0:0:0:0:
289,338,129062,2,8,L|225:317,1,46.7500014266968,8|8,0:0|0:0,0:0:0:0:
114,157,129222,5,8,0:0:0:0:
159,160,129301,1,8,0:0:0:0:
193,191,129381,1,8,0:0:0:0:
198,236,129461,1,8,0:0:0:0:
173,275,129541,6,0,B|106:289|106:289|82:320|82:320|-3:338,1,187.000005706787,6|10,1:2|0:0,0:0:0:0:
268,377,130019,2,0,B|298:332|298:332|275:211,1,140.25000428009,2|0,0:0|0:0,0:0:0:0:
278,229,130339,1,2,0:0:0:0:
118,82,130498,6,0,P|69:87|52:218,1,187.000005706787,10|0,0:0|1:2,0:0:0:0:
101,285,130977,1,0,0:0:0:0:
227,132,131136,2,0,P|238:76|249:24,1,93.5000028533936,10|0,0:0|0:0,0:0:0:0:
386,213,131456,2,0,P|377:167|367:121,1,93.5000028533936,2|0,1:2|0:0,0:0:0:0:
189,258,131775,2,0,P|198:303|207:349,1,93.5000028533936,10|2,0:0|0:0,0:0:0:0:
458,346,132094,6,0,B|400:339|380:303|380:303|327:303|282:345,1,187.000005706787,2|10,1:2|0:0,0:0:0:0:
57,223,132573,2,0,B|140:233|117:165|207:183,1,140.25000428009,2|0,0:0|0:0,0:0:0:0:
200,176,132892,1,2,0:0:0:0:
382,37,133051,2,0,B|412:82|412:82|383:227,1,187.000005706787,10|0,0:0|1:2,0:0:0:0:
434,292,133530,1,0,0:0:0:0:
286,145,133690,2,0,P|232:172|178:174,1,93.5000028533936,10|2,0:0|0:0,0:0:0:0:
10,16,134009,6,0,P|23:77|33:132,1,93.5000028533936,2|0,1:2|0:0,0:0:0:0:
100,134,134248,6,0,P|113:195|123:250,1,93.5000028533936,2|0,0:0|0:0,0:0:0:0:
75,296,134487,5,2,0:0:0:0:
213,97,134647,6,0,B|328:110|272:31|400:47,1,187.000005706787,6|10,1:2|0:0,0:0:0:0:
488,216,135126,2,0,P|440:174|504:67,1,187.000005706787,2|0,0:0|0:0,0:0:0:0:
353,153,135605,1,10,0:0:0:0:
493,315,135764,6,0,B|447:297|447:297|388:324,1,93.5000028533936,2|0,0:0|1:2,0:0:0:0:
182,256,136083,2,0,B|228:274|228:274|287:247,1,93.5000028533936,2|8,0:0|0:0,0:0:0:0:
204,91,136402,2,0,P|213:150|220:196,1,93.5000028533936,2|0,0:0|1:2,0:0:0:0:
420,222,136722,2,0,P|411:281|404:327,1,93.5000028533936,2|8,0:0|0:0,0:0:0:0:
503,217,137041,1,2,0:0:0:0:
280,328,137200,6,0,B|246:285|185:284|185:284|161:324|104:331,1,187.000005706787,6|10,1:2|0:0,0:0:0:0:
31,180,137679,2,0,P|48:129|14:67,1,93.5000028533936,2|0,0:0|1:2,0:0:0:0:
103,239,137998,1,2,0:0:0:0:
222,42,138158,6,0,P|277:39|314:171,1,187.000005706787,10|2,0:0|1:2,0:0:0:0:
246,121,138636,1,2,0:0:0:0:
392,232,138796,2,0,P|452:217|507:210,1,93.5000028533936,10|0,0:0|1:2,0:0:0:0:
246,121,139115,2,0,P|261:212|278:344,1,187.000005706787,10|10,0:0|0:0,0:0:0:0:
153,204,139594,1,0,1:2:0:0:
346,143,139753,5,10,0:0:0:0:
184,291,139913,2,0,P|121:279|71:273,1,93.5000028533936,10|0,0:0|1:2,0:0:0:0:
246,121,140232,5,10,0:0:0:0:
364,321,140392,2,0,P|382:261|401:202,1,93.5000028533936,10|0,0:0|1:2,0:0:0:0:
207,370,140711,5,10,0:0:0:0:
65,180,140870,2,0,P|78:224|92:269,1,93.5000028533936,10|0,0:0|1:2,0:0:0:0:
246,121,141190,5,10,0:0:0:0:
38,79,141349,2,0,P|105:88|151:100,1,93.5000028533936,10|0,0:0|1:2,0:0:0:0:
365,51,141668,6,0,P|342:101|292:256,1,187.000005706787,10|10,0:0|0:0,0:0:0:0:
371,325,142147,1,0,1:2:0:0:
134,225,142307,6,0,P|190:227|214:361,1,187.000005706787,6|10,1:2|0:0,0:0:0:0:
152,301,142785,1,0,1:2:0:0:
320,216,142945,1,8,0:3:0:0:
129,138,143105,1,4,0:3:0:0:
270,292,143264,1,4,0:3:0:0:
311,74,143424,5,6,1:2:0:0:
311,74,144860,5,2,0:0:0:0:
397,57,155073,6,0,P|386:91|379:115,1,51,6|0,1:2|0:0,0:0:0:0:
394,187,155392,6,0,P|353:136|216:173,1,191.250007295609,10|0,0:0|0:0,0:0:0:0:
185,217,155711,6,0,P|215:169|159:79,2,140.25000428009,2|2|10,1:2|1:2|0:0,0:0:0:0:
185,217,156509,5,2,1:2:0:0:
56,317,156668,1,10,0:0:0:0:
130,384,156828,1,0,0:0:0:0:
100,190,156987,2,0,P|66:205|-9:215,1,93.5000028533936,2|0,1:2|1:2,0:0:0:0:
201,314,157307,2,0,P|247:321|290:339,1,93.5000028533936,10|2,0:0|0:0,0:0:0:0:
378,220,157626,6,0,P|324:226|304:357,1,187.000005706787,2|8,1:2|0:0,0:0:0:0:
357,377,158105,1,2,0:0:0:0:
475,222,158264,6,0,P|488:165|510:110,1,101.999996887207,2|0,1:2|0:0,0:0:0:0:
450,37,158503,2,0,P|402:71|344:72,1,101.999996887207,2|0,1:2|0:0,0:0:0:0:
227,31,158743,6,0,P|259:38|292:73,1,68,10|0,0:0|1:2,0:0:0:0:
311,139,159222,5,10,0:0:0:0:
234,198,159381,1,0,1:2:0:0:
349,333,159541,6,0,P|332:307|306:295,1,51,10|0,0:0|0:0,0:0:0:0:
249,334,159860,6,0,B|342:312|302:404|426:372,1,152.999995330811,6|0,1:2|0:0,0:0:0:0:
479,268,160179,6,0,P|452:275|428:294,1,51,6|0,1:2|0:0,0:0:0:0:
473,363,160498,6,0,P|483:302|521:149,1,191.250007295609,10|2,0:0|0:0,0:0:0:0:
488,59,160817,6,0,P|446:103|361:104,1,101.999996887207,2|0,1:2|0:0,0:0:0:0:
342,194,161057,2,0,P|300:150|215:149,1,101.999996887207,2|0,1:2|0:0,0:0:0:0:
146,90,161296,6,0,P|179:117|184:151,1,68,10|0,0:0|1:2,0:0:0:0:
98,162,161775,5,10,0:0:0:0:
246,67,161934,1,0,0:0:0:0:
34,0,162094,2,0,P|57:46|65:93,1,93.5000028533936,2|0,1:2|1:2,0:0:0:0:
221,213,162413,2,0,P|198:259|190:306,1,93.5000028533936,10|2,0:0|0:0,0:0:0:0:
325,128,162732,6,0,B|376:117|401:84|401:84|469:103|494:151,1,187.000005706787,2|8,1:2|0:0,0:0:0:0:
484,214,163211,1,2,0:0:0:0:
318,49,163370,6,0,L|332:-2,1,51,2|2,1:2|1:2,0:0:0:0:
309,65,163849,6,0,B|177:69|262:-3|114:-1,1,203.999993774414,10|2,0:0|1:2,0:0:0:0:
37,166,164328,2,0,P|26:125|17:96,3,50.9999984436036,10|2|2|2,0:0|0:0|0:0|0:0,0:0:0:0:
126,241,164647,2,0,P|137:200|146:171,1,50.9999984436036,0|0,1:2|0:0,0:0:0:0:
64,307,164807,1,8,0:0:0:0:
95,323,164886,1,8,0:0:0:0:
131,325,164966,1,8,0:0:0:0:
164,313,165046,1,8,0:0:0:0:
190,288,165126,1,8,0:0:0:0:
223,275,165206,1,8,0:0:0:0:
258,271,165285,6,0,P|315:278|465:301,1,187.000005706787,6|8,1:2|0:0,0:0:0:0:
344,125,165764,2,0,P|293:137|263:196,1,93.5000028533936,2|0,0:0|1:2,0:0:0:0:
453,145,166083,2,0,P|466:87|480:34,1,93.5000028533936,2|8,0:0|0:0,0:0:0:0:
268,167,166402,6,0,B|148:175|218:99|54:103,1,187.000005706787,2|2,0:0|0:0,0:0:0:0:
12,253,166881,1,10,0:0:0:0:
97,179,167041,1,2,0:0:0:0:
7,38,167200,2,0,P|20:91|29:142,1,93.5000028533936,2|0,1:2|0:0,0:0:0:0:
155,289,167519,2,0,P|163:243|175:197,1,93.5000028533936,10|0,0:0|0:0,0:0:0:0:
352,33,167839,6,0,P|413:38|430:155,1,187.000005706787,2|10,1:2|0:0,0:0:0:0:
343,296,168317,2,0,P|291:283|240:272,1,93.5000028533936,2|0,0:0|1:2,0:0:0:0:
175,197,168636,1,2,0:0:0:0:
298,99,168796,1,8,0:0:0:0:
220,24,168956,5,2,0:0:0:0:
220,24,169035,1,2,0:0:0:0:
220,24,169115,1,2,1:2:0:0:
267,196,169275,2,0,P|312:184|357:174,1,93.5000028533936,2|8,0:0|0:0,0:0:0:0:
207,342,169594,2,0,B|171:297|124:288|124:288|96:321|31:326,1,187.000005706787,2|0,0:0|0:0,0:0:0:0:
34,147,170073,2,0,P|47:200|57:256,1,93.5000028533936,8|2,0:0|0:0,0:0:0:0:
297,359,170392,6,0,P|316:304|449:273,1,187.000005706787,6|8,1:2|0:0,0:0:0:0:
429,264,171030,6,0,P|455:211|477:170,1,93.5000028533936,2|0,1:2|0:0,0:0:0:0:
336,83,171269,6,0,P|368:132|393:171,1,93.5000028533936,2|0,0:0|0:0,0:0:0:0:
462,93,171509,5,2,0:0:0:0:
249,224,171668,6,0,B|129:229|208:159|47:163,1,187.000005706787,2|10,1:2|0:0,0:0:0:0:
255,51,172147,2,0,P|235:108|220:153,1,93.5000028533936,2|2,0:0|1:2,0:0:0:0:
99,245,172466,1,0,0:0:0:0:
17,110,172626,2,0,P|64:125|77:176,1,93.5000028533936,8|2,0:0|0:0,0:0:0:0:
17,219,172865,1,2,0:0:0:0:
17,219,172945,6,0,P|91:201|221:186,1,187.000005706787,2|8,1:2|0:0,0:0:0:0:
357,35,173424,2,0,P|276:60|277:155,1,187.000005706787,2|2,0:0|0:0,0:0:0:0:
310,232,173823,1,2,0:0:0:0:
310,232,173902,2,0,B|387:216|387:216|408:184|408:184|509:161,1,187.000005706787,10|0,0:0|1:2,0:0:0:0:
200,186,174381,2,0,P|214:241|225:292,1,93.5000028533936,2|10,0:0|0:0,0:0:0:0:
437,351,174700,1,8,0:0:0:0:
437,351,174780,1,8,0:0:0:0:
437,351,174860,2,0,P|446:295|482:147,1,187.000005706787,8|0,0:0|1:2,0:0:0:0:
407,34,175339,1,8,0:0:0:0:
303,206,175498,5,6,1:2:0:0:
398,134,175658,1,0,0:0:0:0:
212,39,175817,1,10,0:0:0:0:
289,106,175977,1,8,0:0:0:0:
289,106,176057,1,8,0:0:0:0:
289,106,176136,2,0,P|296:75|303:55,1,46.7500014266968,8|0,0:0|0:0,0:0:0:0:
180,199,176296,2,0,P|173:168|166:148,1,46.7500014266968,8|0,0:0|0:0,0:0:0:0:
261,281,176456,1,8,0:0:0:0:
261,281,176535,1,8,0:0:0:0:
261,281,176615,1,8,0:0:0:0:
398,134,176775,6,0,L|501:155,1,93.5000028533936,0|8,1:2|0:0,0:0:0:0:
508,161,177014,1,8,0:0:0:0:
508,160,177094,2,0,L|495:104,1,46.7500014266968,8|8,0:0|0:0,0:0:0:0:
377,224,177253,2,0,P|388:282|396:335,1,93.5000028533936,0|8,1:0|3:0,0:0:0:0:
398,333,177493,1,8,3:0:0:0:
398,333,177573,2,0,P|434:323|459:320,1,46.7500014266968,4|4,3:0|3:0,0:0:0:0:
298,211,177732,1,0,1:2:0:0:
298,211,177812,1,0,1:2:0:0:
298,211,177892,2,0,P|262:201|237:198,1,46.7500014266968,0|0,1:2|1:2,0:0:0:0:
128,340,178051,6,0,P|172:296|136:190,1,187.000005706787,6|10,1:2|0:0,0:0:0:0:
310,33,178530,2,0,P|294:89|280:144,1,93.5000028533936,0|8,1:2|3:0,0:0:0:0:
225,36,178849,1,0,1:2:0:0:
399,140,179009,1,10,0:0:0:0:
203,202,179168,1,6,1:2:0:0:
203,202,179966,6,0,B|54:216|152:122|-24:138,1,223.125008511544,2|0,0:0|0:0,0:0:0:0:
182,44,180605,6,0,P|170:91|159:151,1,85,6|0,1:2|0:0,0:0:0:0:
94,279,180924,2,0,P|85:237|74:196,1,85,10|0,0:0|0:0,0:0:0:0:
7,271,181242,1,0,1:2:0:0:
120,358,181402,1,0,1:2:0:0:
203,202,181562,2,0,P|191:249|180:309,1,85,10|0,0:0|0:0,0:0:0:0:
376,384,181881,5,2,1:2:0:0:
394,224,182041,1,2,1:2:0:0:
267,285,182200,1,10,0:0:0:0:
376,384,182360,2,0,P|401:343|521:345,1,170,2|2,0:0|1:2,0:0:0:0:
394,224,182839,1,10,0:0:0:0:
512,119,182998,1,2,0:0:0:0:
512,119,183078,1,2,0:0:0:0:
512,119,183158,6,0,B|463:110|435:83|435:83|383:97|354:127,1,170,6|8,1:2|0:0,0:0:0:0:
261,54,183636,1,0,0:0:0:0:
196,198,183796,2,0,P|251:182|271:143,1,85,0|0,1:2|1:2,0:0:0:0:
163,51,184115,1,10,0:0:0:0:
163,51,184275,1,2,0:0:0:0:
74,217,184434,6,0,P|91:285|109:409,1,170,2|10,1:2|0:0,0:0:0:0:
288,282,184913,2,0,B|397:279|326:348|481:332,1,170,2|2,0:0|1:2,0:0:0:0:
301,359,185392,1,8,0:0:0:0:
425,257,185551,1,2,0:0:0:0:
425,257,185631,1,2,0:0:0:0:
425,257,185711,6,0,P|439:192|457:126,1,127.5,6|0,1:2|0:0,0:0:0:0:
465,112,186030,2,0,P|417:127|352:99,1,85,8|0,0:0|0:0,0:0:0:0:
273,0,186349,1,0,1:2:0:0:
418,48,186509,1,0,1:2:0:0:
277,117,186668,1,8,0:0:0:0:
504,40,186828,5,6,1:2:0:0:
348,285,187147,5,6,1:2:0:0:
168,53,187466,5,6,1:2:0:0:
478,198,187785,6,0,P|463:259|449:307,1,85,6|8,1:2|0:0,0:0:0:0:
433,355,188105,1,2,0:0:0:0:
278,219,188264,6,0,B|211:230|211:230|194:257|194:257|113:271,1,170,6|10,1:2|0:0,0:0:0:0:
14,125,188743,1,2,0:0:0:0:
112,192,188902,1,2,1:2:0:0:
21,323,189062,2,0,P|6:268|-7:221,1,85,2|8,1:2|0:0,0:0:0:0:
111,37,189381,6,0,P|165:39|206:137,1,170,6|2,1:2|1:2,0:0:0:0:
279,35,189860,1,10,0:0:0:0:
129,118,190019,1,8,0:0:0:0:
129,118,190099,1,8,0:0:0:0:
129,118,190179,1,8,0:0:0:0:
284,197,190339,2,0,L|274:253,1,42.5,4|4,3:0|3:0,0:0:0:0:
225,143,190498,2,0,P|273:118|352:153,1,127.5,14|0,0:0|0:0,0:0:0:0:
354,153,190817,5,14,0:0:0:0:
200,258,190977,1,8,0:0:0:0:
200,258,191057,1,8,0:0:0:0:
200,258,191136,1,8,0:0:0:0:
300,322,191296,1,8,0:0:0:0:
225,143,191456,2,0,L|246:87,2,42.5,8|8|8,0:0|0:0|0:0,0:0:0:0:
100,294,191775,2,0,P|85:232|70:183,1,85,8|8,0:0|0:0,0:0:0:0:
74,193,192014,1,8,0:0:0:0:
72,194,192094,6,0,P|54:150|45:135,3,42.5,8|8|8|8,0:0|0:0|0:0|0:0,0:0:0:0:
95,65,192413,1,8,1:2:0:0:
95,65,192493,1,8,0:0:0:0:
95,65,192573,1,8,0:0:0:0:
225,143,192732,2,0,P|272:129|326:117,1,85,10|8,0:0|0:0,0:0:0:0:
329,124,192972,1,8,0:0:0:0:
329,124,193051,1,8,0:0:0:0:
189,237,193211,5,8,0:0:0:0:
189,237,193291,1,8,0:0:0:0:
189,237,193370,2,0,L|139:225,3,42.5,0|8|10|8,1:2|0:0|0:0|0:0,0:0:0:0:
262,297,193690,2,0,P|283:247|265:198,1,85,10|8,0:0|0:0,0:0:0:0:
275,210,193929,1,8,0:0:0:0:
275,210,194009,1,10,0:2:0:0:
124,320,194168,1,2,1:2:0:0:
328,368,194328,6,0,P|388:351|506:327,1,170,14|0,0:0|0:0,0:0:0:0:
386,164,194807,2,0,L|339:156,2,42.5,2|2|10,1:2|0:0|0:0,0:0:0:0:
491,100,195126,1,8,0:0:0:0:
386,248,195285,1,8,0:0:0:0:
279,101,195445,1,8,0:0:0:0:
279,101,195525,1,8,0:0:0:0:
279,101,195605,2,0,P|259:149|273:189,1,85,8|0,0:0|0:0,0:0:0:0:
276,193,195844,1,8,0:0:0:0:
276,193,195924,1,2,1:2:0:0:
187,301,196083,6,0,L|199:356,2,42.5,0|8|8,0:0|0:0|0:0,0:0:0:0:
82,204,196402,2,0,L|72:162,1,42.5,10|8,0:0|0:0,0:0:0:0:
151,82,196562,2,0,L|163:137,2,42.5,10|8|8,1:2|0:0|0:0,0:0:0:0:
176,220,196881,2,0,P|229:202|280:197,1,85,10|0,0:0|0:0,0:0:0:0:
276,199,197120,1,8,0:0:0:0:
276,199,197200,5,10,0:0:0:0:
151,82,197360,2,0,P|109:74|69:59,1,85,8|8,0:0|0:0,0:0:0:0:
58,61,197599,1,8,0:0:0:0:
58,61,197679,1,8,0:0:0:0:
176,220,197839,1,10,0:0:0:0:
267,87,197998,2,0,P|284:49|299:27,2,42.5,8|8|10,0:0|0:0|0:0,0:0:0:0:
73,184,198317,1,10,0:0:0:0:
73,184,198397,1,8,0:0:0:0:
73,184,198477,6,0,P|91:238|102:290,1,85,10|8,0:0|0:0,0:0:0:0:
89,287,198716,1,8,0:0:0:0:
89,287,198796,2,0,B|41:273|23:272|22:272,2,56.6666666666667,10|2|2,0:0|0:0|0:0,0:0:0:0:
151,360,199115,6,0,P|175:349|199:346,1,42.5,4|0,3:0|0:0,0:0:0:0:
264,363,199275,1,4,0:3:0:0:
422,283,199434,5,14,0:0:0:0:
256,192,199514,12,6,201030,1:2:0:0:
411,73,202307,5,0,1:2:0:0:
411,73,202466,1,0,1:2:0:0:
412,78,203105,6,0,L|432:11,1,42.5,0|0,1:2|1:2,0:0:0:0:
392,177,203264,1,12,0:0:0:0:
392,177,203583,6,0,P|347:142|236:260,1,255.000009727478,6|10,1:2|0:0,0:0:0:0:
301,61,204381,1,10,0:0:0:0:
301,61,204700,5,14,0:0:0:0:
301,61,205019,5,10,0:0:0:0:
148,144,205179,1,10,0:0:0:0:
310,222,205339,1,10,0:0:0:0:
129,52,205498,5,2,0:0:0:0:
129,52,206136,6,0,P|78:87|91:209,1,187.000005706787,6|10,1:2|0:0,0:0:0:0:
331,136,206615,2,0,B|241:126|294:192|172:173,1,140.25000428009,2|0,0:0|0:0,0:0:0:0:
187,172,206934,1,2,1:2:0:0:
306,340,207094,6,0,P|371:323|501:289,1,187.000005706787,10|0,0:0|1:2,0:0:0:0:
360,222,207573,1,0,1:2:0:0:
486,120,207732,2,0,P|473:170|463:226,1,93.5000028533936,10|2,0:0|0:0,0:0:0:0:
304,49,208051,1,0,1:2:0:0:
384,132,208211,1,0,1:2:0:0:
489,19,208370,2,0,P|439:25|405:62,1,93.5000028533936,10|0,0:0|0:0,0:0:0:0:
241,179,208690,6,0,B|229:136|176:121|176:121|132:162|64:158,1,187.000005706787,6|10,1:2|0:0,0:0:0:0:
235,308,209168,2,0,B|295:294|396:275|396:274,1,140.25000428009,2|0,0:0|0:0,0:0:0:0:
395,275,209487,1,2,1:2:0:0:
171,222,209647,5,10,0:0:0:0:
314,125,209807,1,0,1:2:0:0:
171,15,209966,2,0,P|189:82|196:145,1,93.5000028533936,10|0,0:0|1:2,0:0:0:0:
315,281,210285,2,0,P|323:234|363:201,1,93.5000028533936,10|0,0:0|1:2,0:0:0:0:
512,313,210605,1,10,0:0:0:0:
445,156,210764,1,8,0:0:0:0:
445,156,210844,1,8,0:0:0:0:
445,156,210924,2,0,L|435:215,1,46.7500014266968,8|8,0:0|0:0,0:0:0:0:
347,369,211083,5,8,0:0:0:0:
347,369,211163,1,8,0:0:0:0:
347,369,211243,2,0,B|217:379|298:304|140:307,1,203.999993774414,6|10,1:2|0:0,0:0:0:0:
56,93,211722,2,0,B|90:131|90:131|65:239,1,152.999995330811,2|0,0:0|0:0,0:0:0:0:
62,247,212041,1,2,0:0:0:0:
318,295,212200,6,0,P|340:240|218:184,1,203.999993774414,8|0,0:0|1:2,0:0:0:0:
153,247,212679,1,0,0:0:0:0:
347,369,212839,2,0,B|401:357|452:346,1,101.999996887207,10|0,0:0|0:0,0:0:0:0:
512,147,213158,2,0,B|466:158|412:170,1,101.999996887207,2|0,1:2|0:0,0:0:0:0:
234,57,213477,2,0,P|288:68|324:140,1,101.999996887207,10|2,0:0|0:0,0:0:0:0:
196,332,213796,6,0,P|180:258|138:115,1,203.999993774414,2|10,1:2|0:0,0:0:0:0:
276,243,214275,1,2,0:0:0:0:
276,243,214355,1,2,0:0:0:0:
276,243,214434,2,0,P|332:226|390:215,1,101.999996887207,0|2,1:2|0:0,0:0:0:0:
150,45,214753,6,0,P|84:50|58:179,1,203.999993774414,10|0,0:0|1:2,0:0:0:0:
250,128,215232,1,2,0:0:0:0:
250,128,215312,1,2,0:0:0:0:
250,128,215392,2,0,P|259:68|276:13,1,101.999996887207,8|2,0:0|0:0,0:0:0:0:
95,229,215711,6,0,B|159:211|220:202|221:202,1,101.999996887207,2|0,1:2|0:0,0:0:0:0:
250,128,215950,6,0,P|326:136|385:150,1,101.999996887207,2|0,0:0|0:0,0:0:0:0:
428,88,216190,5,2,0:0:0:0:
483,302,216349,6,0,B|426:290|398:254|398:254|330:264|304:325,1,203.999993774414,6|10,1:2|0:0,0:0:0:0:
95,229,216828,6,0,B|144:195|144:195|104:356,1,203.999993774414,2|0,0:0|0:0,0:0:0:0:
8,266,217307,1,10,0:0:0:0:
228,197,217466,6,0,P|287:184|348:172,1,101.999996887207,2|0,0:0|1:2,0:0:0:0:
122,53,217785,2,0,P|72:63|22:74,1,101.999996887207,2|8,0:0|0:0,0:0:0:0:
264,14,218105,2,0,P|248:81|238:134,1,101.999996887207,2|0,0:0|1:2,0:0:0:0:
8,266,218424,2,0,P|18:216|30:166,1,101.999996887207,2|8,0:0|0:0,0:0:0:0:
121,275,218743,1,2,0:0:0:0:
241,113,218902,6,0,B|298:68|395:73|395:73|351:100|342:124,1,203.999993774414,6|10,1:2|0:0,0:0:0:0:
232,212,219381,2,0,P|156:194|89:182,1,101.999996887207,2|0,0:0|1:2,0:0:0:0:
311,162,219700,1,2,0:0:0:0:
121,275,219860,6,0,P|56:223|96:108,1,203.999993774414,10|2,0:0|1:2,0:0:0:0:
171,63,220339,1,0,1:2:0:0:
308,259,220498,2,0,P|296:320|286:379,1,101.999996887207,10|2,0:0|1:2,0:0:0:0:
232,212,220817,1,2,1:2:0:0:
408,328,220977,5,8,0:0:0:0:
416,298,221056,1,8,0:0:0:0:
424,268,221136,1,8,0:0:0:0:
432,239,221216,1,8,0:0:0:0:
440,209,221296,1,8,0:0:0:0:
448,180,221375,1,8,0:0:0:0:
456,150,221455,5,2,1:2:0:0:
232,212,221615,2,0,P|166:193|120:183,1,101.999996887207,0|10,1:2|0:0,0:0:0:0:
353,121,221934,5,2,1:2:0:0:
188,284,222094,2,0,P|168:351|155:401,1,101.999996887207,2|0,0:0|1:2,0:0:0:0:
55,165,222413,5,10,0:0:0:0:
279,293,222573,2,0,P|345:274|391:264,1,101.999996887207,2|0,1:2|0:0,0:0:0:0:
420,44,222892,5,10,0:0:0:0:
250,195,223051,2,0,P|270:262|283:312,1,101.999996887207,2|0,1:2|1:2,0:0:0:0:
246,58,223370,6,0,P|191:42|125:34,1,101.999996887207,10|0,0:0|1:2,0:0:0:0:
369,185,223690,2,0,P|424:169|490:161,1,101.999996887207,10|0,0:0|1:2,0:0:0:0:
197,130,224009,5,14,0:0:0:0:
302,371,224168,2,0,P|321:308|343:252,1,101.999996887207,2|0,1:2|1:2,0:0:0:0:
359,62,224487,5,14,0:0:0:0:
160,206,224647,2,0,B|99:187|43:172|44:172,1,101.999996887207,2|0,1:2|1:2,0:0:0:0:
52,178,224886,1,0,1:2:0:0:
52,178,224966,5,14,0:0:0:0:
260,33,225126,2,0,B|316:48|358:61,1,101.999996887207,2|0,1:2|1:2,0:0:0:0:
380,71,225365,1,0,1:2:0:0:
380,71,225445,5,14,0:0:0:0:
259,259,225605,2,0,P|243:198|226:147,1,101.999996887207,2|0,1:2|1:2,0:0:0:0:
230,148,225844,1,0,1:2:0:0:
230,148,225924,5,10,0:0:0:0:
225,342,226083,1,0,1:2:0:0:
225,342,226163,1,0,1:2:0:0:
225,342,226243,6,0,B|360:358|291:271|430:285,1,191.250007295609,6|0,1:2|0:0,0:0:0:0:
445,344,226562,2,0,P|423:296|453:227,1,101.999996887207,14|8,0:0|0:0,0:0:0:0:
441,235,226801,1,8,0:0:0:0:
441,235,226881,2,0,L|463:175,2,50.9999984436036,8|8|14,0:0|0:0|0:0,0:0:0:0:
294,97,227200,1,8,0:0:0:0:
328,89,227280,1,8,0:0:0:0:
362,79,227360,1,8,0:0:0:0:
396,70,227440,1,8,0:0:0:0:
430,62,227519,2,0,L|486:46,3,50.9999984436036,14|8|8|8,0:0|0:0|0:0|0:0,0:0:0:0:
358,201,227839,5,8,0:0:0:0:
358,201,227918,1,8,0:0:0:0:
358,201,227998,1,14,0:0:0:0:
187,11,228158,2,0,P|205:78|221:139,1,101.999996887207,14|8,0:0|0:0,0:0:0:0:
215,127,228397,1,8,0:0:0:0:
215,127,228477,2,0,L|230:185,2,50.9999984436036,8|8|8,0:0|0:0|0:0,0:0:0:0:
47,241,228796,2,0,P|108:255|168:274,1,101.999996887207,8|4,3:0|3:0,0:0:0:0:
189,345,229035,1,4,3:0:0:0:
189,345,229115,6,0,P|165:285|264:214,1,203.999993774414,6|10,1:2|0:0,0:0:0:0:
383,307,229594,5,0,1:2:0:0:
312,120,229753,1,10,0:0:0:0:
247,296,229913,1,10,0:0:0:0:
428,202,230073,1,10,0:0:0:0:
194,110,230232,5,6,1:2:0:0:
194,110,231668,6,0,P|135:98|82:89,1,85,6|0,1:2|0:0,0:0:0:0:
206,255,231987,2,0,P|265:243|318:234,1,85,10|0,0:0|0:0,0:0:0:0:
386,126,232307,1,2,1:2:0:0:
302,51,232466,1,2,1:2:0:0:
367,209,232626,1,8,0:0:0:0:
486,74,232785,6,8,P|465:158|453:273,1,170,2|0,1:2|1:2,0:0:0:0:
261,353,233264,1,10,0:0:0:0:
261,353,233583,2,0,P|203:339|153:332,1,85,2|2,1:2|1:2,0:0:0:0:
140,138,233902,2,0,P|98:145|57:156,1,85,10|0,0:0|0:0,0:0:0:0:
298,47,234222,6,0,B|393:37|351:113|490:83,1,170,6|10,1:2|0:0,0:0:0:0:
429,9,234700,1,2,0:0:0:0:
317,124,234860,1,2,1:2:0:0:
463,257,235019,1,2,1:2:0:0:
397,163,235179,1,10,0:0:0:0:
291,308,235339,6,0,B|262:267|204:276|204:276|180:311|122:308,1,170,2|0,1:2|1:2,0:0:0:0:
66,172,235817,2,0,P|120:192|140:241,1,85,10|0,0:0|0:0,0:0:0:0:
200,376,236136,1,2,1:2:0:0:
65,277,236296,1,0,1:2:0:0:
209,179,236456,2,0,P|267:187|356:207,1,127.5,10|0,0:0|0:0,0:0:0:0:
429,245,236775,6,0,P|377:232|365:106,1,187.000005706787,6|10,1:2|0:0,0:0:0:0:
500,30,237253,1,0,0:0:0:0:
424,164,237413,1,2,1:2:0:0:
363,27,237573,1,2,1:2:0:0:
508,154,237732,1,10,0:0:0:0:
328,296,237892,6,0,B|206:303|280:226|115:234,1,187.000005706787,2|2,1:2|1:2,0:0:0:0:
328,128,238370,1,10,0:0:0:0:
328,128,238690,2,0,P|311:185|303:240,1,93.5000028533936,2|0,1:2|1:2,0:0:0:0:
132,58,239009,2,0,P|149:115|157:170,1,93.5000028533936,10|0,0:0|0:0,0:0:0:0:
316,24,239328,6,0,P|368:14|411:130,1,187.000005706787,6|0,1:2|0:0,0:0:0:0:
409,353,239966,2,0,P|484:335|530:330,1,93.5000028533936,10|2,0:0|1:2,0:0:0:0:
410,246,240285,1,0,1:2:0:0:
312,363,240445,6,0,P|254:353|106:328,1,187.000005706787,2|10,1:2|0:0,0:0:0:0:
33,245,240924,1,0,1:2:0:0:
156,168,241083,1,0,1:2:0:0:
156,168,241163,1,0,1:2:0:0:
156,168,241243,5,10,0:0:0:0:
17,367,241402,1,10,0:0:0:0:
