osu file format v14

[General]
AudioFilename: audio.mp3
AudioLeadIn: 0
PreviewTime: 60433
Countdown: 0
SampleSet: Soft
StackLeniency: 0.7
Mode: 3
LetterboxInBreaks: 0
SpecialStyle: 0
WidescreenStoryboard: 0

[Editor]
DistanceSpacing: 1.4
BeatDivisor: 16
GridSize: 4
TimelineZoom: 1

[Metadata]
Title:MIRAI (TV size ver.)
TitleUnicode:MIRAI (TV size ver.)
Artist:GARNiDELiA
ArtistUnicode:GARNiDELiA
Creator:- [ L e a h ] -
Version:Normal
Source:ガンスリンガー ストラトス
Tags:ending gunslinger stratos maria mizuhashi mai toku メイリア 水橋舞
BeatmapID:1083211
BeatmapSetID:508929

[Difficulty]
HPDrainRate:7.5
CircleSize:4
OverallDifficulty:7.5
ApproachRate:5
SliderMultiplier:1.4
SliderTickRate:1

[Events]
//Background and Video events
0,0,"BG.jpg",0,0
//Break Periods
//Storyboard Layer 0 (Background)
//Storyboard Layer 1 (Fail)
//Storyboard Layer 2 (Pass)
//Storyboard Layer 3 (Foreground)
//Storyboard Sound Samples

[TimingPoints]
1558,750,4,2,1,50,1,0
61558,-100,4,2,1,50,0,1
85558,-100,4,2,1,50,0,0

[HitObjects]
192,192,1183,5,0,0:0:0:0:
320,192,1370,1,0,0:0:0:0:
448,192,1558,1,2,0:0:0:0:
64,192,1558,1,0,0:0:0:0:
320,192,1933,1,0,0:0:0:0:
192,192,2308,1,0,0:0:0:0:
320,192,2683,1,2,0:0:0:0:
64,192,2683,1,0,0:0:0:0:
192,192,3433,1,0,0:0:0:0:
320,192,3808,1,0,0:0:0:0:
448,192,4183,1,0,0:0:0:0:
320,192,4370,1,0,0:0:0:0:
192,192,4558,1,0,0:0:0:0:
64,192,4558,1,2,0:0:0:0:
320,192,4933,1,0,0:0:0:0:
448,192,5308,1,0,0:0:0:0:
192,192,5683,1,0,0:0:0:0:
320,192,5683,1,2,0:0:0:0:
192,192,6433,1,0,0:0:0:0:
320,192,6808,1,0,0:0:0:0:
64,192,7183,1,0,0:0:0:0:
192,192,7370,1,0,0:0:0:0:
448,192,7558,1,2,0:0:0:0:
320,192,7558,128,0,8683:0:0:0:0:
192,192,7933,1,0,0:0:0:0:
64,192,8308,1,0,0:0:0:0:
448,192,8683,128,0,9808:0:0:0:0:
192,192,8683,1,2,0:0:0:0:
320,192,9433,1,0,0:0:0:0:
64,192,9808,1,0,0:0:0:0:
192,192,9901,1,0,0:0:0:0:
320,192,9995,1,0,0:0:0:0:
448,192,10089,1,0,0:0:0:0:
64,192,10183,1,0,0:0:0:0:
448,192,10370,1,0,0:0:0:0:
64,192,10558,128,0,12808:0:0:0:0:
192,192,10558,1,2,0:0:0:0:
448,192,10933,1,0,0:0:0:0:
320,192,11308,1,0,0:0:0:0:
448,192,11683,128,0,12808:0:0:0:0:
192,192,11683,1,2,0:0:0:0:
320,192,13558,1,2,0:0:0:0:
448,192,13558,128,0,14683:0:0:0:0:
192,192,14683,1,2,0:0:0:0:
64,192,14683,128,0,16558:0:0:0:0:
192,192,16558,128,0,17683:0:0:0:0:
448,192,16558,1,2,0:0:0:0:
320,192,17683,128,0,18808:0:0:0:0:
64,192,17683,1,2,0:0:0:0:
192,192,19558,1,2,0:0:0:0:
448,192,19558,128,0,20683:0:0:0:0:
192,192,20683,128,0,22558:0:0:0:0:
64,192,20683,1,2,0:0:0:0:
64,192,22558,128,0,23120:0:0:0:0:
320,192,22558,1,2,0:0:0:0:
448,192,23120,1,2,0:0:0:0:
320,192,23683,1,2,0:0:0:0:
64,192,23683,128,0,25558:0:0:0:0:
448,192,24433,128,2,24808:0:0:0:0:
192,192,24808,128,2,25558:0:0:0:0:
320,192,25558,1,0,0:0:0:0:
448,192,25558,1,2,0:0:0:0:
64,192,25933,1,0,0:0:0:0:
192,192,26308,1,0,0:0:0:0:
320,192,26683,1,2,0:0:0:0:
448,192,26683,128,0,28558:0:0:0:0:
64,192,27058,1,0,0:0:0:0:
320,192,27245,1,0,0:0:0:0:
192,192,27433,1,0,0:0:0:0:
320,192,27808,1,0,0:0:0:0:
64,192,28183,1,0,0:0:0:0:
192,192,28558,1,2,0:0:0:0:
320,192,28558,128,0,29683:0:0:0:0:
64,192,28933,1,0,0:0:0:0:
448,192,29308,1,0,0:0:0:0:
192,192,29683,1,2,0:0:0:0:
64,192,29683,128,0,31558:0:0:0:0:
448,192,30058,1,0,0:0:0:0:
192,192,30433,1,0,0:0:0:0:
320,192,30808,1,0,0:0:0:0:
192,192,31183,1,0,0:0:0:0:
448,192,31558,1,2,0:0:0:0:
320,192,31558,128,0,32683:0:0:0:0:
192,192,31745,1,0,0:0:0:0:
64,192,31933,1,0,0:0:0:0:
448,192,32308,1,0,0:0:0:0:
192,192,32683,128,0,34558:0:0:0:0:
64,192,32683,1,2,0:0:0:0:
448,192,33058,1,0,0:0:0:0:
320,192,33433,1,0,0:0:0:0:
448,192,33808,1,0,0:0:0:0:
64,192,34183,1,0,0:0:0:0:
320,192,34558,1,2,0:0:0:0:
448,192,34558,128,0,35120:0:0:0:0:
64,192,34933,1,0,0:0:0:0:
320,192,35120,1,0,0:0:0:0:
192,192,35120,1,2,0:0:0:0:
64,192,35308,1,0,0:0:0:0:
320,192,35683,128,0,37558:0:0:0:0:
448,192,35683,1,2,0:0:0:0:
192,192,36058,1,0,0:0:0:0:
64,192,36433,1,0,0:0:0:0:
448,192,36620,1,0,0:0:0:0:
192,192,36808,1,0,0:0:0:0:
448,192,36995,1,0,0:0:0:0:
192,192,37183,128,0,37558:0:0:0:0:
448,192,37558,1,2,0:0:0:0:
64,192,37558,128,0,40558:0:0:0:0:
320,192,37933,1,0,0:0:0:0:
448,192,38308,1,0,0:0:0:0:
192,192,38683,1,0,0:0:0:0:
448,192,39058,1,0,0:0:0:0:
192,192,39808,1,8,0:0:0:0:
448,192,39808,1,0,0:0:0:0:
320,192,40183,1,2,0:0:0:0:
192,192,40558,128,0,43558:0:0:0:0:
448,192,40558,1,2,0:0:0:0:
64,192,40933,1,0,0:0:0:0:
448,192,41308,1,0,0:0:0:0:
320,192,41683,1,0,0:0:0:0:
448,192,42058,1,0,0:0:0:0:
64,192,42433,1,2,0:0:0:0:
448,192,42808,1,8,0:0:0:0:
320,192,42808,1,0,0:0:0:0:
64,192,43183,1,0,0:0:0:0:
320,192,43558,1,2,0:0:0:0:
448,192,43558,128,0,45808:0:0:0:0:
64,192,43933,1,0,0:0:0:0:
192,192,44308,1,0,0:0:0:0:
320,192,44683,1,0,0:0:0:0:
192,192,45058,1,0,0:0:0:0:
64,192,45808,1,8,0:0:0:0:
320,192,45808,1,0,0:0:0:0:
192,192,46183,1,2,0:0:0:0:
192,192,46558,1,2,0:0:0:0:
320,192,46558,128,0,47683:0:0:0:0:
64,192,46933,1,0,0:0:0:0:
448,192,47308,1,0,0:0:0:0:
192,192,47683,1,2,0:0:0:0:
64,192,47683,128,0,48808:0:0:0:0:
448,192,48058,1,0,0:0:0:0:
320,192,48433,1,2,0:0:0:0:
448,192,48808,1,8,0:0:0:0:
192,192,48808,1,2,0:0:0:0:
320,192,48995,1,2,0:0:0:0:
64,192,49183,1,2,0:0:0:0:
320,192,49370,1,2,0:0:0:0:
64,192,49558,1,2,0:0:0:0:
448,192,49558,128,0,52558:0:0:0:0:
192,192,49558,1,4,0:0:0:0:
320,192,50308,1,0,0:0:0:0:
64,192,50683,1,2,0:0:0:0:
192,192,51058,1,0,0:0:0:0:
320,192,51433,1,2,0:0:0:0:
192,192,51808,1,8,0:0:0:0:
64,192,51808,1,0,0:0:0:0:
320,192,52183,1,0,0:0:0:0:
192,192,52558,1,2,0:0:0:0:
64,192,52558,128,0,54058:0:0:0:0:
320,192,52933,1,0,0:0:0:0:
192,192,53308,1,0,0:0:0:0:
448,192,53308,1,8,0:0:0:0:
320,192,53683,1,2,0:0:0:0:
320,192,54058,128,2,55558:0:0:0:0:
448,192,54058,1,0,0:0:0:0:
192,192,54433,1,0,0:0:0:0:
448,192,54808,1,8,0:0:0:0:
64,192,54808,1,0,0:0:0:0:
192,192,55183,1,0,0:0:0:0:
64,192,55558,128,2,55745:0:0:0:0:
448,192,55558,1,4,0:0:0:0:
192,192,55745,128,0,55933:0:0:0:0:
448,192,55933,128,2,56120:0:0:0:0:
64,192,55933,1,0,0:0:0:0:
320,192,56120,128,0,56308:0:0:0:0:
64,192,56308,128,2,56495:0:0:0:0:
192,192,56308,1,0,0:0:0:0:
192,192,56495,128,0,56683:0:0:0:0:
320,192,56683,128,2,56870:0:0:0:0:
448,192,56683,1,0,0:0:0:0:
64,192,56870,128,0,57058:0:0:0:0:
448,192,57058,128,2,57245:0:0:0:0:
192,192,57058,1,0,0:0:0:0:
320,192,57245,128,0,57433:0:0:0:0:
192,192,57433,128,2,57620:0:0:0:0:
64,192,57433,1,0,0:0:0:0:
448,192,57620,128,0,57808:0:0:0:0:
64,192,57808,128,2,57995:0:0:0:0:
320,192,57808,1,0,0:0:0:0:
320,192,57995,128,0,58183:0:0:0:0:
192,192,58183,128,2,58370:0:0:0:0:
448,192,58183,1,0,0:0:0:0:
64,192,58370,128,0,58558:0:0:0:0:
448,192,58558,1,0,0:0:0:0:
320,192,58558,1,8,0:0:0:0:
320,192,58745,1,0,0:0:0:0:
448,192,58745,1,8,0:0:0:0:
64,192,59120,1,2,0:0:0:0:
448,192,59308,1,2,0:0:0:0:
192,192,59683,1,8,0:0:0:0:
64,192,59683,1,0,0:0:0:0:
192,192,59870,1,0,0:0:0:0:
64,192,59870,1,8,0:0:0:0:
448,192,60245,1,2,0:0:0:0:
64,192,60433,1,2,0:0:0:0:
64,192,60808,1,2,0:0:0:0:
448,192,60808,1,0,0:0:0:0:
192,192,60995,1,0,0:0:0:0:
320,192,60995,1,2,0:0:0:0:
448,192,61183,1,2,0:0:0:0:
320,192,61370,1,0,0:0:0:0:
192,192,61558,1,2,0:0:0:0:
64,192,61558,128,0,62308:0:0:0:0:
448,192,61558,1,4,0:0:0:0:
192,192,62120,1,2,0:0:0:0:
320,192,62308,1,8,0:0:0:0:
448,192,62308,1,0,0:0:0:0:
192,192,62495,1,0,0:0:0:0:
448,192,62683,128,2,63808:0:0:0:0:
64,192,62683,1,4,0:0:0:0:
192,192,63058,1,0,0:0:0:0:
320,192,63245,1,0,0:0:0:0:
64,192,63433,1,2,0:0:0:0:
320,192,63808,1,0,0:0:0:0:
64,192,63808,1,8,0:0:0:0:
192,192,64183,1,0,0:0:0:0:
320,192,64558,128,0,65308:0:0:0:0:
448,192,64558,1,2,0:0:0:0:
64,192,64933,1,0,0:0:0:0:
192,192,65120,1,2,0:0:0:0:
64,192,65308,1,8,0:0:0:0:
448,192,65308,1,0,0:0:0:0:
192,192,65495,1,0,0:0:0:0:
64,192,65683,128,0,66808:0:0:0:0:
448,192,65683,1,4,0:0:0:0:
320,192,65683,1,2,0:0:0:0:
192,192,66058,1,0,0:0:0:0:
448,192,66245,1,0,0:0:0:0:
320,192,66433,1,2,0:0:0:0:
192,192,66808,1,0,0:0:0:0:
448,192,66808,1,8,0:0:0:0:
64,192,67183,1,0,0:0:0:0:
320,192,67183,1,2,0:0:0:0:
448,192,67558,1,4,0:0:0:0:
192,192,67558,1,2,0:0:0:0:
64,192,67558,128,0,68308:0:0:0:0:
320,192,67933,1,0,0:0:0:0:
192,192,68120,1,2,0:0:0:0:
320,192,68308,1,0,0:0:0:0:
448,192,68308,1,8,0:0:0:0:
192,192,68495,1,0,0:0:0:0:
448,192,68683,1,2,0:0:0:0:
320,192,68683,128,0,69808:0:0:0:0:
64,192,68683,1,4,0:0:0:0:
192,192,69245,1,0,0:0:0:0:
448,192,69433,1,2,0:0:0:0:
192,192,69620,1,0,0:0:0:0:
64,192,69808,1,8,0:0:0:0:
448,192,69808,1,0,0:0:0:0:
320,192,70183,1,0,0:0:0:0:
192,192,70183,1,2,0:0:0:0:
64,192,70558,1,4,0:0:0:0:
448,192,70558,128,0,71308:0:0:0:0:
192,192,70558,1,2,0:0:0:0:
320,192,70933,1,0,0:0:0:0:
192,192,71120,1,2,0:0:0:0:
64,192,71308,1,0,0:0:0:0:
320,192,71308,1,8,0:0:0:0:
192,192,71495,1,0,0:0:0:0:
64,192,71683,128,0,72808:0:0:0:0:
320,192,71683,1,2,0:0:0:0:
448,192,71683,1,4,0:0:0:0:
448,192,72245,1,2,0:0:0:0:
192,192,72433,1,2,0:0:0:0:
448,192,72808,1,8,0:0:0:0:
320,192,72808,1,0,0:0:0:0:
448,192,73183,1,0,0:0:0:0:
64,192,73183,1,0,0:0:0:0:
320,192,73370,1,2,0:0:0:0:
192,192,73370,1,0,0:0:0:0:
64,192,73558,1,2,0:0:0:0:
448,192,73558,128,4,74308:0:0:0:0:
192,192,73933,1,0,0:0:0:0:
64,192,74120,1,2,0:0:0:0:
192,192,74308,1,8,0:0:0:0:
320,192,74308,1,0,0:0:0:0:
64,192,74683,128,0,75808:0:0:0:0:
448,192,74683,1,4,0:0:0:0:
320,192,74683,1,2,0:0:0:0:
192,192,75058,1,0,0:0:0:0:
448,192,75245,1,0,0:0:0:0:
320,192,75433,1,2,0:0:0:0:
320,192,75808,1,8,0:0:0:0:
192,192,75808,1,0,0:0:0:0:
448,192,75995,1,0,0:0:0:0:
192,192,76183,1,0,0:0:0:0:
64,192,76370,1,0,0:0:0:0:
192,192,76558,1,2,0:0:0:0:
448,192,76558,128,0,77308:0:0:0:0:
320,192,76558,1,4,0:0:0:0:
64,192,76933,1,0,0:0:0:0:
320,192,77120,1,2,0:0:0:0:
64,192,77308,1,8,0:0:0:0:
192,192,77308,1,0,0:0:0:0:
320,192,77495,1,0,0:0:0:0:
192,192,77683,128,0,78433:0:0:0:0:
64,192,77683,1,2,0:0:0:0:
448,192,77683,1,4,0:0:0:0:
448,192,78058,1,0,0:0:0:0:
320,192,78245,1,2,0:0:0:0:
64,192,78433,1,2,0:0:0:0:
64,192,78808,1,0,0:0:0:0:
448,192,78808,128,0,79183:0:0:0:0:
192,192,79183,1,2,0:0:0:0:
320,192,79183,128,0,79558:0:0:0:0:
64,192,79558,128,4,80308:0:0:0:0:
448,192,79558,1,2,0:0:0:0:
320,192,79933,1,0,0:0:0:0:
192,192,80120,1,2,0:0:0:0:
320,192,80308,1,8,0:0:0:0:
448,192,80308,1,0,0:0:0:0:
192,192,80495,1,0,0:0:0:0:
64,192,80683,1,2,0:0:0:0:
320,192,80683,128,0,81808:0:0:0:0:
448,192,80683,1,4,0:0:0:0:
192,192,81058,1,0,0:0:0:0:
448,192,81245,1,0,0:0:0:0:
192,192,81433,1,2,0:0:0:0:
64,192,81808,1,8,0:0:0:0:
448,192,81808,1,0,0:0:0:0:
192,192,81995,1,0,0:0:0:0:
320,192,82183,1,0,0:0:0:0:
192,192,82370,1,0,0:0:0:0:
64,192,82558,128,0,83308:0:0:0:0:
320,192,82558,1,4,0:0:0:0:
448,192,82558,1,2,0:0:0:0:
192,192,82933,1,0,0:0:0:0:
320,192,83120,1,2,0:0:0:0:
448,192,83308,1,8,0:0:0:0:
192,192,83308,1,0,0:0:0:0:
320,192,83495,1,0,0:0:0:0:
64,192,83683,1,2,0:0:0:0:
192,192,83683,128,0,85183:0:0:0:0:
448,192,83683,1,4,0:0:0:0:
320,192,85370,128,0,85558:0:0:0:0:
448,192,85558,128,0,90058:0:0:0:0:
64,192,85558,1,0,0:0:0:0:
