osu file format v14

[General]
AudioFilename: mirai.mp3
AudioLeadIn: 452
PreviewTime: 37735
Countdown: 0
SampleSet: None
StackLeniency: 0.7
Mode: 0
LetterboxInBreaks: 0
WidescreenStoryboard: 1

[Editor]
Bookmarks: 37548,60798,66610,85548,90048
DistanceSpacing: 1.2
BeatDivisor: 4
GridSize: 4
TimelineZoom: 1

[Metadata]
Title:MIRAI (TV Size)
TitleUnicode:MIRAI (TV Size)
Artist:GARNiDELiA
ArtistUnicode:GARNiDELiA
Creator:HonKAn
Version:Insane
Source:ガンスリンガー ストラトス
Tags:ending Gunslinger Stratos Zerss hopperhtkn StarForYou rui
BeatmapID:1652714
BeatmapSetID:326765

[Difficulty]
HPDrainRate:7
CircleSize:4
OverallDifficulty:7
ApproachRate:7.5
SliderMultiplier:2.5
SliderTickRate:1

[Events]
//Background and Video events
0,0,"44031180_p0.jpg",0,0
//Break Periods
//Storyboard Layer 0 (Background)
//Storyboard Layer 1 (Fail)
//Storyboard Layer 2 (Pass)
//Storyboard Layer 3 (Foreground)
//Storyboard Sound Samples

[TimingPoints]
1548,750,4,2,1,40,1,0
1548,-200,4,2,1,40,0,0
1923,-200,4,2,1,20,0,0
2298,-200,4,2,1,40,0,0
2485,-200,4,2,1,5,0,0
2673,-200,4,2,1,40,0,0
3235,-200,4,2,1,5,0,0
3423,-200,4,2,1,40,0,0
4360,-200,4,2,1,20,0,0
4548,-200,4,2,1,30,0,0
4735,-200,4,2,1,5,0,0
4923,-200,4,2,1,30,0,0
5110,-200,4,2,1,5,0,0
5298,-200,4,2,1,30,0,0
5485,-200,4,2,1,5,0,0
5673,-200,4,2,1,30,0,0
6235,-200,4,2,1,5,0,0
6423,-200,4,2,1,40,0,0
6798,-200,4,2,1,30,0,0
7173,-200,4,2,1,40,0,0
7360,-200,4,2,1,30,0,0
7548,-200,4,2,1,40,0,0
7923,-200,4,2,1,20,0,0
8298,-200,4,2,1,40,0,0
8485,-200,4,2,1,5,0,0
8673,-200,4,2,1,40,0,0
9235,-200,4,2,1,5,0,0
9423,-200,4,2,1,40,0,0
9798,-200,4,2,1,30,0,0
10173,-200,4,2,1,40,0,0
10360,-200,4,2,1,20,0,0
10548,-200,4,2,1,30,0,0
10735,-200,4,2,1,5,0,0
10923,-200,4,2,1,30,0,0
11110,-200,4,2,1,5,0,0
11298,-200,4,2,1,30,0,0
11485,-200,4,2,1,5,0,0
11673,-200,4,2,1,30,0,0
12423,-200,4,2,1,5,0,0
13548,-200,4,2,1,40,0,0
14485,-200,4,2,1,5,0,0
14673,-200,4,2,1,40,0,0
15423,-200,4,2,1,25,0,0
15798,-200,4,2,1,5,0,0
16548,-200,4,2,1,40,0,0
17485,-200,4,2,1,5,0,0
17673,-200,4,2,1,40,0,0
18423,-200,4,2,1,25,0,0
18798,-200,4,2,1,5,0,0
19548,-200,4,2,1,40,0,0
20485,-200,4,2,1,5,0,0
20673,-200,4,2,1,40,0,0
21423,-200,4,2,1,25,0,0
21798,-200,4,2,1,5,0,0
22548,-200,4,2,1,40,0,0
22923,-200,4,2,1,20,0,0
23110,-200,4,2,1,30,0,0
23673,-200,4,2,1,40,0,0
24423,-200,4,2,1,25,0,0
24798,-200,4,2,1,35,0,0
25548,-200,4,2,1,40,0,0
37548,-125,4,2,1,40,0,0
37923,-125,4,2,1,20,0,0
38298,-125,4,2,1,40,0,0
38485,-125,4,2,1,33,0,0
38673,-125,4,2,1,40,0,0
39235,-125,4,2,1,5,0,0
39423,-125,4,2,1,40,0,0
39610,-125,4,2,1,15,0,0
39798,-125,4,2,1,40,0,0
40173,-125,4,2,1,30,0,0
40548,-125,4,2,1,40,0,0
40923,-125,4,2,1,30,0,0
41298,-125,4,2,1,40,0,0
41485,-125,4,2,1,33,0,0
41673,-125,4,2,1,40,0,0
42235,-125,4,2,1,5,0,0
42423,-125,4,2,1,30,0,0
42798,-125,4,2,1,40,0,0
43173,-125,4,2,1,20,0,0
43548,-125,4,2,1,40,0,0
43923,-125,4,2,1,30,0,0
44298,-125,4,2,1,40,0,0
44485,-125,4,2,1,33,0,0
44673,-125,4,2,1,40,0,0
45235,-125,4,2,1,5,0,0
45423,-125,4,2,1,40,0,0
45798,-125,4,2,1,30,0,0
46173,-125,4,2,1,40,0,0
46360,-125,4,2,1,30,0,0
46548,-125,4,2,1,40,0,0
46923,-125,4,2,1,23,0,0
47110,-125,4,2,1,40,0,0
47485,-125,4,2,1,23,0,0
47673,-125,4,2,1,40,0,0
48048,-125,4,2,1,23,0,0
48235,-125,4,2,1,40,0,0
48423,-125,4,2,1,30,0,0
48798,-125,4,2,1,40,0,0
49360,-125,4,2,1,5,0,0
49548,-125,4,2,1,40,0,0
49923,-125,4,2,1,30,0,0
50110,-125,4,2,1,40,0,0
50485,-125,4,2,1,40,0,0
50673,-125,4,2,1,30,0,0
50860,-125,4,2,1,5,0,0
51048,-125,4,2,1,40,0,0
51798,-125,4,2,1,20,0,0
52360,-125,4,2,1,30,0,0
52548,-125,4,2,1,40,0,0
53110,-125,4,2,1,5,0,0
53298,-125,4,2,1,30,0,0
53860,-125,4,2,1,5,0,0
54048,-125,4,2,1,40,0,0
54610,-125,4,2,1,5,0,0
54798,-125,4,2,1,30,0,0
55360,-125,4,2,1,5,0,0
55548,-125,4,2,2,20,0,0
55735,-125,4,2,1,5,0,0
55923,-125,4,2,2,25,0,0
56110,-125,4,2,1,5,0,0
56298,-142.857142857143,4,2,2,30,0,0
56485,-142.857142857143,4,2,1,5,0,0
56673,-142.857142857143,4,2,2,35,0,0
56860,-142.857142857143,4,2,1,5,0,0
57048,-166.666666666667,4,2,2,40,0,0
57235,-166.666666666667,4,2,1,5,0,0
57423,-166.666666666667,4,2,2,45,0,0
57610,-166.666666666667,4,2,1,5,0,0
57798,-200,4,2,2,50,0,0
57985,-200,4,2,1,5,0,0
58173,-200,4,2,2,55,0,0
58360,-200,4,2,1,5,0,0
58548,-125,4,2,1,60,0,0
58735,-200,4,2,1,60,0,0
59110,-125,4,2,1,60,0,0
59673,-200,4,2,1,60,0,0
59860,-125,4,2,1,60,0,0
60985,-200,4,2,1,60,0,0
61360,-125,4,2,1,60,0,0
61548,-100,4,2,1,60,0,1
61923,-100,4,2,1,5,0,1
62110,-100,4,2,1,60,0,1
62298,-125,4,2,1,60,0,1
62485,-100,4,2,1,5,0,1
62673,-166.666666666667,4,2,1,60,0,1
63235,-100,4,2,1,5,0,1
63423,-100,4,2,1,60,0,1
64548,-125,4,2,1,60,0,1
64923,-100,4,2,1,5,0,1
65110,-125,4,2,1,60,0,1
65485,-100,4,2,1,30,0,1
65673,-125,4,2,1,60,0,1
66048,-125,4,2,1,30,0,1
66235,-100,4,2,1,60,0,1
66985,-100,4,2,1,5,0,1
67173,-100,4,2,1,60,0,1
68298,-125,4,2,1,60,0,1
68485,-100,4,2,1,60,0,1
68673,-166.666666666667,4,2,1,60,0,1
69235,-100,4,2,1,5,0,1
69423,-100,4,2,1,60,0,1
70548,-111.111111111111,4,2,1,60,0,1
70735,-100,4,2,1,5,0,1
70923,-100,4,2,1,60,0,1
71110,-125,4,2,1,60,0,1
71485,-100,4,2,1,30,0,1
71673,-125,4,2,1,60,0,1
72048,-100,4,2,1,30,0,1
72235,-200,4,2,1,60,0,1
72610,-100,4,2,1,60,0,1
73923,-100,4,2,1,5,0,1
74110,-100,4,2,1,60,0,1
74298,-125,4,2,1,60,0,1
74485,-100,4,2,1,5,0,1
74673,-166.666666666667,4,2,1,60,0,1
75235,-100,4,2,1,5,0,1
75423,-200,4,2,1,60,0,1
75610,-100,4,2,1,5,0,1
75798,-125,4,2,1,60,0,1
75985,-100,4,2,1,5,0,1
76173,-125,4,2,1,60,0,1
76360,-100,4,2,1,5,0,1
76548,-100,4,2,1,60,0,1
76923,-100,4,2,1,5,0,1
77110,-100,4,2,1,60,0,1
77298,-125,4,2,1,60,0,1
77485,-100,4,2,1,60,0,1
77673,-166.666666666667,4,2,1,60,0,1
78235,-100,4,2,1,5,0,1
78423,-100,4,2,1,60,0,1
78610,-100,4,2,1,5,0,1
78798,-100,4,2,1,60,0,1
78985,-100,4,2,1,5,0,1
79173,-100,4,2,1,60,0,1
79360,-100,4,2,1,5,0,1
79548,-100,4,2,1,60,0,1
79923,-100,4,2,1,5,0,1
80110,-100,4,2,1,60,0,1
80485,-100,4,2,1,50,0,1
80673,-100,4,2,1,60,0,1
81048,-100,4,2,1,5,0,1
81235,-100,4,2,1,50,0,1
81423,-100,4,2,1,60,0,1
82173,-125,4,2,1,60,0,1
82360,-100,4,2,1,5,0,1
82548,-100,4,2,1,60,0,1
82923,-100,4,2,1,5,0,1
83110,-100,4,2,1,60,0,1
83485,-100,4,2,1,5,0,1
83673,-111.111111111111,4,2,1,60,0,1
84048,-111.111111111111,4,2,1,30,0,1
84798,-111.111111111111,4,2,1,20,0,1
85360,-111.111111111111,4,2,1,5,0,0
85548,-200,4,2,1,40,0,0
86298,-200,4,2,1,5,0,0

[Colours]
Combo1 : 255,255,202
Combo2 : 241,135,138
Combo3 : 199,244,97
Combo4 : 130,238,253

[HitObjects]
420,360,1173,5,2,0:0:0:0:
460,248,1360,1,2,0:0:0:0:
384,288,1548,6,0,L|460:276,1,62.5,2|0,0:0|0:0,0:0:0:0:
348,272,2298,2,0,L|312:268,1,31.25,2|0,0:0|0:0,0:0:0:0:
164,276,2673,2,0,P|147:321|167:369,1,93.75,2|0,0:0|0:0,0:0:0:0:
176,368,3423,5,0,0:0:0:0:
76,344,3798,1,0,0:0:0:0:
84,352,4173,1,2,0:0:0:0:
8,288,4360,1,2,0:0:0:0:
104,192,4548,6,0,L|108:156,1,31.25,2|0,0:0|0:0,0:0:0:0:
152,36,4923,2,0,L|164:76,1,31.25,2|0,0:0|0:0,0:0:0:0:
216,196,5298,2,0,L|220:164,1,31.25,2|0,0:0|0:0,0:0:0:0:
300,40,5673,2,0,P|324:92|312:128,1,93.75,2|0,0:0|0:0,0:0:0:0:
336,120,6423,5,0,0:0:0:0:
424,144,6798,1,0,0:0:0:0:
412,144,7173,1,2,0:0:0:0:
504,116,7360,1,2,0:0:0:0:
340,84,7548,6,0,P|324:136|336:160,1,62.5,2|0,0:0|0:0,0:0:0:0:
428,228,8298,2,0,L|480:220,1,31.25,2|0,0:0|0:0,0:0:0:0:
504,336,8673,2,0,L|400:304,1,93.75,2|0,0:0|0:0,0:0:0:0:
336,324,9423,5,2,0:0:0:0:
264,292,9798,1,0,0:0:0:0:
276,292,10173,1,2,0:0:0:0:
196,316,10360,1,2,0:0:0:0:
112,300,10548,6,0,L|120:336,1,31.25,2|0,0:0|0:0,0:0:0:0:
48,208,10923,2,0,L|44:240,1,31.25,2|0,0:0|0:0,0:0:0:0:
128,116,11298,2,0,L|144:160,1,31.25,2|0,0:0|0:0,0:0:0:0:
72,44,11673,2,0,P|28:92|48:148,1,125,2|0,0:0|0:0,0:0:0:0:
472,256,13548,6,0,L|308:228,1,156.25,2|0,0:0|0:0,0:0:0:0:
280,308,14673,2,0,L|464:341,1,187.5,2|0,0:0|0:0,0:0:0:0:
40,256,16548,6,0,L|204:228,1,156.25,2|0,0:0|0:0,0:0:0:0:
232,308,17673,2,0,L|47:341,1,187.5,2|0,0:0|0:0,0:0:0:0:
304,276,19548,6,0,P|324:188|272:140,1,156.25,2|0,0:0|0:0,0:0:0:0:
250,219,20673,2,0,P|317:279|398:243,1,187.5,2|0,0:0|0:0,0:0:0:0:
398,243,22548,6,0,P|384:280|400:316,1,62.5,2|0,0:0|0:0,0:0:0:0:
468,340,23110,1,2,0:0:0:0:
468,340,23485,1,0,0:0:0:0:
360,256,23673,2,0,L|210:269,1,125,2|2,0:0|0:0,0:0:0:0:
156,320,24798,1,2,0:0:0:0:
256,56,25548,6,0,P|264:88|252:128,1,62.5,2|0,0:0|0:0,0:0:0:0:
192,168,26110,1,0,0:0:0:0:
112,144,26298,2,0,L|80:136,1,31.25
192,168,26673,2,0,L|324:148,1,125,2|0,0:0|0:0,0:0:0:0:
344,160,27610,1,0,0:0:0:0:
344,160,28173,5,0,0:0:0:0:
456,152,28360,1,0,0:0:0:0:
384,232,28548,6,0,L|372:156,1,62.5,2|0,0:0|0:0,0:0:0:0:
420,304,29110,2,0,L|432:236,1,62.5
392,352,29673,1,0,0:0:0:0:
448,208,30048,2,0,L|528:192,1,62.5,2|0,0:0|0:0,0:0:0:0:
396,136,30798,1,0,0:0:0:0:
420,208,31173,1,0,0:0:0:0:
420,108,31548,6,0,P|380:88|316:112,1,93.75,2|0,0:0|0:0,0:0:0:0:
292,112,32298,2,0,P|264:112|240:100,1,31.25
136,48,32673,2,0,P|152:100|132:132,1,93.75,2|0,0:0|0:0,0:0:0:0:
48,164,33423,1,0,0:0:0:0:
48,164,33798,5,0,0:0:0:0:
40,148,34173,1,0,0:0:0:0:
76,264,34548,6,0,L|64:340,1,62.5,2|0,0:0|0:0,0:0:0:0:
160,248,35110,2,0,L|148:332,1,62.5,2|0,0:0|0:0,0:0:0:0:
300,204,35673,2,0,L|312:132,1,62.5,2|2,0:0|0:0,0:0:0:0:
400,88,36423,5,0,0:0:0:0:
460,132,36610,1,2,0:0:0:0:
472,208,36798,1,0,0:0:0:0:
488,116,36985,5,2,0:0:0:0:
448,208,37173,2,0,L|460:260,1,31.25,2|0,0:0|0:0,0:0:0:0:
479,313,37548,5,0,0:0:0:0:
485,291,37923,1,0,0:0:0:0:
444,360,38298,6,0,L|376:368,1,50,2|0,0:0|0:0,0:0:0:0:
280,352,38673,2,0,L|452:364,1,150,2|0,0:0|0:0,0:0:0:0:
240,328,39423,2,0,L|176:340,1,50,2|0,0:0|0:0,0:0:0:0:
112,320,39798,1,8,0:0:0:0:
280,352,40173,1,2,0:1:0:0:
300,352,40548,1,2,0:1:0:0:
276,276,40923,5,2,0:0:0:0:
124,220,41298,2,0,P|102:246|101:271,1,50,2|0,0:0|0:0,0:0:0:0:
196,206,41673,2,0,P|130:200|100:96,1,150,2|0,0:0|0:0,0:0:0:0:
95,123,42423,1,2,0:1:0:0:
88,32,42798,1,8,0:0:0:0:
91,25,43173,1,2,0:1:0:0:
416,48,43548,6,0,P|444:100|412:160,1,100,2|0,0:1|0:0,0:0:0:0:
308,120,44298,2,0,P|308:92|340:56,1,50,2|0,0:0|0:0,0:0:0:0:
380,156,44673,2,0,L|220:124,1,150,2|0,0:0|0:0,0:0:0:0:
220,104,45423,5,2,0:1:0:0:
236,184,45798,1,8,0:0:0:0:
208,292,46173,1,2,0:1:0:0:
232,168,46360,1,0,0:0:0:0:
132,233,46548,6,0,L|27:242,1,100,2|0,0:1|0:0,0:0:0:0:
85,129,47110,2,0,P|134:131|173:165,1,100,2|0,0:1|0:0,0:0:0:0:
287,264,47673,2,0,P|317:295|384:292,1,100,2|0,0:1|0:0,0:0:0:0:
461,197,48235,2,0,L|393:206,1,50
338,211,48610,1,0,0:0:0:0:
408,132,48798,6,0,P|424:112|428:84,1,50,8|0,0:0|0:3,0:0:0:0:
348,74,49173,2,0,P|348:52|336:28,1,50,4|0,0:3|0:0,0:0:0:0:
268,68,49548,6,0,P|276:124|316:148,1,100,4|0,0:0|0:0,0:0:0:0:
408,132,50110,1,2,0:0:0:0:
408,132,50485,1,2,0:0:0:0:
456,200,50673,2,0,L|448:280,1,50,2|0,0:1|0:0,0:0:0:0:
332,304,51048,2,0,L|344:196,1,100,0|2,0:0|0:1,0:0:0:0:
168,204,51798,6,0,L|180:304,1,100,8|2,0:0|0:1,0:0:0:0:
64,344,52360,1,0,0:0:0:0:
44,360,52548,2,0,P|0:308|48:224,1,150,2|0,0:0|0:0,0:0:0:0:
148,200,53298,2,0,L|312:224,1,150,10|0,0:0|0:0,0:0:0:0:
404,144,54048,6,0,P|376:124|240:156,1,150,2|0,0:1|0:0,0:0:0:0:
256,300,54798,2,0,P|308:328|404:300,1,150,10|0,0:0|0:0,0:0:0:0:
404,300,55548,6,0,P|416:332|436:356,1,50,4|0,0:1|0:0,0:0:0:0:
476,260,55923,2,0,P|480:280|516:320,1,50,4|0,0:0|0:0,0:0:0:0:
292,220,56298,6,0,P|284:248|272:264,1,43.749998664856,4|0,0:0|0:0,0:0:0:0:
224,184,56673,2,0,P|216:208|200:228,1,43.749998664856,4|0,0:0|0:0,0:0:0:0:
424,128,57048,6,0,P|428:152|440:168,1,37.4999988555909,4|0,0:0|0:0,0:0:0:0:
492,92,57423,2,0,P|496:116|516:136,1,37.4999988555909,4|0,0:0|0:0,0:0:0:0:
304,56,57798,6,0,P|304:72|296:96,1,31.25,4|0,0:0|0:0,0:0:0:0:
232,36,58173,2,0,P|228:64|216:80,1,31.25,4|0,0:0|0:0,0:0:0:0:
188,132,58548,5,4,0:0:0:0:
80,92,58735,2,0,P|64:68|76:16,1,62.5,6|8,0:0|0:3,0:0:0:0:
69,29,59298,1,8,0:3:0:0:
120,192,59673,6,0,L|128:148,1,31.25,4|4,0:0|0:0,0:0:0:0:
52,252,60235,1,4,0:3:0:0:
76,320,60423,1,4,0:3:0:0:
64,228,60798,5,8,0:0:0:0:
76,320,60985,2,0,L|8:304,1,62.5,8|0,0:0|0:0,0:0:0:0:
140,364,61548,6,0,L|292:340,1,125,4|0,0:0|0:0,0:0:0:0:
340,356,62110,1,2,0:1:0:0:
252,336,62298,2,0,P|240:304|256:264,1,50,8|0,0:0|0:0,0:0:0:0:
372,240,62673,2,0,P|400:288|372:352,1,112.499996566773,4|0,0:1|0:0,0:0:0:0:
328,384,63423,1,2,0:1:0:0:
320,384,63798,5,8,0:0:0:0:
492,336,64173,1,0,0:0:0:0:
312,184,64548,6,0,L|284:104,1,50,4|0,0:0|0:0,0:0:0:0:
320,56,64923,1,0,0:0:0:0:
412,152,65110,2,0,P|372:200|316:200,1,100,2|0,0:1|0:0,0:0:0:0:
186,203,65673,2,0,P|228:215|260:294,1,100,4|0,0:1|0:0,0:0:0:0:
340,360,66235,6,0,P|332:328|343:299,1,62.5,0|2,0:0|0:1,0:0:0:0:
423,264,66610,1,0,0:0:0:0:
315,274,66798,2,0,P|287:256|247:264,1,62.5,8|0,0:0|0:0,0:0:0:0:
188,296,67173,1,2,0:1:0:0:
188,296,67548,6,0,P|212:228|168:180,1,125,4|0,0:0|0:0,0:0:0:0:
92,184,68110,1,2,0:1:0:0:
48,256,68298,2,0,P|47:280|58:303,1,50,8|0,0:0|0:0,0:0:0:0:
92,184,68673,2,0,P|104:128|56:80,1,112.499996566773,4|0,0:1|0:0,0:0:0:0:
4,64,69423,1,2,0:1:0:0:
0,72,69798,5,8,0:0:0:0:
196,20,70173,1,0,0:0:0:0:
40,184,70548,6,0,L|124:172,1,56.2499982833863,4|0,0:1|0:0,0:0:0:0:
172,212,70923,1,0,0:0:0:0:
368,168,71110,2,0,P|404:120|376:60,1,100,2|0,0:1|0:0,0:0:0:0:
296,168,71673,2,0,P|332:180|400:124,1,100,4|0,0:0|0:0,0:0:0:0:
248,236,72235,6,0,L|241:270,1,31.25,8|2,0:0|0:1,0:0:0:0:
173,314,72610,1,0,0:0:0:0:
72,204,72798,6,0,P|44:148|80:80,1,125,8|2,0:0|0:1,0:0:0:0:
140,76,73360,1,2,0:1:0:0:
168,172,73548,2,0,L|28:156,1,125,4|0,0:0|0:0,0:0:0:0:
184,192,74110,1,2,0:1:0:0:
244,120,74298,2,0,L|312:108,1,50,8|0,0:0|0:0,0:0:0:0:
380,188,74673,6,0,P|400:248|375:292,1,112.499996566773,4|0,0:1|0:0,0:0:0:0:
352,304,75423,2,0,L|320:296,1,31.25,2|0,0:1|0:0,0:0:0:0:
412,356,75798,6,0,L|496:340,1,50,8|0,0:0|0:0,0:0:0:0:
256,324,76173,2,0,L|184:336,1,50
80,272,76548,6,0,P|80:332|132:360,1,125,4|0,0:0|0:0,0:0:0:0:
296,356,77110,1,2,0:1:0:0:
352,296,77298,2,0,P|356:272|336:224,1,50,8|0,0:0|0:0,0:0:0:0:
240,156,77673,6,0,L|356:148,1,112.499996566773,4|0,0:1|0:1,0:0:0:0:
444,192,78423,6,0,L|376:188,1,62.5,0|0,0:1|0:0,0:0:0:0:
476,112,78798,2,0,L|408:108,1,62.5,8|0,0:0|0:0,0:0:0:0:
492,212,79173,2,0,L|424:208,1,62.5,2|0,0:1|0:0,0:0:0:0:
328,248,79548,6,0,P|300:312|348:368,1,125,4|0,0:0|0:0,0:0:0:0:
440,348,80110,1,2,0:1:0:0:
464,204,80298,1,8,0:0:0:0:
328,248,80485,1,0,0:0:0:0:
328,248,80673,6,0,P|264:228|196:260,1,125,4|0,0:1|0:0,0:0:0:0:
116,280,81235,2,0,P|84:276|60:256,1,62.5,2|2,0:1|0:1,0:0:0:0:
40,184,81610,1,0,0:0:0:0:
72,60,81798,1,8,0:0:0:0:
68,52,81985,5,2,0:1:0:0:
284,116,82173,2,0,P|308:112|332:93,1,50,2|2,0:1|0:1,0:0:0:0:
224,60,82548,6,0,B|244:124|244:124|232:164|240:196,1,125,4|0,0:0|0:0,0:0:0:0:
328,260,83110,1,2,0:1:0:0:
328,260,83298,2,0,P|360:248|404:256,1,62.5,8|0,0:0|0:0,0:0:0:0:
449,319,83673,6,0,B|438:337|438:337|420:315|447:290|447:290|446:283|446:283|441:264|441:264|447:258|447:258|455:246|458:227|458:227|456:213|456:213|483:210|498:200|510:181|510:181|495:179|477:161|477:161|461:141|425:144|425:144|419:145|419:145|417:144|417:144|408:146|396:140|379:135|367:119|364:104|365:76|377:58|398:45|417:48|460:52|466:79|445:101|441:129,1,506.249984550477
256,192,85548,12,0,90048,0:0:0:0:
