osu file format v14

[General]
AudioFilename: audio.mp3
AudioLeadIn: 0
PreviewTime: 221867
Countdown: 0
SampleSet: Soft
StackLeniency: 0.3
Mode: 0
LetterboxInBreaks: 0
WidescreenStoryboard: 1

[Editor]
DistanceSpacing: 0.1
BeatDivisor: 4
GridSize: 4
TimelineZoom: 1.500006

[Metadata]
Title:MIRAI
TitleUnicode:MIRAI
Artist:GARNiDELiA
ArtistUnicode:GARNiDELiA
Creator:Shiratoi
Version:Connection
Source:ガンスリンガー ストラトス
Tags:ending gunslinger stratos MARiA Mizuhashi Mai toku メイリア 水橋舞 ガルニデリア FoxyGrandpa
BeatmapID:1501516
BeatmapSetID:479795

[Difficulty]
HPDrainRate:6
CircleSize:4
OverallDifficulty:7
ApproachRate:8
SliderMultiplier:2.5
SliderTickRate:1

[Events]
//Background and Video events
0,0,"bg.jpg",0,0
//Break Periods
//Storyboard Layer 0 (Background)
//Storyboard Layer 1 (Fail)
//Storyboard Layer 2 (Pass)
//Storyboard Layer 3 (Foreground)
//Storyboard Sound Samples

[TimingPoints]
805,750,4,2,25,60,1,0
805,-125,4,2,25,60,0,0
1180,-125,4,2,22,60,0,0
1555,-125,4,2,21,60,0,0
1930,-125,4,2,20,60,0,0
3430,-125,4,2,25,60,0,0
3617,-125,4,2,24,60,0,0
3805,-125,4,2,23,60,0,0
4180,-125,4,2,24,60,0,0
4555,-125,4,2,20,60,0,0
4930,-125,4,2,25,60,0,0
5680,-125,4,2,20,60,0,0
6430,-125,4,2,25,60,0,0
6805,-125,4,2,23,60,0,0
7180,-125,4,2,22,60,0,0
7555,-125,4,2,21,60,0,0
7930,-125,4,2,24,60,0,0
8680,-125,4,2,23,60,0,0
9430,-125,4,2,23,60,0,0
9617,-125,4,2,24,60,0,0
9805,-125,4,2,23,60,0,0
10180,-125,4,2,25,60,0,0
10555,-125,4,2,24,60,0,0
10930,-125,4,2,23,60,0,0
11023,-125,4,2,23,7,0,0
12055,-125,4,2,26,5,0,0
12430,-125,4,2,1,15,0,0
12617,-125,4,2,1,25,0,0
12805,-125,4,2,4,35,0,0
14305,-125,4,2,27,35,0,0
14398,-125,4,2,4,35,0,0
17305,-125,4,2,27,35,0,0
17398,-125,4,2,4,35,0,0
20305,-125,4,2,27,35,0,0
20398,-125,4,2,4,35,0,0
22930,-125,4,2,9,40,0,0
23305,-125,4,2,27,30,0,0
23398,-125,4,2,9,30,0,0
23680,-125,4,2,28,30,0,0
23773,-125,4,2,9,30,0,0
24055,-125,4,2,30,30,0,0
24148,-125,4,2,1,20,0,0
25367,-142.857142857143,4,2,1,30,0,0
35680,-142.857142857143,4,2,1,25,0,0
36805,-142.857142857143,4,2,1,35,0,0
37930,-142.857142857143,4,2,1,35,0,0
39055,-142.857142857143,4,2,1,35,0,0
39430,-142.857142857143,4,2,1,35,0,0
42055,-142.857142857143,4,2,1,35,0,0
42805,-142.857142857143,4,2,1,35,0,0
45055,-142.857142857143,4,2,1,35,0,0
45430,-142.857142857143,4,2,1,35,0,0
48430,-142.857142857143,4,2,1,35,0,0
48805,-125,4,2,2,40,0,0
49180,-125,4,2,2,45,0,0
54055,-125,4,2,2,50,0,0
54242,-125,4,2,2,45,0,0
60055,-125,4,2,6,45,0,0
60805,-125,4,2,2,45,0,0
63805,-125,4,2,2,50,0,0
66805,-111.111111111111,4,2,2,40,0,0
66992,-111.111111111111,4,2,26,40,0,0
67180,-105.263157894737,4,2,5,25,0,0
67367,-105.263157894737,4,2,26,25,0,0
67555,-100,4,2,5,30,0,0
67742,-100,4,2,26,30,0,0
67930,-95.2380952380952,4,2,5,35,0,0
68117,-95.2380952380952,4,2,26,35,0,0
68305,-90.9090909090909,4,2,5,40,0,0
68492,-90.9090909090909,4,2,26,40,0,0
68680,-86.9565217391304,4,2,5,45,0,0
68867,-86.9565217391304,4,2,26,45,0,0
69055,-83.3333333333333,4,2,5,50,0,0
69242,-83.3333333333333,4,2,26,50,0,0
69430,-80,4,2,5,55,0,0
69617,-80,4,2,26,55,0,0
69805,-117.647058823529,4,2,6,60,0,0
70367,-117.647058823529,4,2,6,40,0,0
70930,-111.111111111111,4,2,6,60,0,0
71492,-111.111111111111,4,2,6,40,0,0
72055,-125,4,2,6,45,0,0
72805,-100,4,2,7,55,0,1
73180,-100,4,2,7,55,0,1
73930,-100,4,2,8,55,0,1
74305,-100,4,2,7,55,0,1
76930,-100,4,2,8,55,0,1
77305,-100,4,2,7,55,0,1
79930,-100,4,2,8,55,0,1
80305,-100,4,2,7,55,0,1
82930,-100,4,2,8,55,0,1
83305,-100,4,2,7,55,0,1
84242,-100,4,2,6,55,0,1
84805,-100,4,2,9,60,0,1
85180,-100,4,2,7,55,0,1
85930,-100,4,2,8,55,0,1
86305,-100,4,2,7,55,0,1
87055,-100,4,2,6,55,0,1
87805,-100,4,2,7,55,0,1
88930,-100,4,2,8,55,0,1
89305,-100,4,2,7,55,0,1
90805,-100,4,2,7,50,0,1
91930,-100,4,2,8,45,0,1
92305,-100,4,2,7,50,0,1
93805,-100,4,2,7,55,0,1
94930,-100,4,2,8,60,0,1
96805,-111.111111111111,4,2,7,50,0,0
97180,-111.111111111111,4,2,8,50,0,0
102805,-111.111111111111,4,2,7,50,0,0
103180,-111.111111111111,4,2,8,50,0,0
105055,-142.857142857143,4,2,8,45,0,0
105430,-142.857142857143,4,2,10,25,0,0
106555,-142.857142857143,4,2,10,25,0,0
108055,-142.857142857143,4,2,26,5,0,0
108430,-142.857142857143,4,2,11,40,0,0
108805,-125,4,2,11,40,0,0
119305,-111.111111111111,4,2,1,40,0,0
119430,-111.111111111111,4,2,1,20,0,0
119555,-111.111111111111,4,2,1,30,0,0
119680,-111.111111111111,4,2,1,45,0,0
119805,-111.111111111111,4,2,1,25,0,0
119930,-111.111111111111,4,2,1,35,0,0
120055,-111.111111111111,4,2,1,50,0,0
120180,-111.111111111111,4,2,1,30,0,0
120305,-111.111111111111,4,2,1,40,0,0
120430,-111.111111111111,4,2,1,55,0,0
120555,-111.111111111111,4,2,1,35,0,0
120680,-111.111111111111,4,2,1,45,0,0
120805,-125,4,2,11,40,0,0
130930,-166.666666666667,4,2,1,40,0,0
132430,-125,4,2,1,40,0,0
132805,-111.111111111111,4,2,11,45,0,0
141805,-111.111111111111,4,2,11,50,0,0
150805,-105.263157894737,4,2,11,35,0,0
151180,-100,4,2,11,40,0,0
151555,-95.2380952380952,4,2,11,45,0,0
151930,-90.9090909090909,4,2,11,50,0,0
152305,-86.9565217391304,4,2,11,50,0,0
152680,-83.3333333333333,4,2,11,55,0,0
153055,-80,4,2,11,60,0,0
153430,-76.9230769230769,4,2,11,65,0,0
153805,-105.263157894737,4,2,6,60,0,0
154367,-105.263157894737,4,2,6,40,0,0
154930,-100,4,2,6,60,0,0
155492,-100,4,2,6,40,0,0
156055,-100,4,2,6,55,0,0
156805,-100,4,2,14,55,0,1
157180,-100,4,2,7,55,0,1
160930,-100,4,2,8,55,0,1
161305,-100,4,2,7,55,0,1
162430,-100,4,2,8,40,0,1
162617,-100,4,2,7,55,0,1
163930,-100,4,2,8,55,0,1
164305,-100,4,2,7,55,0,1
166930,-100,4,2,8,55,0,1
167305,-100,4,2,7,55,0,1
168055,-100,4,2,6,55,0,1
168805,-100,4,2,9,55,0,1
169180,-100,4,2,7,55,0,1
169930,-100,4,2,8,55,0,1
170305,-100,4,2,7,55,0,1
171055,-100,4,2,6,55,0,1
171805,-100,4,2,7,55,0,1
172930,-100,4,2,8,50,0,1
173305,-100,4,2,7,55,0,1
175930,-100,4,2,8,55,0,1
176305,-100,4,2,7,55,0,1
178930,-100,4,2,13,55,0,1
179680,-100,4,2,7,55,0,1
180055,-100,4,2,7,45,0,1
180430,-100,4,2,6,45,0,1
180805,-111.111111111111,4,2,7,50,0,0
180992,-111.111111111111,4,2,12,50,0,0
181555,-111.111111111111,4,2,7,50,0,0
181742,-111.111111111111,4,2,12,50,0,0
182305,-111.111111111111,4,2,7,50,0,0
182492,-111.111111111111,4,2,12,50,0,0
183055,-111.111111111111,4,2,7,50,0,0
183242,-111.111111111111,4,2,12,50,0,0
183805,-111.111111111111,4,2,7,50,0,0
183992,-111.111111111111,4,2,12,50,0,0
184555,-111.111111111111,4,2,7,50,0,0
184742,-111.111111111111,4,2,12,50,0,0
185305,-125,4,2,7,55,0,0
185492,-125,4,2,12,55,0,0
185680,-125,4,2,1,50,0,0
186055,-125,4,2,7,55,0,0
186242,-125,4,2,12,55,0,0
186430,-125,4,2,1,55,0,0
186617,-125,4,2,8,55,0,0
186805,-100,4,2,11,55,0,0
186992,-100,4,2,12,55,0,0
187555,-100,4,2,7,55,0,0
187742,-100,4,2,12,55,0,0
188305,-100,4,2,7,55,0,0
188492,-100,4,2,12,55,0,0
189055,-100,4,2,7,55,0,0
189242,-100,4,2,12,55,0,0
189805,-125,4,2,11,50,0,0
190555,-125,4,2,6,50,0,0
191117,-125,4,2,7,50,0,0
191680,-125,4,2,6,50,0,0
192430,-125,4,2,11,50,0,0
192805,-125,4,2,7,50,0,0
195805,-125,4,2,8,45,0,0
196180,-125,4,2,7,50,0,0
198430,-125,4,2,12,50,0,0
198805,-125,4,2,8,50,0,0
199180,-125,4,2,7,50,0,0
203305,-125,4,2,8,50,0,0
203680,-125,4,2,12,35,0,0
203867,-125,4,2,12,40,0,0
204055,-125,4,2,6,45,0,0
204242,-125,4,2,6,50,0,0
204430,-125,4,2,6,55,0,0
204617,-125,4,2,6,60,0,0
204805,-111.111111111111,4,2,7,50,0,0
205180,-111.111111111111,4,2,7,50,0,0
207055,-111.111111111111,4,2,6,50,0,0
207805,-111.111111111111,4,2,8,50,0,0
208180,-111.111111111111,4,2,7,50,0,0
210055,-111.111111111111,4,2,6,50,0,0
210805,-111.111111111111,4,2,8,45,0,0
211180,-111.111111111111,4,2,10,45,0,0
211367,-111.111111111111,4,2,8,45,0,0
212305,-111.111111111111,4,2,10,45,0,0
212492,-111.111111111111,4,2,8,45,0,0
213055,-111.111111111111,4,2,6,45,0,0
213805,-111.111111111111,4,2,8,50,0,0
215305,-111.111111111111,4,2,10,50,0,0
215492,-111.111111111111,4,2,8,50,0,0
216055,-111.111111111111,4,2,6,50,0,0
216242,-111.111111111111,4,2,6,48,0,0
216430,-111.111111111111,4,2,6,46,0,0
216617,-111.111111111111,4,2,6,44,0,0
216805,-125,4,2,9,40,0,0
219805,-125,4,2,1,30,0,0
221305,-125,4,2,26,5,0,0
222055,-142.857142857143,4,2,1,30,0,0
222430,-166.666666666667,4,2,1,30,0,0
222805,-125,4,2,1,40,0,0
231055,-125,4,2,1,45,0,0
234055,-125,4,2,2,45,0,0
234805,-111.111111111111,4,2,11,40,0,0
238930,-111.111111111111,4,2,9,40,0,0
239492,-111.111111111111,4,2,11,40,0,0
243805,-105.263157894737,4,2,7,55,0,0
243992,-105.263157894737,4,2,26,5,0,0
244180,-100,4,2,7,60,0,0
244367,-100,4,2,26,5,0,0
244555,-90.9090909090909,4,2,7,65,0,0
244742,-90.9090909090909,4,2,26,5,0,0
244930,-105.263157894737,4,2,8,50,0,0
245492,-105.263157894737,4,2,26,5,0,0
245680,-105.263157894737,4,2,7,45,0,0
245867,-105.263157894737,4,2,26,5,0,0
246055,-105.263157894737,4,2,7,50,0,0
246242,-105.263157894737,4,2,26,5,0,0
246430,-105.263157894737,4,2,7,50,0,0
246617,-105.263157894737,4,2,26,5,0,0
246805,-100,4,2,7,50,0,0
247180,-100,4,2,6,50,0,0
247555,-105.263157894737,4,2,8,50,0,0
247742,-105.263157894737,4,2,26,5,0,0
247930,-111.111111111111,4,2,6,50,0,0
248305,750,4,2,7,55,1,1
248680,-100,4,2,7,55,0,1
249430,-100,4,2,8,55,0,1
249805,-100,4,2,7,55,0,1
252430,-100,4,2,8,55,0,1
252805,-100,4,2,7,55,0,1
255430,-100,4,2,8,55,0,1
255805,-100,4,2,7,55,0,1
258430,-100,4,2,8,55,0,1
258617,-100,4,2,7,55,0,1
258805,-100,4,2,6,55,0,1
259180,-100,4,2,6,55,0,1
259555,-100,4,2,7,55,0,1
259930,-100,4,2,7,55,0,1
260305,-100,4,2,9,55,0,1
260492,-100,4,2,7,55,0,1
261430,-100,4,2,8,55,0,1
261805,-100,4,2,7,55,0,1
262555,-100,4,2,6,55,0,1
263305,-100,4,2,7,55,0,1
264430,-100,4,2,8,55,0,1
264992,-100,4,2,7,55,0,1
267617,-100,4,2,8,55,0,1
267992,-100,4,2,7,55,0,1
268742,-100,4,2,6,55,0,1
269305,-100,4,2,7,55,0,1
270430,-200,4,2,8,55,0,1
271555,-100,4,2,26,5,0,1
271930,-100,4,2,1,55,0,1
272305,-125,4,2,1,40,0,0
275305,-125,4,2,1,40,0,0
275867,-125,4,2,1,40,0,0
276430,-125,4,2,1,40,0,0
276523,-125,4,2,1,10,0,0
276805,-125,4,2,1,20,0,0
276992,-125,4,2,1,30,0,0
277180,-125,4,2,1,40,0,0
277367,-125,4,2,1,50,0,0
277555,-125,4,2,1,60,0,0
277742,-125,4,2,1,70,0,0
277930,-125,4,2,1,80,0,0
278117,-125,4,2,1,90,0,0
278305,-100,4,2,7,45,0,0
279430,-100,4,2,8,45,0,0
279805,-100,4,2,7,45,0,0
282430,-100,4,2,8,45,0,0
282805,-100,4,2,7,45,0,0
285430,-100,4,2,8,45,0,0
285805,-100,4,2,7,45,0,0
286930,-100,4,2,6,45,0,0
287305,-100,4,2,7,45,0,0
288430,-100,4,2,8,45,0,0
288805,-100,4,2,7,45,0,0
289555,-100,4,2,6,46,0,0
289742,-100,4,2,6,47,0,0
289930,-100,4,2,6,48,0,0
290117,-100,4,2,6,49,0,0
290305,-100,4,2,13,50,0,0
290680,-100,4,2,7,50,0,0
291430,-100,4,2,8,50,0,0
291805,-100,4,2,7,50,0,0
292555,-100,4,2,6,50,0,0
293305,-100,4,2,7,50,0,0
294430,-100,4,2,8,50,0,0
294805,-100,4,2,7,50,0,0
295555,-100,4,2,6,50,0,0
296305,-100,4,2,7,50,0,0
297430,-100,4,2,8,50,0,0
297805,-100,4,2,7,50,0,0
300430,-100,4,2,8,50,0,0
300805,-100,4,2,7,50,0,0
301555,-100,4,2,6,51,0,0
301742,-100,4,2,6,52,0,0
301930,-100,4,2,6,53,0,0
302117,-100,4,2,6,54,0,0
302305,-100,4,2,13,55,0,0
302680,-100,4,2,7,55,0,0
303430,-100,4,2,8,55,0,0
303805,-100,4,2,7,55,0,0
306430,-100,4,2,8,55,0,0
306805,-100,4,2,7,55,0,0
307555,-100,4,2,6,55,0,0
308305,-100,4,2,7,55,0,0
309430,-100,4,2,8,55,0,0
309617,-100,4,2,7,55,0,0
310555,-100,4,2,6,55,0,0
311305,-100,4,2,7,55,0,0
312430,-100,4,2,8,55,0,0
312805,-100,4,2,7,55,0,0
313742,-100,4,2,7,40,0,0
313930,-100,4,2,7,55,0,0
314117,-100,4,2,6,55,0,0
314305,-100,4,2,14,55,0,0
314680,-100,4,2,7,55,0,0
315430,-100,4,2,8,55,0,0
315805,-100,4,2,7,55,0,0
318430,-100,4,2,8,55,0,0
318805,-100,4,2,7,55,0,0
320305,-100,4,2,9,55,0,0
320680,-100,4,2,7,55,0,0
321430,-100,4,2,8,55,0,0
321805,-100,4,2,7,55,0,0
324430,-100,4,2,14,60,0,0
325180,-100,4,2,1,50,0,0
325930,-100,4,2,16,40,0,0
326305,-111.111111111111,4,2,7,50,0,0
327805,-111.111111111111,4,2,1,45,0,0
329305,-111.111111111111,4,2,1,40,0,0
330805,-111.111111111111,4,2,1,35,0,0
332305,-111.111111111111,4,2,1,30,0,0
333805,-111.111111111111,4,2,1,25,0,0
335305,-111.111111111111,4,2,1,20,0,0
336055,-111.111111111111,4,2,1,15,0,0
336805,-111.111111111111,4,2,1,10,0,0
337555,-111.111111111111,4,2,1,5,0,0
337930,-111.111111111111,4,2,26,5,0,0

[Colours]
Combo1 : 168,251,194
Combo2 : 95,200,250
Combo3 : 234,219,134
Combo4 : 179,230,128

[HitObjects]
113,286,430,6,0,P|105:260|108:207,1,62.5,2|8,0:0|0:0,0:0:0:0:
173,173,805,6,0,L|280:166,1,100,4|2,0:0|0:0,0:0:0:0:
426,241,1555,1,2,0:0:0:0:
342,130,1930,2,0,B|369:214|314:200|342:276,1,150,2|0,0:0|0:0,0:0:0:0:
408,324,2680,1,0,0:0:0:0:
272,166,3055,1,0,0:0:0:0:
272,166,3430,2,0,P|258:211|258:230,1,50,2|8,0:0|0:0,0:0:0:0:
182,266,3805,6,0,P|213:316|219:369,2,100,4|8|2,0:0|0:0|0:0,0:0:0:0:
272,166,4930,2,0,B|260:194|230:204|230:204|181:171|134:201,1,150,2|0,0:0|0:0,0:0:0:0:
101,270,5680,1,0,0:0:0:0:
272,166,6055,1,0,0:0:0:0:
272,166,6430,2,0,P|258:123|257:96,1,50,2|8,0:0|0:0,0:0:0:0:
309,42,6805,6,0,L|426:44,1,100,2|2,0:0|0:0,0:0:0:0:
501,211,7555,1,2,0:0:0:0:
494,121,7930,2,0,L|344:118,1,150,2|0,0:0|0:0,0:0:0:0:
272,166,8680,1,0,0:0:0:0:
501,211,9055,1,0,0:0:0:0:
501,211,9430,2,0,P|491:249|491:280,1,50,4|8,0:0|0:0,0:0:0:0:
433,324,9805,6,0,P|378:313|317:329,2,100,4|2|8,0:0|0:0|0:0,0:0:0:0:
361,232,10930,6,0,B|289:206|216:288|265:361|265:361|332:361|341:298,1,300,8|0,0:0|0:0,0:0:0:0:
361,232,12430,1,2,0:0:0:0:
335,320,12617,1,2,0:0:0:0:
363,135,12805,6,0,B|374:188|374:188|356:246,1,100,6|4,0:0|0:0,0:0:0:0:
237,169,13555,1,12,0:0:0:0:
92,173,13930,6,0,B|170:205|154:146|238:170,1,150,6|0,0:0|0:0,0:0:0:0:
132,97,14680,1,4,0:0:0:0:
205,250,15055,1,12,0:0:0:0:
205,250,15430,1,4,0:0:0:0:
238,170,15617,1,0,0:0:0:0:
125,259,15805,6,0,P|163:323|203:333,1,100,6|4,0:0|0:0,0:0:0:0:
238,170,16555,1,12,0:0:0:0:
125,259,16930,6,0,P|57:293|-9:249,1,150,6|0,0:0|0:0,0:0:0:0:
61,214,17680,1,4,0:0:0:0:
101,375,18055,1,12,0:0:0:0:
138,172,18430,1,4,0:0:0:0:
125,259,18617,1,0,0:0:0:0:
72,125,18805,6,0,P|123:94|167:97,1,100,6|4,0:0|0:0,0:0:0:0:
61,214,19555,1,12,0:0:0:0:
287,170,19930,6,0,L|131:172,1,150,6|0,0:0|0:0,0:0:0:0:
72,125,20680,1,4,0:0:0:0:
125,259,21055,1,12,0:0:0:0:
240,92,21430,1,4,0:0:0:0:
287,170,21617,1,0,0:0:0:0:
326,91,21805,5,6,0:0:0:0:
326,91,22180,2,0,L|380:90,2,33.3333333333333,4|0|0,0:0|0:0|0:0,0:0:0:0:
284,18,22555,1,12,0:0:0:0:
331,181,22930,6,0,B|388:149|430:237|383:263|356:300|311:275|270:307|270:307|252:258|201:255|198:210|172:163|255:111|286:168,1,500,4|2,0:0|0:0,0:0:0:0:
47,280,25367,2,0,P|46:301|50:323,1,43.749998664856,0|0,0:0|0:0,0:0:0:0:
123,373,25742,1,0,0:0:0:0:
199,326,25930,6,0,P|140:287|40:338,1,174.999994659424,2|0,0:0|0:0,0:0:0:0:
202,222,27430,1,0,0:0:0:0:
201,327,27617,1,0,0:0:0:0:
289,214,27805,6,0,L|178:224,1,87.499997329712,2|0,0:0|0:0,0:0:0:0:
312,131,28367,2,0,L|423:141,1,87.499997329712,0|0,0:0|0:0,0:0:0:0:
253,72,28930,6,0,P|230:152|288:213,1,174.999994659424,2|0,0:0|0:0,0:0:0:0:
288,213,30805,5,2,0:0:0:0:
288,213,31367,2,0,P|322:207|354:208,1,43.749998664856,0|0,0:0|0:0,0:0:0:0:
401,263,31742,1,0,0:0:0:0:
481,221,31930,6,0,L|472:39,1,174.999994659424,2|0,0:0|0:0,0:0:0:0:
472,46,33430,1,0,0:0:0:0:
394,115,33617,1,0,0:0:0:0:
319,42,33805,6,0,P|266:34|217:31,1,87.499997329712,2|0,0:0|0:0,0:0:0:0:
311,177,34367,2,0,P|267:184|224:188,1,87.499997329712,2|0,0:0|0:0,0:0:0:0:
156,97,34930,1,2,0:0:0:0:
156,97,35680,5,2,0:0:0:0:
232,186,36055,1,2,0:0:0:0:
339,44,36805,6,0,L|346:167,1,87.499997329712,2|8,0:0|0:0,0:0:0:0:
275,191,37367,2,0,L|209:182,1,43.749998664856,0|0,0:0|0:0,0:0:0:0:
162,234,37742,1,0,0:0:0:0:
217,303,37930,6,0,P|247:251|220:172,1,131.249995994568,10|0,0:0|0:0,0:0:0:0:
153,148,38680,1,0,0:0:0:0:
82,202,38867,1,0,0:0:0:0:
162,234,39055,1,10,0:0:0:0:
144,61,39430,1,0,0:0:0:0:
69,114,39618,1,0,0:0:0:0:
153,148,39805,6,0,L|144:61,1,87.499997329712,10|0,0:0|0:0,0:0:0:0:
82,202,40367,1,0,0:0:0:0:
89,286,40555,2,0,L|93:329,1,43.749998664856,8|0,0:0|0:0,0:0:0:0:
175,364,40930,6,0,L|161:233,1,131.249995994568,10|0,0:0|0:0,0:0:0:0:
82,202,41680,1,0,0:0:0:0:
175,364,42055,1,2,0:0:0:0:
253,202,42430,1,2,0:0:0:0:
338,358,42805,6,0,B|409:327|400:387|489:337,1,131.249995994568,10|0,0:0|0:0,0:0:0:0:
430,274,43555,2,0,P|422:250|422:216,1,43.749998664856,8|0,0:0|0:0,0:0:0:0:
326,232,43930,6,0,P|348:310|333:366,1,131.249995994568,10|0,0:0|0:0,0:0:0:0:
260,299,44680,1,0,0:0:0:0:
430,274,45055,1,10,0:0:0:0:
313,190,45430,2,0,P|325:227|325:254,1,43.749998664856,0|0,0:0|0:0,0:0:0:0:
240,149,45805,6,0,P|292:112|344:115,1,87.499997329712,2|0,0:0|0:0,0:0:0:0:
436,74,46367,2,0,P|393:63|362:34,1,87.499997329712,2|0,0:0|0:0,0:0:0:0:
221,41,46930,6,0,B|258:92|213:92|240:151|240:151|117:86|131:204|18:139,1,349.999989318848,6|0,0:0|0:0,0:0:0:0:
177,215,48805,5,6,0:0:0:0:
75,28,49180,2,0,L|79:90,1,50,0|0,0:0|0:0,0:0:0:0:
15,188,49555,2,0,L|18:138,1,50,4|0,0:0|0:0,0:0:0:0:
86,241,49930,6,0,L|91:357,1,100,2|4,0:0|0:0,0:0:0:0:
223,218,50680,2,0,P|188:213|144:221,1,50,0|0,0:0|0:0,0:0:0:0:
197,344,51055,2,0,L|194:294,1,50,12|0,0:0|0:0,0:0:0:0:
225,168,51430,2,0,L|222:217,1,50,2|0,0:0|0:0,0:0:0:0:
197,344,51805,6,0,P|253:331|308:341,1,100,6|0,0:0|0:0,0:0:0:0:
367,164,52555,2,0,P|328:172|295:162,1,50,4|0,0:0|0:0,0:0:0:0:
225,168,52930,6,0,P|171:155|109:174,1,100,0|4,0:0|0:0,0:0:0:0:
360,115,53680,2,0,P|359:139|366:163,1,50,0|0,0:0|0:0,0:0:0:0:
491,121,54055,2,0,L|430:129,1,50,12|0,0:0|0:0,0:0:0:0:
384,27,54430,2,0,L|445:35,1,50,2|0,0:0|0:0,0:0:0:0:
360,115,54805,6,0,L|284:122,1,50,6|0,0:0|0:0,0:0:0:0:
255,206,55180,1,0,0:0:0:0:
92,31,55555,2,0,P|104:67|102:103,1,50,4|0,0:0|0:0,0:0:0:0:
204,63,55930,6,0,P|182:124|201:178,1,100,0|4,0:0|0:0,0:0:0:0:
92,31,56680,1,0,0:0:0:0:
260,121,57055,1,12,0:0:0:0:
100,205,57430,1,2,0:0:0:0:
302,195,57805,6,0,B|321:134|280:90|280:90|241:149,1,150,6|0,0:0|0:0,0:0:0:0:
217,200,58555,1,4,0:0:0:0:
401,183,58930,6,0,L|274:198,1,100,2|4,0:0|0:0,0:0:0:0:
266,271,59492,1,0,0:0:0:0:
352,319,59680,2,0,L|348:247,1,50,2|0,0:0|0:0,0:0:0:0:
275,363,60055,1,8,0:0:0:0:
425,358,60242,1,2,0:0:0:0:
266,271,60430,2,0,L|187:278,1,50,4|2,0:0|0:1,0:0:0:0:
124,197,60805,6,0,B|141:249|141:249|120:316,1,100,4|0,0:1|0:0,0:0:0:0:
47,341,61367,1,0,0:0:0:0:
6,246,61555,2,0,L|78:254,1,50,4|0,0:0|0:0,0:0:0:0:
124,197,61930,1,2,0:0:0:0:
58,42,62305,6,0,P|45:100|56:144,1,100,4|2,0:0|0:0,0:0:0:0:
294,46,63055,2,0,P|254:50|221:39,1,50,12|0,0:0|0:0,0:0:0:0:
176,99,63430,2,0,P|136:95|103:106,1,50,0|0,0:0|0:0,0:0:0:0:
287,145,63805,6,0,L|295:30,1,100,6|0,0:0|0:0,0:0:0:0:
395,213,64555,2,0,L|401:312,1,100,12|2,0:0|0:0,0:0:0:0:
230,214,65305,6,0,P|203:172|204:122,1,100,6|0,0:0|0:0,0:0:0:0:
419,121,66055,2,0,P|420:170|394:212,1,100,12|0,0:0|0:0,0:0:0:0:
100,314,66805,6,0,L|177:306,1,56.2499982833863,4|0,0:1|0:0,0:0:0:0:
102,213,67180,2,0,L|184:232,1,59.3749984145165,8|0,0:0|0:0,0:0:0:0:
160,120,67555,2,0,L|224:163,1,62.5,8|0,0:0|0:0,0:0:0:0:
242,55,67930,2,0,L|287:117,1,65.624997997284,8|0,0:0|0:0,0:0:0:0:
100,314,68305,6,0,L|30:320,1,68.7500020980836,8|0,0:0|0:0,0:0:0:0:
259,237,68680,2,0,L|361:245,1,71.8750013709069,8|0,0:0|0:0,0:0:0:0:
102,213,69055,2,0,L|27:219,1,74.9999977111817,8|0,0:0|0:0,0:0:0:0:
256,330,69430,2,0,L|334:336,1,78.125,8|0,0:0|0:0,0:0:0:0:
27,219,69805,5,8,0:0:0:0:
256,330,69992,1,8,0:0:0:0:
100,314,70367,5,2,0:0:0:0:
259,237,70555,1,2,0:0:0:0:
160,120,70930,5,8,0:0:0:0:
100,314,71118,1,8,0:0:0:0:
259,237,71492,5,4,0:0:0:0:
102,213,71679,1,4,0:0:0:0:
256,330,72055,5,8,0:0:0:0:
259,237,72243,1,8,0:0:0:0:
306,330,72430,2,0,L|234:330,1,50,2|2,0:0|0:0,0:0:0:0:
276,125,72805,6,0,P|245:175|277:255,1,125,4|0,0:1|0:0,0:0:0:0:
371,100,73367,1,2,0:0:0:0:
259,237,73555,1,8,0:0:0:0:
276,125,73742,1,2,0:0:0:0:
459,208,73930,6,0,L|299:189,1,125,4|0,0:1|0:0,0:0:0:0:
499,114,74492,1,0,0:0:0:0:
469,269,74680,2,0,L|458:207,1,62.5,2|0,0:0|0:0,0:0:0:0:
366,40,75055,2,0,B|377:74|377:74|364:122,1,62.5,8|0,0:0|0:0,0:0:0:0:
338,253,75430,2,0,B|327:219|327:219|340:171,1,62.5,2|0,0:0|0:0,0:0:0:0:
151,139,75805,6,0,L|311:120,1,125,6|2,0:0|0:0,0:0:0:0:
57,222,76367,1,2,0:0:0:0:
129,47,76555,1,8,0:0:0:0:
150,232,76742,1,2,0:0:0:0:
62,101,76930,6,0,B|37:169|90:158|53:233,1,125,4|0,0:1|0:0,0:0:0:0:
89,345,77492,1,0,0:0:0:0:
212,224,77680,2,0,L|138:233,1,62.5,2|0,0:0|0:0,0:0:0:0:
217,382,78055,2,0,P|201:349|206:301,1,62.5,8|0,0:0|0:0,0:0:0:0:
284,164,78430,2,0,P|300:197|295:245,1,62.5,2|0,0:0|0:0,0:0:0:0:
393,368,78805,6,0,L|399:232,1,125,4|0,0:0|0:0,0:0:0:0:
464,121,79367,1,2,0:0:0:0:
398,243,79555,1,8,0:0:0:0:
371,79,79742,1,2,0:0:0:0:
176,189,79930,6,0,B|196:160|196:160|250:141|302:174,1,125,4|0,0:1|0:0,0:0:0:0:
96,277,80492,1,0,0:0:0:0:
179,126,80680,2,0,L|175:199,1,62.5,2|0,0:0|0:0,0:0:0:0:
35,281,81055,2,0,B|64:272|64:272|96:276,1,62.5,8|0,0:0|0:0,0:0:0:0:
179,126,81430,2,0,B|143:130|143:130|99:116,1,62.5,2|0,0:0|0:0,0:0:0:0:
253,195,81805,6,0,P|282:133|267:81,1,125,6|2,0:0|0:0,0:0:0:0:
355,230,82367,1,2,0:0:0:0:
267,81,82555,1,8,0:0:0:0:
253,195,82742,1,2,0:0:0:0:
391,72,82930,6,0,L|263:81,1,125,4|2,0:1|0:0,0:0:0:0:
474,162,83492,1,8,0:0:0:0:
394,9,83680,2,0,L|389:87,1,62.5,2|0,0:0|0:0,0:0:0:0:
355,230,84055,1,8,0:0:0:0:
483,65,84242,1,2,0:0:0:0:
369,242,84430,1,4,0:0:0:0:
390,71,84617,1,2,0:1:0:0:
261,235,84805,6,0,B|301:270|348:264|348:264|383:227,1,125,6|0,0:0|0:0,0:0:0:0:
229,143,85367,1,2,0:0:0:0:
256,295,85555,2,0,P|264:266|247:209,1,62.5,8|0,0:0|0:0,0:0:0:0:
51,249,85930,6,0,B|110:278|112:222|181:262,1,125,4|0,0:1|0:0,0:0:0:0:
85,162,86492,1,0,0:0:0:0:
177,319,86680,2,0,L|171:254,1,62.5,2|0,0:0|0:0,0:0:0:0:
224,79,87055,1,8,0:0:0:0:
171,256,87242,1,2,0:0:0:0:
128,74,87430,1,4,0:0:0:0:
165,242,87617,1,2,0:1:0:0:
344,70,87805,6,0,B|305:65|305:65|261:84|261:84|203:76,1,125,4|2,0:0|0:0,0:0:0:0:
321,167,88367,1,2,0:0:0:0:
440,80,88555,2,0,L|433:150,1,62.5,8|2,0:0|0:0,0:0:0:0:
333,291,88930,6,0,L|319:148,1,125,4|0,0:1|0:0,0:0:0:0:
451,254,89492,1,0,0:0:0:0:
333,291,89680,2,0,P|291:284|252:295,1,62.5,2|0,0:0|0:0,0:0:0:0:
141,366,90055,2,0,P|175:341|195:305,1,62.5,8|0,0:0|0:0,0:0:0:0:
197,167,90430,2,0,P|190:209|201:248,1,62.5,2|0,0:0|0:0,0:0:0:0:
389,100,90805,6,0,L|232:100,1,125,4|2,0:0|0:0,0:0:0:0:
392,200,91367,1,2,0:0:0:0:
383,37,91555,2,0,L|389:101,1,62.5,8|2,0:0|0:0,0:0:0:0:
462,267,91930,6,0,P|488:200|452:128,1,125,4|0,0:1|0:0,0:0:0:0:
372,299,92492,1,0,0:0:0:0:
246,222,92680,2,0,L|333:228,1,62.5,2|0,0:0|0:0,0:0:0:0:
132,303,93055,1,8,0:0:0:0:
165,150,93242,1,0,0:0:0:0:
243,284,93430,2,0,L|246:192,1,62.5,2|0,0:0|0:0,0:0:0:0:
175,36,93805,6,0,P|190:106|143:164,1,125,4|2,0:0|0:0,0:0:0:0:
72,22,94367,1,2,0:0:0:0:
164,149,94555,2,0,L|92:155,1,62.5,10|2,0:0|0:0,0:0:0:0:
290,45,94930,1,4,0:1:0:0:
256,192,95117,12,0,96430,0:0:0:0:
193,196,96805,5,4,0:0:0:0:
193,196,97180,2,0,P|177:160|179:127,1,56.2499982833863,0|2,0:0|0:0,0:0:0:0:
237,42,97555,2,0,P|253:78|251:111,1,56.2499982833863,8|2,0:0|0:0,0:0:0:0:
81,205,97930,6,0,P|156:195|210:197,1,112.499996566773,4|0,0:1|0:0,0:0:0:0:
288,229,98492,1,2,0:0:0:0:
221,334,98680,2,0,P|213:293|213:257,1,56.2499982833863,4|0,0:0|0:0,0:0:0:0:
270,141,99055,1,8,0:0:0:0:
270,141,99430,1,4,0:0:0:0:
288,229,99617,1,2,0:0:0:0:
381,130,99805,6,0,L|256:142,1,112.499996566773,2|4,0:0|0:0,0:0:0:0:
237,42,100367,1,0,0:0:0:0:
339,52,100555,2,0,L|394:46,1,56.2499982833863,8|0,0:0|0:0,0:0:0:0:
397,233,100930,6,0,P|371:177|395:108,1,112.499996566773,4|0,0:1|0:0,0:0:0:0:
471,169,101492,1,0,0:0:0:0:
397,233,101680,2,0,L|335:231,1,56.2499982833863,6|2,0:0|0:0,0:0:0:0:
221,334,102055,1,8,0:0:0:0:
471,169,102430,1,4,0:0:0:0:
469,300,102617,1,0,0:0:0:0:
391,150,102805,6,0,P|431:100|495:93,1,112.499996566773,4|4,0:0|0:0,0:0:0:0:
471,169,103367,1,0,0:0:0:0:
360,47,103555,2,0,P|332:50|282:42,1,56.2499982833863,8|0,0:0|0:0,0:0:0:0:
196,157,103930,6,0,P|260:127|322:150,1,112.499996566773,4|0,0:1|0:0,0:0:0:0:
266,216,104492,1,2,0:0:0:0:
194,100,104680,2,0,L|196:177,1,56.2499982833863,4|0,0:0|0:0,0:0:0:0:
221,301,105055,1,8,0:0:0:0:
221,301,105430,2,0,P|258:301|291:313,1,43.749998664856,2|2,0:0|0:0,0:0:0:0:
353,350,105805,6,0,P|342:290|351:252,1,87.499997329712,2|2,0:0|0:0,0:0:0:0:
373,121,106555,2,0,L|344:117,2,29.1666657765707,4|4|4,0:0|0:0|0:0,0:0:0:0:
373,121,106930,6,0,B|414:142|414:204|414:204|424:93|513:80,1,262.499991989136,4|0,0:0|0:0,0:0:0:0:
266,92,108430,2,0,L|199:99,1,43.749998664856,0|0,0:0|0:0,0:0:0:0:
234,197,108805,6,0,P|310:190|365:186,1,100,2|4,0:0|0:0,0:0:0:0:
405,282,109367,1,2,0:0:0:0:
311,329,109555,2,0,P|306:298|304:258,1,50,8|0,0:0|0:0,0:0:0:0:
223,97,109930,6,0,P|231:157|234:215,1,100,6|2,0:0|0:0,0:0:0:0:
133,261,110492,1,2,0:0:0:0:
96,166,110680,2,0,P|142:161|172:161,1,50,4|0,0:0|0:0,0:0:0:0:
224,279,111055,1,8,0:0:0:0:
224,279,111430,1,4,0:0:0:0:
133,261,111617,1,0,0:0:0:0:
209,377,111805,6,0,L|225:266,1,100,2|4,0:0|0:0,0:0:0:0:
297,200,112367,1,0,0:0:0:0:
366,305,112555,2,0,L|317:307,1,50,8|0,0:0|0:0,0:0:0:0:
396,203,112930,6,0,L|296:199,1,100,6|2,0:0|0:0,0:0:0:0:
222,124,113492,1,2,0:0:0:0:
220,228,113680,2,0,L|224:290,1,50,2|0,0:1|0:0,0:0:0:0:
121,205,114055,2,0,L|124:155,1,50,8|0,0:0|0:0,0:0:0:0:
218,74,114430,2,0,L|221:123,1,50,4|0,0:0|0:0,0:0:0:0:
121,205,114805,6,0,P|71:203|10:208,1,100,2|4,0:0|0:0,0:0:0:0:
65,308,115367,1,2,0:0:0:0:
164,336,115555,2,0,P|165:300|162:264,1,50,8|0,0:0|0:0,0:0:0:0:
267,345,115930,6,0,L|402:339,1,100,6|0,0:0|0:0,0:0:0:0:
453,279,116492,1,0,0:0:0:0:
364,202,116680,2,0,L|370:268,1,50,4|0,0:0|0:0,0:0:0:0:
453,279,117055,1,8,0:0:0:0:
427,110,117430,1,4,0:0:0:0:
284,147,117617,1,0,0:0:0:0:
445,193,117805,6,0,P|503:133|504:103,1,100,2|4,0:0|0:0,0:0:0:0:
481,36,118368,1,2,0:0:0:0:
427,110,118555,2,0,L|362:104,1,50,8|0,0:0|0:0,0:0:0:0:
234,151,118930,6,0,L|299:145,1,50,4|0,0:0|0:0,0:0:0:0:
445,193,119305,2,0,P|457:222|463:252,2,37.4999988555909,2|2|2,0:0|0:0|0:0,0:0:0:0:
371,246,119680,2,0,P|358:276|342:301,2,37.4999988555909,2|2|2,0:0|0:0|0:0,0:0:0:0:
283,228,120055,2,0,P|253:240|223:246,2,37.4999988555909,2|2|2,0:0|0:0|0:0,0:0:0:0:
234,151,120430,2,0,P|203:138|178:122,2,37.4999988555909,2|2|2,0:0|0:0|0:0,0:0:0:0:
181,63,120805,6,0,P|134:99|126:156,1,100,4|4,0:1|0:0,0:0:0:0:
162,227,121367,1,2,0:0:0:0:
73,139,121555,2,0,L|138:135,1,50,8|0,0:0|0:0,0:0:0:0:
68,238,121930,6,0,L|73:119,1,100,4|2,0:0|0:0,0:0:0:0:
81,32,122492,1,2,0:0:0:0:
181,63,122680,2,0,L|260:58,1,50,4|0,0:0|0:0,0:0:0:0:
325,36,123055,1,8,0:0:0:0:
325,36,123430,1,4,0:0:0:0:
324,123,123617,1,0,0:0:0:0:
384,181,123805,6,0,P|323:210|271:190,1,100,2|4,0:0|0:0,0:0:0:0:
229,143,124367,1,2,0:0:0:0:
295,254,124555,2,0,L|293:189,1,50,8|0,0:0|0:0,0:0:0:0:
325,29,124930,6,0,L|319:147,1,100,4|2,0:0|0:0,0:0:0:0:
384,181,125492,1,2,0:0:0:0:
295,254,125680,2,0,L|232:250,1,50,2|0,0:1|0:0,0:0:0:0:
356,334,126055,5,8,0:0:0:0:
295,254,126242,1,0,0:0:0:0:
127,334,126430,2,0,L|176:330,1,50,4|0,0:0|0:0,0:0:0:0:
109,213,126805,6,0,P|104:144|130:109,1,100,2|6,0:0|0:0,0:0:0:0:
198,82,127367,1,2,0:0:0:0:
235,174,127555,2,0,L|161:172,1,50,8|0,0:0|0:0,0:0:0:0:
9,223,127930,6,0,L|126:211,1,100,6|2,0:0|0:0,0:0:0:0:
235,174,128492,1,2,0:0:0:0:
201,32,128680,2,0,L|197:87,1,50,4|0,0:0|0:0,0:0:0:0:
328,180,129055,2,0,P|274:162|206:201,1,100,8|4,0:0|0:0,0:0:0:0:
276,260,129617,1,0,0:0:0:0:
355,91,129805,6,0,P|328:124|337:197,1,100,2|6,0:0|0:0,0:0:0:0:
418,299,130367,1,2,0:0:0:0:
409,154,130555,1,8,0:0:0:0:
276,260,130742,1,2,0:0:0:0:
475,221,130930,2,0,P|491:199|504:157,1,37.4999988555909,4|0,0:0|0:0,0:0:0:0:
486,102,131305,5,2,0:0:0:0:
328,180,131680,1,2,0:0:0:0:
418,299,132055,2,0,L|356:304,2,37.4999988555909,2|0|2,0:0|0:0|0:0,0:0:0:0:
486,102,132805,5,2,0:0:0:0:
276,260,133180,2,0,L|284:187,1,56.2499982833863,4|2,0:0|0:0,0:0:0:0:
195,99,133555,2,0,L|201:154,1,56.2499982833863,8|0,0:0|0:0,0:0:0:0:
276,260,133930,6,0,P|216:235|159:254,1,112.499996566773,4|0,0:0|0:0,0:0:0:0:
131,329,134492,1,0,0:0:0:0:
210,369,134680,2,0,P|218:329|212:288,1,56.2499982833863,4|0,0:0|0:0,0:0:0:0:
283,204,135055,2,0,P|275:244|281:285,1,56.2499982833863,8|0,0:0|0:0,0:0:0:0:
350,365,135430,2,0,P|349:336|342:309,1,56.2499982833863,4|0,0:0|0:0,0:0:0:0:
171,245,135805,5,2,0:0:0:0:
406,368,136180,2,0,L|338:364,1,56.2499982833863,4|2,0:0|0:0,0:0:0:0:
443,286,136555,2,0,L|511:282,1,56.2499982833863,8|0,0:0|0:0,0:0:0:0:
395,210,136930,6,0,L|269:202,1,112.499996566773,4|2,0:0|0:0,0:0:0:0:
203,117,137492,1,0,0:0:0:0:
280,68,137680,2,0,P|293:100|288:145,1,56.2499982833863,2|0,0:1|0:0,0:0:0:0:
215,251,138055,2,0,P|202:219|207:174,1,56.2499982833863,8|0,0:0|0:0,0:0:0:0:
103,80,138430,2,0,P|116:112|111:157,1,56.2499982833863,4|0,0:0|0:0,0:0:0:0:
45,249,138805,5,2,0:0:0:0:
45,249,139180,2,0,L|132:240,1,56.2499982833863,4|0,0:0|0:0,0:0:0:0:
169,351,139555,2,0,L|113:345,1,56.2499982833863,8|0,0:0|0:0,0:0:0:0:
215,251,139930,6,0,L|343:242,1,112.499996566773,6|0,0:0|0:0,0:0:0:0:
327,243,140680,1,4,0:0:0:0:
352,74,141055,2,0,P|343:106|348:145,1,56.2499982833863,8|0,0:0|0:0,0:0:0:0:
413,205,141430,2,0,P|422:237|417:276,1,56.2499982833863,4|0,0:0|0:0,0:0:0:0:
215,251,141805,6,0,L|343:242,1,112.499996566773,2|4,0:0|0:0,0:0:0:0:
413,205,142367,1,2,0:0:0:0:
503,245,142555,2,0,L|501:322,1,56.2499982833863,8|0,0:0|0:0,0:0:0:0:
331,352,142930,6,0,B|350:284|300:309|335:220,1,112.499996566773,4|2,0:0|0:0,0:0:0:0:
258,146,143492,1,2,0:0:0:0:
215,251,143680,2,0,P|179:253|148:245,1,56.2499982833863,2|0,0:1|0:0,0:0:0:0:
166,141,144055,2,0,P|177:190|154:255,1,112.499996566773,10|4,0:0|0:0,0:0:0:0:
33,246,144617,1,0,0:0:0:0:
58,133,144805,6,0,P|107:122|172:145,1,112.499996566773,4|4,0:1|0:0,0:0:0:0:
228,56,145367,1,2,0:0:0:0:
317,157,145555,2,0,P|287:149|243:155,1,56.2499982833863,8|0,0:0|0:0,0:0:0:0:
411,222,145930,6,0,P|429:163|395:94,1,112.499996566773,4|0,0:0|0:0,0:0:0:0:
329,37,146492,1,0,0:0:0:0:
414,116,146680,2,0,L|495:118,1,56.2499982833863,4|0,0:0|0:0,0:0:0:0:
408,277,147055,2,0,P|406:244|420:197,1,56.2499982833863,8|0,0:0|0:0,0:0:0:0:
411,60,147430,2,0,P|415:87|413:115,1,56.2499982833863,4|0,0:0|0:0,0:0:0:0:
295,282,147805,6,0,L|430:275,1,112.499996566773,2|4,0:0|0:0,0:0:0:0:
147,355,148555,2,0,L|34:349,1,112.499996566773,8|4,0:0|0:0,0:0:0:0:
290,225,149305,6,0,L|296:296,1,56.2499982833863,2|0,0:0|0:0,0:0:0:0:
234,159,149680,2,0,L|238:102,1,56.2499982833863,2|0,0:1|0:0,0:0:0:0:
290,225,150055,2,0,P|219:246|168:222,1,112.499996566773,8|6,0:0|0:0,0:0:0:0:
369,343,150805,6,0,P|374:315|366:255,1,59.3749984145165,2|0,0:0|0:0,0:0:0:0:
402,106,151180,2,0,P|397:134|405:194,1,62.5,4|2,0:0|0:0,0:0:0:0:
454,352,151555,2,0,P|459:324|451:264,1,65.624997997284,8|0,0:0|0:0,0:0:0:0:
487,115,151930,2,0,P|482:143|490:203,1,68.7500020980836,4|0,0:0|0:0,0:0:0:0:
369,343,152305,6,0,P|330:335|293:337,1,71.8750013709069,2|2,0:0|0:0,0:0:0:0:
107,333,152680,2,0,P|143:339|181:337,1,74.9999977111817,4|2,0:0|0:0,0:0:0:0:
378,258,153055,2,0,P|332:248|288:251,1,78.125,8|2,0:0|0:0,0:0:0:0:
102,248,153430,2,0,P|152:255|204:251,1,81.2499962806703,4|2,0:0|0:0,0:0:0:0:
374,75,153805,5,8,0:0:0:0:
378,258,153992,1,8,0:0:0:0:
374,103,154367,5,2,0:0:0:0:
376,228,154555,1,2,0:0:0:0:
136,41,154930,5,8,0:0:0:0:
128,236,155117,1,8,0:0:0:0:
135,72,155492,5,4,0:0:0:0:
128,210,155679,1,4,0:0:0:0:
374,103,156055,5,8,0:0:0:0:
294,136,156242,1,8,0:0:0:0:
209,116,156430,1,4,0:0:0:0:
268,268,156617,1,0,0:3:0:0:
272,261,156711,1,0,0:3:0:0:
276,255,156805,6,0,B|273:211|273:211|296:167|296:167|291:114,1,125,4|2,0:0|0:0,0:0:0:0:
373,279,157367,1,2,0:0:0:0:
293,135,157555,1,8,0:0:0:0:
276,255,157742,1,2,0:0:0:0:
84,107,157930,6,0,L|208:115,1,125,4|0,0:0|0:0,0:0:0:0:
141,209,158492,1,0,0:0:0:0:
81,44,158680,2,0,L|85:132,1,62.5,2|0,0:0|0:0,0:0:0:0:
105,296,159055,2,0,B|140:305|140:305|189:287,1,62.5,8|0,0:0|0:0,0:0:0:0:
336,259,159430,2,0,B|299:250|299:250|243:261,1,62.5,2|0,0:0|0:0,0:0:0:0:
354,146,159805,6,0,P|322:209|349:274,1,125,4|2,0:0|0:0,0:0:0:0:
445,134,160367,1,2,0:0:0:0:
335,258,160555,1,8,0:0:0:0:
354,146,160742,1,2,0:0:0:0:
441,340,160930,6,0,L|427:197,1,125,4|0,0:1|0:0,0:0:0:0:
353,364,161492,1,0,0:0:0:0:
491,210,161680,2,0,L|411:216,1,62.5,2|0,0:0|0:0,0:0:0:0:
341,86,162055,2,0,P|355:119|342:168,1,62.5,8|0,0:0|0:0,0:0:0:0:
281,276,162430,2,0,P|267:243|280:194,1,62.5,4|0,0:1|0:0,0:0:0:0:
188,45,162805,6,0,B|203:130|203:130|175:182,1,125,4|2,0:0|0:0,0:0:0:0:
73,274,163367,1,2,0:0:0:0:
46,135,163555,1,8,0:0:0:0:
184,164,163742,1,2,0:0:0:0:
63,51,163930,6,0,L|189:44,1,125,4|0,0:1|0:0,0:0:0:0:
307,174,164492,1,0,0:0:0:0:
374,21,164680,2,0,L|386:111,1,62.5,2|0,0:0|0:0,0:0:0:0:
342,257,165055,2,0,B|316:266|316:266|250:253,1,62.5,8|0,0:0|0:0,0:0:0:0:
428,180,165430,2,0,B|454:171|454:171|520:184,1,62.5,2|0,0:0|0:0,0:0:0:0:
304,364,165805,6,0,P|346:310|332:241,1,125,4|2,0:0|0:0,0:0:0:0:
215,363,166367,1,2,0:0:0:0:
341,256,166555,1,8,0:0:0:0:
304,364,166742,1,2,0:0:0:0:
243,152,166930,6,0,L|253:302,1,125,4|0,0:1|0:0,0:0:0:0:
143,126,167492,1,0,0:0:0:0:
188,281,167680,2,0,L|271:275,1,62.5,2|0,0:0|0:0,0:0:0:0:
67,195,168055,5,8,0:0:0:0:
122,343,168242,1,2,0:0:0:0:
46,189,168430,1,4,0:0:0:0:
23,374,168617,1,2,0:1:0:0:
17,93,168805,6,0,P|69:151|51:222,1,125,6|2,0:0|0:0,0:0:0:0:
139,43,169367,1,2,0:0:0:0:
66,194,169555,1,8,0:0:0:0:
17,93,169742,1,2,0:0:0:0:
164,180,169930,6,0,B|237:160|223:219|303:166,1,125,4|0,0:1|0:0,0:0:0:0:
390,85,170492,1,0,0:0:0:0:
282,238,170680,2,0,P|278:207|284:176,1,62.5,2|0,0:0|0:0,0:0:0:0:
395,249,171055,1,8,0:0:0:0:
291,92,171242,1,2,0:0:0:0:
375,258,171430,1,4,0:0:0:0:
390,85,171617,1,2,0:1:0:0:
494,255,171805,6,0,B|452:265|452:265|412:248|412:248|374:257,1,125,4|2,0:0|0:0,0:0:0:0:
270,355,172367,1,2,0:0:0:0:
377,194,172555,2,0,L|374:269,1,62.5,8|2,0:0|0:0,0:0:0:0:
270,355,172930,6,0,P|291:289|249:222,1,125,4|0,0:1|0:0,0:0:0:0:
159,203,173492,1,0,0:0:0:0:
207,359,173680,2,0,L|290:353,1,62.5,0|0,0:0|0:0,0:0:0:0:
86,306,174055,2,0,L|3:300,1,62.5,8|0,0:0|0:0,0:0:0:0:
159,203,174430,1,2,0:0:0:0:
207,359,174617,1,0,0:0:0:0:
261,119,174805,6,0,B|295:195|247:182|271:244,1,125,4|2,0:0|0:0,0:0:0:0:
374,126,175367,1,2,0:0:0:0:
270,239,175555,2,0,L|364:233,1,62.5,8|2,0:0|0:0,0:0:0:0:
487,129,175930,6,0,P|444:106|368:131,1,125,4|0,0:1|0:0,0:0:0:0:
431,216,176492,1,0,0:0:0:0:
371,63,176680,2,0,L|374:131,1,62.5,2|0,0:0|0:0,0:0:0:0:
270,239,177055,1,8,0:0:0:0:
374,126,177242,1,0,0:0:0:0:
198,114,177430,2,0,L|295:122,1,62.5,2|0,0:0|0:0,0:0:0:0:
169,216,177805,6,0,L|15:222,1,125,4|2,0:0|0:0,0:0:0:0:
80,113,178367,1,2,0:0:0:0:
44,220,178555,2,0,L|47:282,1,62.5,8|0,0:0|0:0,0:0:0:0:
198,114,178930,6,0,B|174:45|61:45|36:114|36:114|118:113,1,250,4|2,0:0|0:0,0:0:0:0:
169,216,179867,1,2,0:0:0:0:
300,104,180055,2,0,L|310:47,2,41.6666666666667,8|8|8,0:0|0:0|0:0,0:0:0:0:
384,191,180430,2,0,L|379:129,1,62.5,2|2,0:0|0:0,0:0:0:0:
368,311,180805,5,12,0:0:0:0:
481,142,180992,1,0,0:0:0:0:
358,330,181555,5,8,0:0:0:0:
471,161,181742,1,0,0:0:0:0:
350,349,182305,5,8,0:0:0:0:
463,180,182492,1,0,0:0:0:0:
339,367,183055,5,8,0:0:0:0:
452,198,183242,1,0,0:0:0:0:
339,367,183805,5,8,0:0:0:0:
226,198,183992,1,0,0:0:0:0:
350,349,184555,5,8,0:0:0:0:
237,180,184742,1,0,0:0:0:0:
357,329,185305,5,8,0:0:0:0:
253,372,185492,1,0,0:0:0:0:
173,237,185680,1,2,0:0:0:0:
277,280,185867,1,0,0:0:0:0:
180,286,186055,6,0,L|172:236,1,50,8|2,0:0|0:0,0:0:0:0:
364,279,186430,2,0,L|356:328,1,50,2|0,0:0|0:0,0:0:0:0:
271,177,186805,5,4,0:1:0:0:
138,336,186992,1,0,0:0:0:0:
285,159,187555,5,8,0:0:0:0:
152,319,187742,1,0,0:0:0:0:
299,141,188305,5,8,0:0:0:0:
165,302,188492,1,0,0:0:0:0:
314,120,189055,5,8,0:0:0:0:
180,286,189242,1,0,0:0:0:0:
314,120,189805,6,0,P|249:131|183:112,1,100,4|0,0:1|0:0,0:0:0:0:
165,43,190367,1,2,0:0:0:0:
128,122,190555,2,0,P|94:119|51:125,1,50,8|8,0:0|0:0,0:0:0:0:
28,202,190930,1,4,0:0:0:0:
125,314,191117,6,0,L|130:178,1,100,4|8,0:0|0:0,0:0:0:0:
128,122,191680,1,2,0:0:0:0:
230,219,191867,1,4,0:0:0:0:
277,99,192055,2,0,L|221:102,2,33.3333333333333,8|8|8,0:0|0:0|0:0,0:0:0:0:
335,171,192430,2,0,L|408:177,1,50,2|2,0:0|0:0,0:0:0:0:
336,355,192805,6,0,P|318:307|336:239,1,100,4|0,0:0|0:0,0:0:0:0:
458,285,193367,2,0,P|419:295|388:292,1,50,2|8,0:0|0:0,0:0:0:0:
286,180,193742,2,0,P|325:170|356:173,1,50,2|0,0:0|0:0,0:0:0:0:
458,285,194117,6,0,L|459:160,1,100,2|2,0:0|0:0,0:0:0:0:
377,73,194680,1,2,0:0:0:0:
286,180,194867,1,0,0:0:0:0:
458,185,195055,2,0,L|512:181,1,50,8|0,0:0|0:0,0:0:0:0:
377,73,195430,2,0,P|384:108|374:145,1,50,0|0,0:0|0:0,0:0:0:0:
286,180,195805,6,0,P|230:163|164:203,1,100,4|2,0:1|0:0,0:0:0:0:
234,307,196367,2,0,L|239:230,1,50,2|8,0:0|0:0,0:0:0:0:
188,125,196742,2,0,L|191:174,1,50,2|8,0:0|0:0,0:0:0:0:
134,302,197117,6,0,L|249:307,1,100,4|0,0:0|0:0,0:0:0:0:
130,351,197680,2,0,L|135:274,1,50,2|0,0:0|0:0,0:0:0:0:
84,169,198055,2,0,L|87:218,1,50,8|0,0:0|0:0,0:0:0:0:
37,350,198430,1,0,0:0:0:0:
88,156,198617,1,0,0:0:0:0:
32,361,198805,6,0,P|94:346|153:360,1,100,4|2,0:1|0:0,0:0:0:0:
233,306,199367,1,0,0:0:0:0:
331,296,199555,2,0,P|269:311|210:297,1,100,8|2,0:0|0:0,0:0:0:0:
88,156,200305,5,2,0:0:0:0:
32,361,200680,1,2,0:0:0:0:
137,151,201055,2,0,L|62:158,1,50,8|0,0:0|0:0,0:0:0:0:
9,117,201430,1,8,0:0:0:0:
21,201,201617,1,8,0:0:0:0:
32,361,201805,5,6,0:0:0:0:
108,112,202180,1,2,0:0:0:0:
137,151,202555,1,8,0:0:0:0:
170,184,202930,2,0,L|232:177,1,50,2|0,0:0|0:0,0:0:0:0:
307,121,203305,1,4,0:1:0:0:
307,121,203680,5,0,0:0:0:0:
282,256,203867,1,0,0:0:0:0:
321,108,204055,1,8,0:0:0:0:
353,299,204242,1,8,0:0:0:0:
337,91,204430,1,2,0:0:0:0:
432,273,204617,1,4,0:0:0:0:
446,89,204805,6,0,B|382:67|393:123|311:78,1,112.499996566773,4|2,0:1|0:0,0:0:0:0:
420,170,205367,1,2,0:0:0:0:
366,10,205555,1,8,0:0:0:0:
366,10,205930,6,0,L|169:20,1,168.749994850159,4|0,0:0|0:0,0:0:0:0:
91,19,206680,2,0,L|103:97,1,56.2499982833863,2|0,0:0|0:0,0:0:0:0:
180,165,207055,1,8,0:0:0:0:
63,17,207242,1,2,0:0:0:0:
205,164,207430,2,0,P|241:162|276:168,1,56.2499982833863,4|2,0:0|0:1,0:0:0:0:
227,358,207805,6,0,L|230:215,1,112.499996566773,4|2,0:1|0:0,0:0:0:0:
323,297,208367,1,8,0:0:0:0:
137,295,208554,1,2,0:0:0:0:
323,297,208930,6,0,B|375:283|375:283|435:311|435:311|504:283,1,168.749994850159,4|0,0:0|0:0,0:0:0:0:
440,165,209680,2,0,P|432:198|441:243,1,56.2499982833863,2|2,0:0|0:0,0:0:0:0:
329,352,210055,2,0,P|329:323|322:296,1,56.2499982833863,8|2,0:0|0:0,0:0:0:0:
253,166,210430,1,4,0:0:0:0:
440,165,210617,1,2,0:1:0:0:
255,109,210805,6,0,L|252:193,1,56.2499982833863,4|0,0:1|0:0,0:0:0:0:
360,85,211180,2,0,L|357:28,1,56.2499982833863,4|2,0:0|0:0,0:0:0:0:
245,109,211555,2,0,L|242:193,1,56.2499982833863,8|0,0:0|0:0,0:0:0:0:
372,85,211930,2,0,L|369:28,1,56.2499982833863,0|2,0:0|0:0,0:0:0:0:
232,108,212305,6,0,L|229:192,1,56.2499982833863,4|2,0:0|0:0,0:0:0:0:
381,84,212680,2,0,L|378:27,1,56.2499982833863,2|0,0:0|0:0,0:0:0:0:
217,108,213055,1,8,0:0:0:0:
397,82,213242,1,2,0:0:0:0:
197,108,213430,1,4,0:0:0:0:
418,81,213617,1,2,0:1:0:0:
174,107,213805,6,0,B|115:90|129:146|34:100,1,112.499996566773,4|0,0:1|0:0,0:0:0:0:
94,27,214367,1,2,0:0:0:0:
60,167,214555,2,0,P|67:134|59:96,1,56.2499982833863,8|0,0:0|0:0,0:0:0:0:
155,231,214930,2,0,P|148:264|156:302,1,56.2499982833863,0|2,0:0|0:0,0:0:0:0:
60,167,215305,6,0,L|-12:165,1,56.2499982833863,4|0,0:0|0:0,0:0:0:0:
155,231,215680,2,0,L|227:233,1,56.2499982833863,2|0,0:0|0:0,0:0:0:0:
316,269,216055,2,0,P|320:250|322:232,2,37.4999988555909,8|2|0,0:0|0:0|0:0,0:0:0:0:
232,330,216430,2,0,P|227:348|225:366,2,37.4999988555909,4|2|0,0:0|0:1|0:0,0:0:0:0:
316,269,216805,5,6,0:0:0:0:
256,192,216992,12,2,219805,0:2:0:0:
256,192,219898,12,0,221305,0:0:0:0:
169,307,222055,5,0,0:0:0:0:
169,307,222430,1,0,0:0:0:0:
269,297,222805,6,0,L|164:308,1,100,2|0,0:0|0:0,0:0:0:0:
168,203,223367,2,0,L|273:214,1,100,0|0,0:0|0:0,0:0:0:0:
349,249,223930,1,2,0:0:0:0:
194,67,225055,1,0,0:0:0:0:
194,67,225430,1,0,0:0:0:0:
98,67,225805,6,0,P|161:78|219:50,1,100,2|0,0:0|0:0,0:0:0:0:
347,130,226367,2,0,P|284:119|226:147,1,100,0|0,0:0|0:0,0:0:0:0:
168,203,226930,1,2,0:0:0:0:
445,213,228055,1,0,0:0:0:0:
445,213,228430,1,0,0:0:0:0:
346,215,228805,6,0,L|460:213,1,100,2|0,0:0|0:0,0:0:0:0:
448,305,229367,2,0,L|334:303,1,100,0|0,0:0|0:0,0:0:0:0:
270,257,229930,1,2,0:0:0:0:
191,169,231055,1,0,0:0:0:0:
191,169,231430,1,0,0:0:0:0:
289,174,231805,6,0,B|222:151|248:203|163:155,1,100,2|0,0:0|0:0,0:0:0:0:
157,96,232367,2,0,P|115:140|115:197,1,100,0|0,0:0|0:0,0:0:0:0:
191,169,232930,1,2,0:0:0:0:
396,324,234055,2,0,L|450:320,1,50,0|4,0:0|0:0,0:0:0:0:
313,228,234430,2,0,L|362:231,1,50,4|4,0:0|0:0,0:0:0:0:
283,332,234805,6,0,L|422:321,1,112.499996566773,6|4,0:0|0:0,0:0:0:0:
451,243,235367,1,4,0:0:0:0:
313,171,235555,2,0,L|313:243,1,56.2499982833863,2|4,0:0|0:0,0:0:0:0:
451,243,235930,2,0,P|410:194|414:141,1,112.499996566773,4|4,0:0|0:0,0:0:0:0:
411,148,236680,1,0,0:0:0:0:
226,336,237055,2,0,L|290:331,1,56.2499982833863,6|0,0:0|0:0,0:0:0:0:
169,215,237430,2,0,L|225:219,1,56.2499982833863,4|0,0:0|0:0,0:0:0:0:
113,344,237805,6,0,L|247:334,1,112.499996566773,4|4,0:0|0:0,0:0:0:0:
313,228,238367,1,4,0:0:0:0:
168,158,238555,2,0,L|169:235,1,56.2499982833863,2|0,0:0|0:0,0:0:0:0:
244,115,238930,6,0,P|161:76|77:142,1,168.749994850159,4|0,0:0|0:0,0:0:0:0:
47,238,239680,2,0,P|68:219|89:178,1,56.2499982833863,0|0,0:0|0:0,0:0:0:0:
61,64,240055,2,0,P|76:87|96:106,1,56.2499982833863,6|0,0:0|0:0,0:0:0:0:
203,200,240430,2,0,P|187:176|167:157,1,56.2499982833863,4|0,0:0|0:0,0:0:0:0:
313,228,240805,6,0,L|464:226,1,112.499996566773,2|4,0:1|0:0,0:0:0:0:
503,311,241367,1,4,0:0:0:0:
425,226,241555,2,0,L|419:134,1,56.2499982833863,6|0,0:0|0:0,0:0:0:0:
313,228,241930,6,0,L|300:356,1,112.499996566773,4|0,0:0|0:0,0:0:0:0:
410,373,242492,1,0,0:0:0:0:
301,339,242680,2,0,P|264:334|217:349,1,56.2499982833863,0|0,0:0|0:0,0:0:0:0:
137,371,243055,1,6,0:0:0:0:
228,174,243242,5,0,0:0:0:0:
313,228,243430,1,2,0:1:0:0:
301,339,243617,1,0,0:0:0:0:
139,183,243805,6,0,P|146:135|166:104,1,59.3749984145165,2|0,0:0|0:0,0:0:0:0:
41,278,244180,2,0,P|38:245|27:214,1,62.5,8|0,0:0|0:0,0:0:0:0:
137,371,244555,2,0,P|138:329|152:289,1,68.7500020980836,8|0,0:0|0:0,0:0:0:0:
313,228,244930,6,0,B|346:261|386:257|386:257|421:198|505:232,1,178.124995243549,4|0,0:1|0:0,0:0:0:0:
456,359,245680,2,0,L|454:272,1,59.3749984145165,8|0,0:0|0:0,0:0:0:0:
313,228,246055,2,0,L|311:287,1,59.3749984145165,8|0,0:0|0:0,0:0:0:0:
468,221,246430,2,0,L|466:134,1,59.3749984145165,8|0,0:0|0:0,0:0:0:0:
352,67,246805,5,4,0:0:0:0:
313,228,246992,1,2,0:0:0:0:
214,57,247180,2,0,L|268:51,2,41.6666666666667,2|4|2,0:0|0:0|0:0,0:0:0:0:
163,130,247555,2,0,L|76:119,1,59.3749984145165,4|0,0:1|0:0,0:0:0:0:
50,189,247930,2,0,L|12:193,2,37.4999988555909,2|4|2,0:0|0:0|0:1,0:0:0:0:
152,245,248305,6,0,P|138:180|178:115,1,125,4|2,0:1|0:0,0:0:0:0:
246,281,248867,1,2,0:0:0:0:
162,129,249055,1,8,0:0:0:0:
152,245,249242,1,2,0:0:0:0:
347,188,249430,6,0,B|279:159|297:215|220:187,1,125,4|0,0:1|0:0,0:0:0:0:
351,280,249992,1,0,0:0:0:0:
352,126,250180,2,0,P|344:158|354:208,1,62.5,2|0,0:0|0:0,0:0:0:0:
387,37,250555,2,0,B|355:30|355:30|300:45,1,62.5,8|0,0:0|0:0,0:0:0:0:
181,122,250930,2,0,B|213:129|213:129|268:114,1,62.5,2|0,0:0|0:0,0:0:0:0:
78,26,251305,6,0,L|72:166,1,125,4|2,0:0|0:0,0:0:0:0:
167,254,251867,1,2,0:0:0:0:
72,150,252055,1,8,0:0:0:0:
47,275,252242,1,2,0:0:0:0:
276,265,252430,6,0,B|259:242|259:242|199:225|149:265,1,125,4|0,0:1|0:0,0:0:0:0:
216,366,252992,1,0,0:0:0:0:
357,300,253180,2,0,P|363:255|345:218,1,62.5,2|0,0:0|0:0,0:0:0:0:
227,142,253555,2,0,L|310:140,1,62.5,8|0,0:0|0:0,0:0:0:0:
419,301,253930,2,0,L|356:299,1,62.5,2|0,0:0|0:0,0:0:0:0:
325,54,254305,6,0,P|373:102|366:181,1,125,4|2,0:0|0:0,0:0:0:0:
454,19,254867,1,2,0:0:0:0:
376,156,255055,1,8,0:0:0:0:
325,54,255242,1,2,0:0:0:0:
501,162,255430,6,0,L|376:156,1,125,4|0,0:1|0:0,0:0:0:0:
276,265,255992,1,0,0:0:0:0:
232,79,256180,2,0,L|226:141,1,62.5,2|0,0:0|0:0,0:0:0:0:
76,217,256555,2,0,B|110:208|110:208|175:228,1,62.5,8|0,0:0|0:0,0:0:0:0:
232,79,256930,2,0,B|199:90|199:90|133:68,1,62.5,2|0,0:0|0:0,0:0:0:0:
76,217,257305,6,0,P|114:272|99:335,1,125,4|2,0:0|0:0,0:0:0:0:
230,216,257867,1,2,0:0:0:0:
251,357,258055,2,0,L|320:349,1,62.5,8|2,0:0|0:0,0:0:0:0:
414,260,258430,2,0,L|345:252,1,62.5,4|2,0:1|0:0,0:0:0:0:
228,132,258805,6,0,L|230:228,1,83.3333333333333,8|8,0:0|0:0,0:0:0:0:
229,215,259180,2,0,L|173:220,2,41.6666666666667,2|4|2,0:0|0:0|0:1,0:0:0:0:
316,170,259555,1,14,0:0:0:0:
414,260,259742,1,0,0:0:0:0:
397,81,259930,1,2,0:0:0:0:
421,277,260117,1,2,0:0:0:0:
511,129,260305,5,6,0:0:0:0:
272,76,260492,2,0,L|415:81,1,125,2|2,0:0|0:0,0:0:0:0:
313,234,261055,2,0,L|316:171,1,62.5,8|2,0:0|0:0,0:0:0:0:
151,76,261430,6,0,B|232:45|214:117|299:60,1,125,4|0,0:1|0:0,0:0:0:0:
190,173,261992,1,0,0:0:0:0:
151,13,262180,2,0,L|150:83,1,62.5,2|0,0:0|0:0,0:0:0:0:
33,190,262555,1,8,0:0:0:0:
53,31,262742,1,2,0:0:0:0:
54,196,262930,1,4,0:0:0:0:
151,13,263117,1,2,0:1:0:0:
76,201,263305,6,0,B|119:192|119:192|162:211|162:211|238:185,1,125,4|2,0:0|0:0,0:0:0:0:
118,304,263867,1,2,0:0:0:0:
194,200,264055,2,0,L|196:281,1,62.5,8|2,0:0|0:0,0:0:0:0:
305,371,264430,6,0,B|244:309|297:230|297:230|337:290,1,187.5,4|0,0:1|0:0,0:0:0:0:
458,329,265180,2,0,L|374:319,1,62.5,2|0,0:0|0:0,0:0:0:0:
242,378,265555,2,0,L|326:368,1,62.5,8|0,0:0|0:0,0:0:0:0:
118,304,265930,2,0,L|34:294,1,62.5,2|0,0:0|0:0,0:0:0:0:
143,88,266305,6,0,B|121:168|121:168|145:231,1,125,4|2,0:0|0:0,0:0:0:0:
228,66,266867,2,0,P|214:32|175:3,1,62.5,2|8,0:0|0:0,0:0:0:0:
301,160,267242,2,0,P|311:130|332:108,1,62.5,2|2,0:0|0:0,0:0:0:0:
396,310,267617,6,0,L|384:159,1,125,4|0,0:1|0:0,0:0:0:0:
476,69,268180,2,0,L|471:152,1,62.5,0|2,0:0|0:0,0:0:0:0:
396,310,268555,1,8,0:0:0:0:
244,258,268742,2,0,P|286:248|326:263,1,62.5,2|4,0:0|0:0,0:0:0:0:
164,339,269117,1,2,0:1:0:0:
222,144,269305,6,0,P|254:208|223:283,1,125,4|2,0:0|0:0,0:0:0:0:
120,155,269867,1,2,0:0:0:0:
243,257,270055,1,8,0:0:0:0:
222,144,270242,1,8,0:0:0:0:
271,363,270430,6,0,P|331:317|306:179,1,218.75,4|0,0:1|0:0,0:0:0:0:
325,88,271930,6,0,L|400:81,1,62.5,0|0,0:0|0:0,0:0:0:0:
246,29,272305,2,0,L|171:22,1,50,2|0,0:0|0:0,0:0:0:0:
107,57,272680,1,0,0:0:0:0:
165,129,272867,2,0,L|167:253,1,100,2|2,0:0|0:0,0:0:0:0:
78,252,273430,6,0,L|79:152,1,100,2|0,0:0|0:0,0:0:0:0:
107,57,273992,1,0,0:0:0:0:
165,129,274180,1,2,0:0:0:0:
78,252,274555,1,2,0:0:0:0:
130,328,274742,2,0,L|184:326,2,50,0|0|0,0:0|0:0|0:0,0:0:0:0:
244,276,275305,6,0,P|261:329|240:382,1,100,2|2,0:0|0:0,0:0:0:0:
169,235,275867,2,0,P|211:198|268:197,1,100,2|2,0:0|0:0,0:0:0:0:
179,326,276430,1,6,0:0:0:0:
256,192,276523,12,4,278305,0:1:0:0:
126,245,278680,6,0,P|145:220|157:166,1,62.5,2|2,0:0|0:0,0:0:0:0:
187,76,279055,2,0,P|197:105|216:130,1,62.5,8|2,0:0|0:0,0:0:0:0:
247,246,279430,6,0,P|155:236|97:260,1,125,4|0,0:1|0:0,0:0:0:0:
25,276,279992,1,0,0:0:0:0:
124,307,280180,2,0,P|127:272|119:217,1,62.5,2|0,0:0|0:0,0:0:0:0:
213,338,280555,2,0,L|360:329,1,125,8|2,0:0|0:0,0:0:0:0:
411,248,281117,1,2,0:0:0:0:
477,323,281305,6,0,P|506:239|474:173,1,125,4|2,0:0|0:0,0:0:0:0:
408,138,281867,1,2,0:0:0:0:
350,239,282055,2,0,P|395:249|438:237,1,62.5,8|2,0:0|0:0,0:0:0:0:
300,133,282430,6,0,L|175:140,1,125,4|0,0:1|0:0,0:0:0:0:
95,210,282992,1,0,0:0:0:0:
170,78,283180,2,0,L|177:166,1,62.5,2|2,0:0|0:0,0:0:0:0:
235,293,283555,2,0,L|239:230,1,62.5,8|0,0:0|0:0,0:0:0:0:
295,70,283930,2,0,L|302:158,1,62.5,2|2,0:0|0:0,0:0:0:0:
358,285,284305,6,0,B|318:283|318:283|284:297|284:297|209:292,1,125,4|2,0:0|0:0,0:0:0:0:
154,224,284867,1,2,0:0:0:0:
80,292,285055,2,0,P|73:322|82:369,1,62.5,8|2,0:0|0:0,0:0:0:0:
154,224,285430,6,0,P|169:158|139:81,1,125,4|0,0:1|0:0,0:0:0:0:
72,28,285992,1,0,0:0:0:0:
177,22,286180,2,0,L|272:16,1,62.5,2|0,0:0|0:0,0:0:0:0:
332,112,286555,2,0,L|237:106,1,62.5,8|0,0:0|0:0,0:0:0:0:
360,20,286930,1,2,0:0:0:0:
366,204,287117,1,4,0:0:0:0:
485,19,287305,6,0,L|339:21,1,125,4|2,0:0|0:0,0:0:0:0:
419,136,287867,1,2,0:0:0:0:
485,19,288055,2,0,L|491:104,1,62.5,8|2,0:0|0:0,0:0:0:0:
436,250,288430,6,0,P|447:185|416:133,1,125,4|0,0:1|0:0,0:0:0:0:
300,123,288992,1,0,0:0:0:0:
307,222,289180,2,0,P|341:217|373:196,1,62.5,2|0,0:0|0:0,0:0:0:0:
199,165,289555,1,8,0:0:0:0:
280,312,289742,1,2,0:0:0:0:
300,123,289930,1,4,0:0:0:0:
263,325,290117,1,2,0:1:0:0:
229,85,290305,6,0,B|147:63|178:121|88:80,1,125,4|2,0:0|0:0,0:0:0:0:
37,23,290867,1,2,0:0:0:0:
26,117,291055,2,0,P|20:154|35:200,1,62.5,8|2,0:0|0:0,0:0:0:0:
113,334,291430,6,0,P|133:268|110:196,1,125,4|0,0:1|0:0,0:0:0:0:
23,267,291992,1,0,0:0:0:0:
175,329,292180,2,0,L|113:333,1,62.5,2|0,0:0|0:0,0:0:0:0:
249,223,292555,1,8,0:0:0:0:
270,364,292742,1,2,0:0:0:0:
331,207,292930,1,4,0:0:0:0:
258,376,293117,1,4,0:0:0:0:
401,259,293305,6,0,P|415:193|371:129,1,125,4|2,0:0|0:0,0:0:0:0:
295,95,293867,1,2,0:0:0:0:
450,148,294055,2,0,P|406:140|373:150,1,62.5,8|2,0:0|0:0,0:0:0:0:
442,23,294430,6,0,L|450:159,1,125,4|2,0:1|0:0,0:0:0:0:
499,228,294992,1,2,0:0:0:0:
401,259,295180,2,0,L|332:252,1,62.5,2|2,0:0|0:0,0:0:0:0:
193,159,295555,2,0,L|262:152,1,62.5,8|2,0:0|0:0,0:0:0:0:
132,250,295930,1,4,0:0:0:0:
131,75,296117,1,2,0:1:0:0:
227,246,296305,6,0,B|201:311|252:309|220:368,1,125,4|2,0:0|0:0,0:0:0:0:
312,278,296867,1,2,0:0:0:0:
220,366,297055,2,0,L|133:358,1,62.5,8|2,0:0|0:0,0:0:0:0:
12,261,297430,6,0,B|51:249|51:249|95:262|95:262|140:247,1,125,4|0,0:1|0:0,0:0:0:0:
227,137,297992,1,0,0:0:0:0:
131,249,298180,2,0,L|125:186,1,62.5,2|0,0:0|0:0,0:0:0:0:
232,74,298555,2,0,L|226:136,1,62.5,8|0,0:0|0:0,0:0:0:0:
312,278,298930,2,0,L|306:215,1,62.5,2|0,0:0|0:0,0:0:0:0:
356,61,299305,6,0,L|228:74,1,125,4|2,0:0|0:0,0:0:0:0:
143,24,299867,1,2,0:0:0:0:
119,124,300055,2,0,L|124:186,1,62.5,8|2,0:0|0:0,0:0:0:0:
2,131,300430,6,0,P|68:146|133:109,1,125,4|0,0:1|0:0,0:0:0:0:
143,24,300992,1,0,0:0:0:0:
231,73,301180,2,0,P|243:108|239:149,1,62.5,2|0,0:0|0:0,0:0:0:0:
352,236,301555,1,8,0:0:0:0:
381,75,301742,1,2,0:0:0:0:
437,240,301930,1,4,0:0:0:0:
376,59,302117,1,2,0:1:0:0:
352,236,302305,6,0,B|314:219|314:219|221:239,1,125,4|2,0:0|0:0,0:0:0:0:
186,334,302867,1,2,0:0:0:0:
297,372,303055,2,0,L|294:278,1,62.5,8|2,0:0|0:0,0:0:0:0:
236,111,303430,6,0,L|231:252,1,125,4|0,0:1|0:0,0:0:0:0:
186,334,303992,1,0,0:0:0:0:
79,210,304180,2,0,L|159:206,1,62.5,2|0,0:0|0:0,0:0:0:0:
236,111,304555,2,0,L|156:107,1,62.5,8|0,0:0|0:0,0:0:0:0:
56,66,304930,1,2,0:0:0:0:
79,210,305117,1,2,0:0:0:0:
236,111,305305,6,0,P|298:86|360:120,1,125,4|2,0:0|0:0,0:0:0:0:
420,187,305867,1,2,0:0:0:0:
293,228,306055,2,0,L|296:148,1,62.5,8|2,0:0|0:0,0:0:0:0:
381,317,306430,6,0,B|340:306|340:306|301:323|301:323|247:315,1,125,4|0,0:1|0:0,0:0:0:0:
195,225,306992,1,0,0:0:0:0:
261,317,307180,2,0,P|268:344|261:395,1,62.5,2|2,0:0|0:0,0:0:0:0:
293,228,307555,1,8,0:0:0:0:
108,233,307742,1,2,0:0:0:0:
312,216,307930,1,4,0:0:0:0:
122,145,308117,1,2,0:0:0:0:
329,204,308305,6,0,B|368:209|368:209|407:192|407:192|448:203,1,125,4|2,0:0|0:0,0:0:0:0:
423,300,308867,1,2,0:0:0:0:
450,140,309055,2,0,L|448:202,1,62.5,8|2,0:0|0:0,0:0:0:0:
267,196,309430,6,0,B|341:205,1,62.5,4|0,0:1|0:0,0:0:0:0:
220,108,309805,2,0,B|294:117,1,62.5,0|0,0:0|0:0,0:0:0:0:
173,20,310180,2,0,B|247:29,1,62.5,2|0,0:0|0:0,0:0:0:0:
131,170,310555,1,8,0:0:0:0:
173,20,310742,1,2,0:0:0:0:
140,191,310930,1,4,0:0:0:0:
86,14,311117,1,2,0:1:0:0:
146,212,311305,6,0,B|123:277|177:267|147:340,1,125,4|2,0:0|0:0,0:0:0:0:
51,299,311867,1,2,0:0:0:0:
209,321,312055,2,0,P|176:334|119:315,1,62.5,8|2,0:0|0:0,0:0:0:0:
246,235,312430,6,0,L|395:230,1,125,4|0,0:1|0:0,0:0:0:0:
466,302,312992,1,0,0:0:0:0:
466,173,313180,2,0,L|469:109,1,62.5,2|0,0:0|0:0,0:0:0:0:
274,84,313554,1,8,0:0:0:0:
345,128,313680,2,0,L|408:126,2,41.6666666666667,8|8|8,0:0|0:0|0:0,0:0:0:0:
466,173,314117,1,4,0:0:0:0:
274,84,314305,6,0,P|260:144|294:199,1,125,4|2,0:0|0:0,0:0:0:0:
176,89,314867,1,2,0:0:0:0:
228,200,315055,2,0,L|307:195,1,62.5,8|2,0:0|0:0,0:0:0:0:
171,278,315430,6,0,L|33:272,1,125,4|0,0:1|0:0,0:0:0:0:
10,175,315992,1,0,0:0:0:0:
42,334,316180,2,0,L|46:264,1,62.5,2|0,0:0|0:0,0:0:0:0:
171,278,316555,2,0,L|174:340,1,62.5,8|0,0:0|0:0,0:0:0:0:
263,185,316930,1,2,0:0:0:0:
114,187,317117,1,2,0:0:0:0:
270,280,317305,6,0,B|313:286|313:286|356:272|356:272|424:280,1,125,4|2,0:0|0:0,0:0:0:0:
475,347,317867,1,2,0:0:0:0:
390,213,318055,2,0,L|392:295,1,62.5,8|2,0:0|0:0,0:0:0:0:
465,155,318430,6,0,P|384:120|326:149,1,125,4|0,0:1|0:0,0:0:0:0:
263,185,318992,1,0,0:0:0:0:
352,129,319180,2,0,P|356:102|348:53,1,62.5,2|0,0:0|0:0,0:0:0:0:
389,215,319555,1,8,0:0:0:0:
267,95,319742,1,2,0:0:0:0:
308,273,319930,1,8,0:0:0:0:
263,75,320117,1,2,0:0:0:0:
206,266,320305,6,0,B|136:240|146:308|52:259,1,125,6|2,0:0|0:0,0:0:0:0:
26,150,320867,1,2,0:0:0:0:
85,273,321055,2,0,P|101:236|97:205,1,62.5,8|2,0:0|0:0,0:0:0:0:
38,56,321430,6,0,L|175:58,1,125,4|0,0:1|0:0,0:0:0:0:
245,113,321992,1,0,0:0:0:0:
162,57,322180,1,2,0:0:0:0:
155,154,322367,1,0,0:0:0:0:
307,108,322555,2,0,L|234:113,1,62.5,8|0,0:0|0:0,0:0:0:0:
396,201,322930,2,0,L|323:196,1,62.5,2|0,0:0|0:0,0:0:0:0:
397,76,323305,6,0,L|395:209,1,125,4|2,0:0|0:0,0:0:0:0:
332,291,323867,1,2,0:0:0:0:
395,200,324055,1,8,0:0:0:0:
439,292,324242,1,2,0:0:0:0:
306,203,324430,6,0,B|278:183|226:195|226:195|266:131|218:91|218:91|150:123|174:187|174:187|150:175|110:187|82:235|82:235|126:283|186:243|186:243|173:287|214:331,1,625,4|4,0:0|0:1,0:0:0:0:
256,192,326398,12,0,337930,0:0:0:0:
