osu file format v14

[General]
AudioFilename: audio.mp3
AudioLeadIn: 0
PreviewTime: 61787
Countdown: 1
SampleSet: Normal
StackLeniency: 0.7
Mode: 1
LetterboxInBreaks: 0
WidescreenStoryboard: 0

[Editor]
DistanceSpacing: 1
BeatDivisor: 4
GridSize: 4
TimelineZoom: 1.600001

[Metadata]
Title:Hysteric Bullet -TV size-
TitleUnicode:Hysteric Bullet -TV size-
Artist:GARNiDELiA
ArtistUnicode:GARNiDELiA
Creator:LunaticP
Version:Oni
Source:GunGirls
Tags:銃娘 枪娘 GunGirls
BeatmapID:1505770
BeatmapSetID:712297

[Difficulty]
HPDrainRate:5
CircleSize:5
OverallDifficulty:5
ApproachRate:5
SliderMultiplier:1.4
SliderTickRate:1

[Events]
//Background and Video events
0,0,"f0024ysw2wr.png",0,100
Video,0,"Gun Girls Opening .mp4",0,100
//Break Periods
//Storyboard Layer 0 (Background)
//Storyboard Layer 1 (Fail)
//Storyboard Layer 2 (Pass)
//Storyboard Layer 3 (Foreground)
//Storyboard Sound Samples

[TimingPoints]
1056,365.853658536585,4,1,0,50,1,0
62519,-90.9090909090909,4,1,0,70,0,1
85934,-90.9090909090909,4,1,0,70,0,0

[HitObjects]
224,224,1056,5,8,0:0:0:0:
384,192,1788,1,0,0:0:0:0:
256,192,2519,1,8,0:0:0:0:
288,224,2885,1,0,0:0:0:0:
288,224,3251,1,8,0:0:0:0:
192,192,3983,1,8,0:0:0:0:
320,192,4714,1,0,0:0:0:0:
224,224,5080,1,0,0:0:0:0:
224,224,5446,1,8,0:0:0:0:
352,160,5812,1,0,0:0:0:0:
352,160,6178,1,8,0:0:0:0:
224,224,6910,1,8,0:0:0:0:
288,256,7641,1,0,0:0:0:0:
288,256,8007,1,0,0:0:0:0:
224,128,8373,1,12,0:0:0:0:
160,224,8739,1,4,0:0:0:0:
160,224,9105,1,4,0:0:0:0:
160,288,9653,1,0,0:0:0:0:
320,224,9745,1,0,0:0:0:0:
160,288,9836,1,8,0:0:0:0:
352,224,10019,1,0,0:0:0:0:
320,160,10385,1,0,0:0:0:0:
320,192,10477,1,0,0:0:0:0:
320,192,10568,1,8,0:0:0:0:
352,192,10751,1,0,0:0:0:0:
352,256,11117,1,0,0:0:0:0:
352,256,11208,1,0,0:0:0:0:
352,256,11300,1,8,0:0:0:0:
160,224,11483,1,0,0:0:0:0:
160,256,11666,1,8,0:0:0:0:
288,256,11849,1,0,0:0:0:0:
192,128,12032,1,0,0:0:0:0:
224,128,12214,1,0,0:0:0:0:
224,128,12306,1,0,0:0:0:0:
224,128,12397,1,0,0:0:0:0:
352,256,12580,1,0,0:0:0:0:
352,256,12672,1,0,0:0:0:0:
352,256,12763,1,8,0:0:0:0:
96,224,12946,2,0,P|192:256|192:256,5,70
256,192,14044,12,0,15324,0:0:0:0:
352,128,15690,5,12,0:0:0:0:
320,224,16056,1,4,0:0:0:0:
160,320,16239,1,0,0:0:0:0:
224,288,16422,1,8,0:0:0:0:
288,224,16605,1,0,0:0:0:0:
288,224,16696,1,0,0:0:0:0:
288,224,16788,1,8,0:0:0:0:
288,224,16971,1,8,0:0:0:0:
320,128,17153,1,0,0:0:0:0:
192,224,17336,1,0,0:0:0:0:
224,224,17428,1,8,0:0:0:0:
224,224,17519,1,8,0:0:0:0:
224,224,17702,1,0,0:0:0:0:
320,224,17885,1,8,0:0:0:0:
256,224,18068,1,8,0:0:0:0:
256,224,18160,1,8,0:0:0:0:
256,224,18251,1,0,0:0:0:0:
384,128,18434,1,8,0:0:0:0:
352,224,18617,1,8,0:0:0:0:
448,224,18983,1,0,0:0:0:0:
256,192,19166,1,0,0:0:0:0:
204,272,19349,1,8,0:0:0:0:
264,276,19532,1,8,0:0:0:0:
264,276,19623,1,0,0:0:0:0:
264,276,19714,1,8,0:0:0:0:
264,276,19897,1,8,0:0:0:0:
388,112,20080,1,0,0:0:0:0:
320,240,20263,1,0,0:0:0:0:
320,240,20355,1,0,0:0:0:0:
320,240,20446,1,0,0:0:0:0:
320,240,20629,1,8,0:0:0:0:
492,216,20812,1,0,0:0:0:0:
188,176,20995,1,8,0:0:0:0:
188,176,21086,1,0,0:0:0:0:
188,176,21178,1,8,0:0:0:0:
188,176,21269,1,0,0:0:0:0:
188,176,21361,1,8,0:0:0:0:
188,176,21544,1,8,0:0:0:0:
308,312,21910,1,0,0:0:0:0:
216,288,22092,1,0,0:0:0:0:
216,292,22184,1,0,0:0:0:0:
216,288,22275,1,8,0:0:0:0:
216,288,22458,1,0,0:0:0:0:
216,288,22641,1,8,0:0:0:0:
308,232,22824,1,8,0:0:0:0:
296,104,23007,1,0,0:0:0:0:
304,276,23099,1,0,0:0:0:0:
172,216,23190,1,0,0:0:0:0:
172,216,23373,1,0,0:0:0:0:
172,216,23556,1,8,0:0:0:0:
332,128,23739,1,8,0:0:0:0:
272,248,23922,1,0,0:0:0:0:
272,248,24013,1,0,0:0:0:0:
272,248,24105,1,8,0:0:0:0:
272,256,24196,1,0,0:0:0:0:
276,256,24288,1,0,0:0:0:0:
276,256,24471,1,8,0:0:0:0:
352,188,24653,1,8,0:0:0:0:
320,208,24836,1,0,0:0:0:0:
192,112,25202,1,8,0:0:0:0:
192,120,25385,1,0,0:0:0:0:
160,212,25568,1,0,0:0:0:0:
160,212,25660,1,8,0:0:0:0:
160,212,25751,1,8,0:0:0:0:
296,188,26117,1,4,0:0:0:0:
296,192,26300,1,12,0:0:0:0:
296,200,26483,1,12,0:0:0:0:
412,136,27397,1,0,0:0:0:0:
352,260,27763,1,0,0:0:0:0:
356,264,27946,1,8,0:0:0:0:
356,264,28129,1,8,0:0:0:0:
216,160,28312,1,0,0:0:0:0:
384,260,28678,1,0,0:0:0:0:
388,268,28861,1,8,0:0:0:0:
388,272,29044,1,0,0:0:0:0:
328,196,29227,1,0,0:0:0:0:
296,264,29410,1,0,0:0:0:0:
296,264,29592,1,8,0:0:0:0:
460,196,29775,1,0,0:0:0:0:
464,208,29958,1,8,0:0:0:0:
368,128,30141,1,8,0:0:0:0:
368,132,30324,1,0,0:0:0:0:
468,224,30690,1,8,0:0:0:0:
468,224,30873,1,0,0:0:0:0:
468,224,31056,1,8,0:0:0:0:
336,244,31239,1,0,0:0:0:0:
316,204,31605,1,8,0:0:0:0:
316,204,31788,1,0,0:0:0:0:
312,252,31971,1,0,0:0:0:0:
312,248,32153,1,8,0:0:0:0:
296,236,32336,1,0,0:0:0:0:
296,236,32519,1,8,0:0:0:0:
296,240,32702,1,0,0:0:0:0:
296,236,33068,1,8,0:0:0:0:
508,232,33251,1,0,0:0:0:0:
256,304,33434,1,0,0:0:0:0:
264,300,33525,1,0,0:0:0:0:
264,300,33617,1,8,0:0:0:0:
424,256,33800,1,0,0:0:0:0:
424,256,33983,1,8,0:0:0:0:
376,272,34166,1,0,0:0:0:0:
320,188,34349,1,8,0:0:0:0:
232,252,34532,1,0,0:0:0:0:
376,272,34623,1,0,0:0:0:0:
376,272,34714,1,8,0:0:0:0:
376,272,34897,1,0,0:0:0:0:
252,160,35080,1,0,0:0:0:0:
252,160,35263,1,0,0:0:0:0:
252,160,35446,1,8,0:0:0:0:
252,160,35629,1,0,0:0:0:0:
252,160,35812,1,8,0:0:0:0:
456,176,36178,1,8,0:0:0:0:
316,180,36544,1,8,0:0:0:0:
316,180,36727,1,8,0:0:0:0:
312,184,36910,1,0,0:0:0:0:
472,188,37275,1,0,0:0:0:0:
472,188,37458,1,8,0:0:0:0:
372,248,37824,1,0,0:0:0:0:
372,248,38007,1,8,0:0:0:0:
280,144,38556,1,12,0:0:0:0:
280,144,38922,1,12,0:0:0:0:
288,156,39105,1,4,0:0:0:0:
452,72,39471,1,8,0:0:0:0:
200,264,39653,1,0,0:0:0:0:
200,264,39836,1,8,0:0:0:0:
176,168,40019,1,0,0:0:0:0:
176,168,40111,1,0,0:0:0:0:
176,168,40202,1,8,0:0:0:0:
176,168,40385,1,0,0:0:0:0:
292,220,40568,1,8,0:0:0:0:
292,220,40751,1,0,0:0:0:0:
292,160,40934,1,8,0:0:0:0:
292,160,41117,1,0,0:0:0:0:
292,160,41208,1,0,0:0:0:0:
292,160,41300,1,8,0:0:0:0:
368,152,41483,1,0,0:0:0:0:
264,264,41666,1,8,0:0:0:0:
264,264,42032,1,0,0:0:0:0:
160,224,42214,1,0,0:0:0:0:
220,176,42397,1,0,0:0:0:0:
220,176,42489,1,0,0:0:0:0:
220,176,42580,1,8,0:0:0:0:
300,220,42763,1,8,0:0:0:0:
312,128,42946,1,0,0:0:0:0:
360,132,43129,1,0,0:0:0:0:
192,144,43312,1,8,0:0:0:0:
192,144,43495,1,0,0:0:0:0:
244,184,43678,1,0,0:0:0:0:
244,184,43769,1,8,0:0:0:0:
244,184,43861,1,0,0:0:0:0:
184,216,44044,1,0,0:0:0:0:
184,216,44135,1,8,0:0:0:0:
184,216,44227,1,0,0:0:0:0:
440,200,44410,1,8,0:0:0:0:
440,200,44592,1,0,0:0:0:0:
320,120,44775,1,8,0:0:0:0:
320,120,44958,1,0,0:0:0:0:
260,132,45324,1,8,0:0:0:0:
260,132,45507,1,0,0:0:0:0:
260,132,45690,1,8,0:0:0:0:
432,216,45782,1,0,0:0:0:0:
396,128,45873,1,0,0:0:0:0:
432,216,46056,1,8,0:0:0:0:
364,292,46239,1,0,0:0:0:0:
364,292,46330,1,0,0:0:0:0:
364,292,46422,1,8,0:0:0:0:
364,292,46605,1,0,0:0:0:0:
284,216,46788,1,8,0:0:0:0:
284,216,46971,1,0,0:0:0:0:
284,216,47153,1,0,0:0:0:0:
284,216,47336,1,8,0:0:0:0:
356,184,47519,1,0,0:0:0:0:
356,184,47611,1,0,0:0:0:0:
356,184,47702,1,0,0:0:0:0:
392,16,47885,1,8,0:0:0:0:
388,68,48068,1,0,0:0:0:0:
256,300,48251,1,0,0:0:0:0:
256,300,48342,1,0,0:0:0:0:
256,300,48434,1,0,0:0:0:0:
256,300,48617,1,0,0:0:0:0:
256,300,48708,1,0,0:0:0:0:
256,300,48800,1,8,0:0:0:0:
256,300,48983,1,0,0:0:0:0:
476,276,49166,1,12,0:0:0:0:
248,120,49532,1,12,0:0:0:0:
248,120,49714,1,4,0:0:0:0:
384,104,50812,1,12,0:0:0:0:
188,256,51178,1,0,0:0:0:0:
192,248,51361,1,8,0:0:0:0:
276,260,51727,1,0,0:0:0:0:
276,260,51910,1,8,0:0:0:0:
280,148,52275,1,0,0:0:0:0:
280,148,52458,1,0,0:0:0:0:
392,204,52641,1,8,0:0:0:0:
248,184,53007,1,8,0:0:0:0:
256,124,53373,1,0,0:0:0:0:
364,136,53739,1,0,0:0:0:0:
364,136,54105,1,8,0:0:0:0:
364,136,54288,1,0,0:0:0:0:
296,252,54653,1,0,0:0:0:0:
296,252,54836,1,8,0:0:0:0:
220,192,55202,1,0,0:0:0:0:
220,192,55385,1,8,0:0:0:0:
348,176,55568,1,8,0:0:0:0:
348,176,55751,1,8,0:0:0:0:
348,176,55842,1,8,0:0:0:0:
348,176,55934,1,0,0:0:0:0:
420,208,56666,1,8,0:0:0:0:
280,144,57032,1,0,0:0:0:0:
280,144,57214,1,8,0:0:0:0:
240,196,57397,1,0,0:0:0:0:
228,228,57580,1,0,0:0:0:0:
228,228,57763,1,8,0:0:0:0:
376,192,58129,1,8,0:0:0:0:
384,128,58312,1,0,0:0:0:0:
384,128,58677,1,0,0:0:0:0:
248,92,58861,1,8,0:0:0:0:
248,92,59227,1,0,0:0:0:0:
320,152,59592,1,8,0:0:0:0:
364,72,59775,1,0,0:0:0:0:
416,228,59958,1,0,0:0:0:0:
416,228,60141,1,0,0:0:0:0:
416,228,60324,1,8,0:0:0:0:
416,228,60507,1,0,0:0:0:0:
416,228,60690,1,8,0:0:0:0:
252,180,60873,1,0,0:0:0:0:
252,180,60964,1,0,0:0:0:0:
252,180,61056,1,0,0:0:0:0:
256,184,61239,1,0,0:0:0:0:
252,184,61330,1,0,0:0:0:0:
252,184,61422,1,8,0:0:0:0:
292,128,62153,1,12,0:0:0:0:
292,128,62519,1,4,0:0:0:0:
236,220,62885,1,0,0:0:0:0:
236,220,63068,1,0,0:0:0:0:
236,220,63251,1,8,0:0:0:0:
376,164,63434,1,0,0:0:0:0:
376,164,63525,1,0,0:0:0:0:
376,164,63617,1,8,0:0:0:0:
376,164,63800,1,0,0:0:0:0:
376,164,63983,1,8,0:0:0:0:
260,120,64349,1,0,0:0:0:0:
260,120,64532,1,0,0:0:0:0:
260,120,64714,1,8,0:0:0:0:
288,252,64897,1,0,0:0:0:0:
352,260,65080,1,0,0:0:0:0:
352,260,65172,1,0,0:0:0:0:
352,260,65263,1,0,0:0:0:0:
256,188,65446,1,8,0:0:0:0:
256,188,65629,1,0,0:0:0:0:
256,188,65721,1,0,0:0:0:0:
256,188,65812,1,8,0:0:0:0:
256,188,65995,1,0,0:0:0:0:
332,152,66178,1,8,0:0:0:0:
332,152,66361,1,8,0:0:0:0:
332,152,66452,1,8,0:0:0:0:
328,152,66544,1,0,0:0:0:0:
312,104,66727,1,8,0:0:0:0:
312,104,66910,1,0,0:0:0:0:
312,104,67092,1,0,0:0:0:0:
348,188,67275,1,8,0:0:0:0:
348,188,67458,1,0,0:0:0:0:
236,160,67641,1,0,0:0:0:0:
236,160,67733,1,0,0:0:0:0:
236,160,67824,1,0,0:0:0:0:
236,160,67916,1,0,0:0:0:0:
236,160,68007,1,8,0:0:0:0:
384,212,68373,1,8,0:0:0:0:
268,260,68556,1,0,0:0:0:0:
268,260,68647,1,0,0:0:0:0:
360,256,68739,1,8,0:0:0:0:
360,256,68922,1,0,0:0:0:0:
440,200,69105,1,8,0:0:0:0:
168,244,69287,1,0,0:0:0:0:
300,156,69471,1,0,0:0:0:0:
300,156,69653,1,0,0:0:0:0:
300,156,69836,1,8,0:0:0:0:
308,240,70019,1,0,0:0:0:0:
308,240,70202,1,8,0:0:0:0:
308,240,70294,1,0,0:0:0:0:
308,240,70385,1,0,0:0:0:0:
236,200,70568,1,0,0:0:0:0:
356,156,70751,1,0,0:0:0:0:
260,136,70934,1,8,0:0:0:0:
320,112,71025,1,8,0:0:0:0:
320,112,71117,1,0,0:0:0:0:
300,204,71300,1,8,0:0:0:0:
464,240,71666,1,0,0:0:0:0:
268,104,71849,1,8,0:0:0:0:
408,136,72032,1,0,0:0:0:0:
296,200,72214,1,0,0:0:0:0:
276,216,72306,1,0,0:0:0:0:
296,192,72397,1,8,0:0:0:0:
276,216,72580,1,0,0:0:0:0:
276,216,72672,1,8,0:0:0:0:
276,216,72763,1,8,0:0:0:0:
276,216,72946,1,0,0:0:0:0:
276,216,73129,1,8,0:0:0:0:
384,160,73312,1,0,0:0:0:0:
384,160,73495,1,0,0:0:0:0:
384,160,73678,1,0,0:0:0:0:
384,160,73860,1,0,0:0:0:0:
384,160,73952,1,0,0:0:0:0:
384,160,74044,1,8,0:0:0:0:
384,160,74135,1,0,0:0:0:0:
352,184,74227,1,8,0:0:0:0:
312,192,74592,1,0,0:0:0:0:
472,88,74775,1,0,0:0:0:0:
244,256,74958,1,8,0:0:0:0:
244,256,75141,1,0,0:0:0:0:
344,152,75324,1,8,0:0:0:0:
344,152,75416,1,0,0:0:0:0:
336,152,75507,1,0,0:0:0:0:
336,152,75690,1,8,0:0:0:0:
320,192,75873,1,0,0:0:0:0:
320,192,76056,1,8,0:0:0:0:
200,84,76422,1,8,0:0:0:0:
200,84,76605,1,0,0:0:0:0:
200,84,76696,1,0,0:0:0:0:
200,84,76788,1,0,0:0:0:0:
200,84,76971,1,0,0:0:0:0:
320,80,77153,1,8,0:0:0:0:
268,152,77336,1,0,0:0:0:0:
268,152,77428,1,0,0:0:0:0:
268,152,77519,1,8,0:0:0:0:
268,152,77702,1,0,0:0:0:0:
328,176,77885,1,8,0:0:0:0:
328,176,77977,1,0,0:0:0:0:
328,176,78068,1,8,0:0:0:0:
328,176,78251,1,8,0:0:0:0:
328,176,78434,1,0,0:0:0:0:
328,176,78617,1,0,0:0:0:0:
328,176,78800,1,0,0:0:0:0:
328,176,78891,1,0,0:0:0:0:
328,176,78983,1,8,0:0:0:0:
328,176,79166,1,8,0:0:0:0:
328,176,79349,1,8,0:0:0:0:
328,176,79440,1,0,0:0:0:0:
328,176,79532,1,0,0:0:0:0:
328,176,79623,1,0,0:0:0:0:
328,176,79714,1,8,0:0:0:0:
212,216,80080,1,8,0:0:0:0:
212,216,80263,1,0,0:0:0:0:
240,236,80446,1,0,0:0:0:0:
232,232,80629,1,8,0:0:0:0:
276,192,80812,1,0,0:0:0:0:
280,208,80995,1,0,0:0:0:0:
280,208,81086,1,0,0:0:0:0:
280,208,81178,1,8,0:0:0:0:
280,208,81361,1,0,0:0:0:0:
304,160,81544,1,0,0:0:0:0:
304,160,81635,1,8,0:0:0:0:
304,160,81727,1,0,0:0:0:0:
296,160,81818,1,0,0:0:0:0:
296,160,81910,1,8,0:0:0:0:
296,160,82092,1,0,0:0:0:0:
276,172,82275,1,0,0:0:0:0:
280,168,82367,1,0,0:0:0:0:
280,168,82458,1,8,0:0:0:0:
280,168,82550,1,0,0:0:0:0:
280,168,82641,1,8,0:0:0:0:
280,168,82824,1,0,0:0:0:0:
380,144,83007,1,0,0:0:0:0:
360,88,83373,1,0,0:0:0:0:
284,160,83556,1,0,0:0:0:0:
284,160,83739,1,8,0:0:0:0:
200,152,83922,1,8,0:0:0:0:
200,152,84013,1,0,0:0:0:0:
200,152,84105,1,8,0:0:0:0:
200,152,84288,1,0,0:0:0:0:
340,136,84471,1,8,0:0:0:0:
340,136,84745,1,0,0:0:0:0:
340,136,84836,1,8,0:0:0:0:
256,340,85019,1,0,0:0:0:0:
448,204,85202,1,0,0:0:0:0:
448,204,85294,1,0,0:0:0:0:
240,136,85385,1,0,0:0:0:0:
240,136,85477,1,0,0:0:0:0:
240,136,85568,1,8,0:0:0:0:
240,144,85751,1,0,0:0:0:0:
160,204,85934,2,0,P|316:208|320:208,3,154.000004699707
256,192,87214,12,0,88495,0:0:0:0:
