osu file format v14

[General]
AudioFilename: audio.mp3
AudioLeadIn: 0
PreviewTime: 63306
Countdown: 0
SampleSet: Soft
StackLeniency: 0.7
Mode: 0
LetterboxInBreaks: 0
WidescreenStoryboard: 0

[Editor]
Bookmarks: 149299
DistanceSpacing: 1.5
BeatDivisor: 4
GridSize: 4
TimelineZoom: 1.6

[Metadata]
Title:Gokuraku jodo
TitleUnicode:極楽浄土
Artist:GARNiDELiA
ArtistUnicode:GARNiDELiA
Creator:Vanilla Vat
Version:Gokuraku
Source:
Tags:MARiA toku Gokuraku Jyodo Gokuraku joudo
BeatmapID:1040238
BeatmapSetID:487967

[Difficulty]
HPDrainRate:5
CircleSize:4
OverallDifficulty:8
ApproachRate:8
SliderMultiplier:1.4
SliderTickRate:1

[Events]
//Background and Video events
0,0,"22494540_p0.jpg",0,0
//Break Periods
2,93277,98739
2,153735,165610
//Storyboard Layer 0 (Background)
//Storyboard Layer 1 (Fail)
//Storyboard Layer 2 (Pass)
//Storyboard Layer 3 (Foreground)
//Storyboard Sound Samples

[TimingPoints]
5138,458.015267175573,4,2,2,30,1,0
12237,-100,4,2,1,30,0,0
19795,-90.9090909090909,4,3,1,50,0,0
20023,-90.9090909090909,4,2,1,50,0,0
23458,-90.9090909090909,4,3,1,50,0,0
23687,-90.9090909090909,4,2,1,50,0,0
27122,-90.9090909090909,4,3,1,50,0,0
27351,-90.9090909090909,4,2,1,50,0,0
32618,-90.9090909090909,4,3,1,50,0,0
33076,-90.9090909090909,4,3,1,50,0,0
33992,-90.9090909090909,4,2,1,50,0,0
34451,-100,4,2,2,30,0,0
49107,-100,4,2,1,40,0,0
52771,-100,4,2,2,40,0,0
56435,-100,4,2,1,40,0,0
60328,-100,4,2,2,40,0,0
61703,-90.9090909090909,4,2,2,40,0,0
62161,-100,4,2,2,40,0,0
63534,-90.9090909090909,4,2,1,50,0,1
63763,-90.9090909090909,4,3,1,50,0,1
63992,-90.9090909090909,4,2,1,50,0,1
67428,-90.9090909090909,4,3,1,50,0,1
67657,-90.9090909090909,4,2,1,50,0,1
71092,-90.9090909090909,4,3,1,50,0,1
71321,-90.9090909090909,4,2,1,50,0,1
77505,-200,4,2,1,50,0,1
77963,-100,4,2,1,50,0,1
78420,-90.9090909090909,4,3,1,70,0,0
78649,-90.9090909090909,4,2,1,70,0,0
80252,-90.9090909090909,4,2,1,70,0,0
82084,-90.9090909090909,4,3,1,70,0,0
82313,-90.9090909090909,4,2,1,70,0,0
85748,-90.9090909090909,4,3,1,70,0,0
85977,-90.9090909090909,4,2,1,70,0,0
91245,-200,4,2,1,70,0,0
91703,-90.9090909090909,4,2,1,70,0,0
93077,-90.9090909090909,4,2,2,70,0,0
100405,-100,4,2,2,70,0,0
104986,-66.6666666666667,4,2,2,70,0,0
105215,-100,4,2,2,70,0,0
107733,-100,4,2,1,70,0,0
122161,-90.9090909090909,4,2,1,70,0,0
122389,-83.3333333333333,4,3,1,70,0,1
122618,-83.3333333333333,4,2,1,70,0,1
126054,-83.3333333333333,4,3,1,70,0,1
126283,-83.3333333333333,4,2,1,70,0,1
129718,-83.3333333333333,4,3,1,70,0,1
129947,-83.3333333333333,4,2,1,70,0,1
131550,-83.3333333333333,4,3,1,70,0,1
131779,-83.3333333333333,4,2,1,70,0,1
136131,-200,4,2,1,70,0,1
136589,-100,4,2,1,70,0,1
137046,-90.9090909090909,4,2,1,40,0,0
138878,-90.9090909090909,4,2,2,20,0,0
170940,-100,4,2,1,40,0,0
174833,-90.9090909090909,4,2,1,40,0,0
182619,-90.9090909090909,4,2,1,70,0,0
182847,-83.3333333333333,4,3,1,70,0,1
183076,-83.3333333333333,4,2,1,70,0,1
190176,-83.3333333333333,4,3,1,70,0,1
190405,-83.3333333333333,4,2,1,70,0,1
200253,-83.3333333333333,4,2,1,70,0,1
201168,-90.9090909090909,4,3,1,70,0,0
201397,-90.9090909090909,4,2,1,70,0,0
204832,-90.9090909090909,4,3,1,70,0,0
205061,-90.9090909090909,4,2,1,70,0,0
208496,-90.9090909090909,4,3,1,70,0,0
208725,-90.9090909090909,4,2,1,70,0,0
213992,-90.9090909090909,4,3,1,70,0,0
214450,-90.9090909090909,4,3,1,70,0,0
215367,-90.9090909090909,4,2,1,70,0,0

[HitObjects]
108,220,5138,6,0,P|148:272|176:276,1,70,2|0,0:0|0:0,0:0:0:0:
224,180,5596,1,0,0:0:0:0:
224,180,5711,2,0,P|212:128|160:96,1,105,2|0,0:0|0:0,0:0:0:0:
68,96,6283,5,2,0:0:0:0:
112,192,6512,1,0,0:0:0:0:
112,192,6627,2,0,P|156:222|220:214,1,105,2|0,0:0|0:0,0:0:0:0:
300,172,7199,5,2,0:0:0:0:
206,220,7428,2,0,P|168:245|149:288,1,70,0|2,0:0|0:0,0:0:0:0:
124,364,7886,1,4,0:0:0:0:
248,196,8344,6,0,P|261:228|261:262,1,70,0|2,0:0|0:0,0:0:0:0:
172,208,8802,2,0,P|162:175|171:137,1,70,0|2,0:0|0:0,0:0:0:0:
268,104,9260,1,0,0:0:0:0:
268,104,9375,2,0,P|243:60|193:50,1,105,2|0,0:0|0:0,0:0:0:0:
92,72,9947,5,2,0:0:0:0:
168,144,10176,1,0,0:0:0:0:
168,144,10291,2,0,P|193:188|190:247,1,105,2|0,0:0|0:0,0:0:0:0:
144,332,10863,6,0,P|184:340|220:329,1,70,2|0,0:0|0:0,0:0:0:0:
300,280,11321,1,2,0:0:0:0:
396,320,11550,1,4,0:0:0:0:
416,112,12008,6,0,P|424:152|400:196,1,70,2|2,0:0|0:0,0:0:0:0:
316,144,12467,2,0,P|299:199|319:251,1,105,2|0,0:0|0:0,0:0:0:0:
352,280,12925,1,8,0:0:0:0:
280,204,13154,1,0,0:0:0:0:
176,188,13383,6,0,P|121:192|85:224,1,105,2|0,0:0|0:0,0:0:0:0:
56,268,13841,1,8,0:0:0:0:
160,272,14070,5,0,0:0:0:0:
120,176,14299,2,0,L|88:88,1,70,2|0,0:0|0:0,0:0:0:0:
160,28,14757,1,8,2:0:0:0:
204,124,14986,1,0,2:0:0:0:
272,48,15215,5,2,0:0:0:0:
96,110,15444,1,0,0:0:0:0:
244,212,15673,2,0,P|280:200|284:160,1,70,8|0,0:0|0:0,0:0:0:0:
292,316,16131,6,0,P|345:295|370:246,1,105,2|0,0:0|0:0,0:0:0:0:
376,204,16589,1,8,0:0:0:0:
272,200,16818,1,0,0:0:0:0:
456,240,17047,6,0,P|464:183|435:137,1,105,2|0,0:0|0:0,0:0:0:0:
404,108,17505,1,8,0:0:0:0:
308,68,17734,1,0,0:0:0:0:
296,172,17963,5,2,0:0:0:0:
192,92,18192,2,0,L|196:132,1,35
204,228,18421,1,2,0:0:0:0:
146,263,18650,2,0,P|186:231|230:231,1,70,0|0,0:0|0:0,0:0:0:0:
304,204,19108,2,0,P|340:180|352:144,1,70,8|4,0:0|0:0,0:0:0:0:
448,284,19795,6,0,L|376:332,1,77.0000023498536,8|2,0:0|0:0,0:0:0:0:
352,208,20138,1,0,0:0:0:0:
352,208,20253,2,0,L|264:184,1,77.0000023498536,0|10,0:0|0:0,0:0:0:0:
248,80,20711,2,0,P|196:80|164:100,1,77.0000023498536,0|10,0:0|0:0,0:0:0:0:
84,160,21169,5,0,0:0:0:0:
136,184,21283,1,0,0:0:0:0:
172,228,21398,1,0,0:0:0:0:
180,284,21512,1,0,0:0:0:0:
164,340,21627,2,8,L|256:284,1,77.0000023498536,2|8,0:0|0:0,0:0:0:0:
272,192,21971,1,0,0:0:0:0:
272,192,22085,2,0,L|368:176,1,77.0000023498536,2|8,0:0|0:0,0:0:0:0:
444,244,22543,5,2,0:0:0:0:
264,116,22772,1,8,0:0:0:0:
164,228,23001,1,2,0:0:0:0:
376,120,23230,1,12,0:0:0:0:
396,232,23459,6,0,P|380:268|336:292,1,77.0000023498536,8|2,0:0|0:0,0:0:0:0:
220,264,23802,1,0,0:0:0:0:
220,264,23917,2,0,L|248:168,1,77.0000023498536,0|10,0:0|0:0,0:0:0:0:
384,88,24375,2,0,L|356:176,1,77.0000023498536,0|10,0:0|0:0,0:0:0:0:
268,92,24833,5,0,0:0:0:0:
216,68,24947,1,0,0:0:0:0:
160,56,25062,1,0,0:0:0:0:
104,64,25176,1,0,0:0:0:0:
52,88,25291,2,0,P|92:120|112:176,1,77.0000023498536,10|8,0:0|0:0,0:0:0:0:
188,220,25749,2,0,P|218:176|262:158,1,77.0000023498536,2|8,0:0|0:0,0:0:0:0:
291,143,26092,1,0,0:0:0:0:
348,134,26207,1,2,0:0:0:0:
456,172,26436,5,8,0:0:0:0:
300,204,26665,1,2,0:0:0:0:
172,112,26894,1,12,0:0:0:0:
456,172,27123,6,0,L|448:260,1,77.0000023498536,8|2,0:0|0:0,0:0:0:0:
300,204,27467,1,0,0:0:0:0:
300,204,27580,2,0,L|212:248,1,77.0000023498536,0|10,0:0|0:0,0:0:0:0:
228,124,28039,2,0,P|252:92|252:48,1,77.0000023498536,0|10,0:0|0:0,0:0:0:0:
112,68,28497,5,0,0:0:0:0:
80,116,28611,1,0,0:0:0:0:
80,172,28726,1,0,0:0:0:0:
112,220,28840,1,0,0:0:0:0:
164,248,28955,2,0,P|228:244|260:220,1,77.0000023498536,2|8,0:0|0:0,0:0:0:0:
312,112,29299,1,0,0:0:0:0:
312,112,29413,2,0,L|344:192,1,77.0000023498536,2|8,0:0|0:0,0:0:0:0:
184,108,29871,6,0,L|144:32,1,77.0000023498536,2|8,0:0|0:0,0:0:0:0:
100,204,30329,2,8,L|144:285,1,77.0000023498536,2|12,0:0|0:0,0:0:0:0:
248,244,30787,6,0,L|336:276,2,77.0000023498536,10|0|10,0:0|0:0|0:0,0:0:0:0:
140,204,31474,1,8,0:0:0:0:
88,184,31589,1,0,0:0:0:0:
36,160,31703,1,2,0:0:0:0:
240,156,31932,1,10,0:0:0:0:
412,72,32161,5,0,0:0:0:0:
424,128,32276,1,0,0:0:0:0:
416,184,32390,1,0,0:0:0:0:
376,228,32505,1,0,0:0:0:0:
324,252,32619,6,8,P|284:256|243:236,1,77.0000023498536,8|2,0:0|0:0,0:0:0:0:
312,56,33077,1,0,0:0:0:0:
68,116,33306,5,2,0:0:0:0:
352,172,33535,1,0,0:0:0:0:
192,84,33763,1,2,0:0:0:0:
388,284,33993,1,6,0:0:0:0:
204,240,34451,6,0,P|185:204|186:161,2,70,4|0|0,0:0|0:0|0:0,0:0:0:0:
284,308,35138,5,8,0:0:0:0:
384,276,35367,2,0,P|344:300|320:304,1,70,0|0,0:0|0:0,0:0:0:0:
192,280,35711,1,0,0:0:0:0:
192,280,35826,2,0,L|148:220,1,70,0|8,0:0|0:0,0:0:0:0:
416,214,36283,2,0,L|377:288,1,70,4|0,0:0|0:0,0:0:0:0:
328,364,36741,1,0,0:0:0:0:
276,272,36970,5,8,0:0:0:0:
240,232,37085,2,0,P|210:205|169:196,1,70,0|0,0:0|0:0,0:0:0:0:
132,188,37428,1,8,0:0:0:0:
28,188,37657,2,0,L|92:264,1,70,0|8,0:0|0:0,0:0:0:0:
180,240,38115,6,0,P|216:220|236:180,2,70,4|0|0,0:0|0:0|0:0,0:0:0:0:
73,241,38802,1,8,0:0:0:0:
128,152,39031,2,0,P|164:132|206:131,1,70,0|8,0:0|0:0,0:0:0:0:
352,232,39489,2,0,P|323:252|288:256,1,70,0|8,0:0|0:0,0:0:0:0:
180,240,39947,5,0,0:0:0:0:
160,104,40176,1,0,0:0:0:0:
304,160,40405,5,0,0:0:0:0:
40,188,40634,1,0,0:0:0:0:
180,240,40863,5,0,0:0:0:0:
304,160,41092,1,0,0:0:0:0:
140,40,41321,2,0,L|180:104,1,70
180,240,41779,6,0,P|137:245|101:235,2,70,4|0|0,0:0|0:0|0:0,0:0:0:0:
280,208,42467,1,8,0:0:0:0:
384,188,42696,2,0,P|432:192|472:220,1,70,0|0,0:0|0:0,0:0:0:0:
400,292,43154,1,0,0:0:0:0:
308,244,43383,1,8,0:0:0:0:
268,208,43497,1,0,0:0:0:0:
256,156,43612,2,0,P|264:112|300:77,1,70,0|0,0:0|0:0,0:0:0:0:
208,308,44070,5,0,0:0:0:0:
256,156,44299,2,0,L|284:200,1,35,8|0,0:0|0:0,0:0:0:0:
320,256,44528,1,0,0:0:0:0:
216,196,44757,2,0,L|164:192,1,35,8|0,0:0|0:0,0:0:0:0:
68,204,44986,1,0,0:0:0:0:
136,124,45215,5,0,0:0:0:0:
236,92,45444,2,0,P|280:96|323:124,1,70,4|0,0:0|0:0,0:0:0:0:
380,176,45902,1,8,0:0:0:0:
280,204,46131,6,0,L|304:116,1,70,0|0,0:0|0:0,0:0:0:0:
312,48,46589,1,0,0:0:0:0:
380,176,46818,1,8,0:0:0:0:
296,136,47047,6,0,L|344:112,1,35,0|0,0:0|0:0,0:0:0:0:
376,104,47276,2,0,L|380:236,1,105,0|0,0:0|0:0,0:0:0:0:
376,260,47734,2,0,L|312:168,1,105,0|0,0:0|0:0,0:0:0:0:
296,148,48192,1,0,0:0:0:0:
260,148,48421,5,0,0:0:0:0:
224,148,48650,1,0,0:0:0:0:
188,148,48879,1,0,0:0:0:0:
56,156,49108,6,0,P|80:212|120:228,1,105,6|0,0:0|0:0,0:0:0:0:
172,224,49566,1,8,0:0:0:0:
152,120,49795,1,0,0:0:0:0:
60,72,50024,5,2,0:0:0:0:
156,28,50253,1,0,0:0:0:0:
208,20,50367,1,0,0:0:0:0:
260,28,50482,2,0,P|295:54|314:90,1,70,8|0,0:0|0:0,0:0:0:0:
236,148,50940,6,0,P|212:184|220:232,1,70,2|0,0:0|0:0,0:0:0:0:
380,168,51283,1,0,0:0:0:0:
380,168,51398,2,0,P|357:140|316:120,1,70,8|0,0:0|0:0,0:0:0:0:
224,104,51856,5,2,0:0:0:0:
160,188,52085,1,0,0:0:0:0:
156,240,52199,1,0,0:0:0:0:
184,284,52314,1,8,0:0:0:0:
260,180,52543,1,0,0:0:0:0:
188,64,52772,1,0,0:0:0:0:
204,164,53001,6,0,L|195:87,1,70,2|0,0:0|0:0,0:0:0:0:
280,20,53459,1,2,0:0:0:0:
204,164,53688,1,0,0:0:0:0:
48,224,53917,1,0,0:0:0:0:
48,224,54031,1,0,0:0:0:0:
157,272,54375,6,0,P|232:268|281:212,1,140,0|2,0:0|0:0,0:0:0:0:
180,160,55062,2,0,P|216:88|212:80,1,70,0|0,0:0|0:0,0:0:0:0:
212,56,55405,1,0,0:0:0:0:
180,12,55520,1,2,0:0:0:0:
148,112,55749,5,0,0:0:0:0:
248,216,55978,1,0,0:0:0:0:
412,236,56207,1,2,0:0:0:0:
340,104,56436,6,0,L|376:176,1,70,6|0,0:0|0:0,0:0:0:0:
460,184,56780,1,0,0:0:0:0:
460,184,56894,2,0,L|416:240,1,70,8|0,0:0|0:0,0:0:0:0:
344,312,57352,5,2,0:0:0:0:
304,216,57581,2,0,L|268:124,1,70,0|8,0:0|0:0,0:0:0:0:
144,92,58039,6,0,P|128:132|136:180,1,70,2|0,0:0|0:0,0:0:0:0:
228,188,58497,2,0,P|265:210|288:247,1,70,2|8,0:0|0:0,0:0:0:0:
312,332,58955,1,0,0:0:0:0:
392,264,59184,2,0,P|408:224|400:185,1,70,2|0,0:0|0:0,0:0:0:0:
300,184,59642,2,0,P|296:142|312:106,1,70,8|0,0:0|0:0,0:0:0:0:
340,76,59986,1,0,0:0:0:0:
392,60,60100,1,0,0:0:0:0:
264,224,60329,6,0,P|226:228|182:207,1,70
92,148,60787,1,10,0:0:0:0:
396,156,61016,5,0,0:0:0:0:
204,40,61245,1,2,0:0:0:0:
200,92,61360,1,2,0:0:0:0:
224,140,61474,1,2,0:0:0:0:
272,164,61589,1,2,0:0:0:0:
328,164,61703,2,0,P|328:212|308:252,1,77.0000023498536,0|2,0:0|0:0,0:0:0:0:
200,340,62161,2,0,L|284:332,1,70,0|2,0:0|0:0,0:0:0:0:
376,324,62619,1,0,0:0:0:0:
408,136,62848,2,0,P|452:196|436:256,1,140,0|4,0:0|0:0,0:0:0:0:
328,212,63534,5,0,0:0:0:0:
300,260,63650,1,0,0:0:0:0:
252,292,63763,2,0,P|212:304|164:288,1,77.0000023498536,8|2,0:0|0:0,0:0:0:0:
178,296,64108,1,2,0:0:0:0:
178,296,64222,1,8,0:0:0:0:
92,220,64451,1,2,0:0:0:0:
264,212,64680,1,8,0:0:0:0:
180,84,64908,1,0,0:0:0:0:
180,84,65023,1,0,0:0:0:0:
180,84,65138,1,0,0:0:0:0:
184,300,65367,5,2,0:0:0:0:
212,248,65481,1,0,0:0:0:0:
260,216,65596,1,8,0:0:0:0:
384,179,65825,1,0,0:0:0:0:
384,179,65939,1,0,0:0:0:0:
384,179,66054,1,0,0:0:0:0:
292,108,66283,1,0,0:0:0:0:
240,80,66398,1,2,0:0:0:0:
184,68,66512,2,0,P|148:68|108:80,1,77.0000023498536,8|0,0:0|0:0,0:0:0:0:
244,280,66970,1,8,0:0:0:0:
104,168,67199,6,0,L|144:128,1,38.5000011749268,2|2,0:0|0:0,0:0:0:0:
172,100,67428,2,0,L|232:164,1,77.0000023498536,8|2,0:0|0:0,0:0:0:0:
296,216,67772,1,0,0:0:0:0:
296,216,67886,2,0,P|327:174|355:167,1,77.0000023498536,8|2,0:0|0:0,0:0:0:0:
384,268,68230,5,0,0:0:0:0:
384,268,68344,2,0,P|352:309|324:316,1,77.0000023498536,8|2,0:0|0:0,0:0:0:0:
292,212,68802,2,0,L|224:164,1,77.0000023498536,8|2,0:0|0:0,0:0:0:0:
120,132,69260,6,0,P|144:180|128:248,1,115.50000352478,0|2,0:0|0:0,0:0:0:0:
92,280,69718,1,8,0:0:0:0:
276,232,69947,1,2,0:0:0:0:
160,120,70176,1,8,0:0:0:0:
330,79,70405,6,0,L|384:68,1,38.5000011749268,2|0,0:0|0:0,0:0:0:0:
160,120,70634,1,8,0:0:0:0:
252,76,70863,5,2,0:0:0:0:
306,100,70978,1,0,0:0:0:0:
361,103,71092,2,0,P|405:97|452:60,1,77.0000023498536,8|2,0:0|0:0,0:0:0:0:
432,82,71436,1,0,0:0:0:0:
432,82,71550,1,8,0:0:0:0:
368,184,71779,1,2,0:0:0:0:
260,224,72008,1,8,0:0:0:0:
137,109,72238,1,2,0:0:0:0:
180,72,72352,1,0,0:0:0:0:
236,60,72467,1,8,0:0:0:0:
348,84,72696,5,2,0:0:0:0:
272,176,72925,1,0,0:0:0:0:
168,128,73154,1,2,0:0:0:0:
120,98,73267,1,0,0:0:0:0:
73,68,73383,1,8,0:0:0:0:
304,80,73612,1,2,0:0:0:0:
92,176,73841,5,0,0:0:0:0:
136,136,73954,1,0,0:0:0:0:
192,120,74070,1,0,0:0:0:0:
252,120,74183,1,0,0:0:0:0:
304,140,74299,1,8,0:0:0:0:
384,224,74528,5,2,0:0:0:0:
304,140,74757,2,0,P|264:120|208:124,1,77.0000023498536,0|2,0:0|0:0,0:0:0:0:
120,152,75215,1,8,0:0:0:0:
208,228,75444,5,2,0:0:0:0:
232,118,75673,2,0,L|252:36,1,77.0000023498536,0|2,0:0|0:0,0:0:0:0:
116,104,76131,1,8,0:0:0:0:
256,184,76360,1,2,0:0:0:0:
148,200,76589,5,0,0:0:0:0:
308,92,76818,1,10,0:0:0:0:
124,296,77047,5,0,0:0:0:0:
280,0,77276,1,10,0:0:0:0:
328,152,77505,2,0,L|348:232,1,70,0|12,0:0|0:0,0:0:0:0:
320,104,78420,5,8,0:0:0:0:
224,172,78650,1,2,0:0:0:0:
268,208,78764,1,0,0:0:0:0:
288,264,78879,1,8,0:0:0:0:
176,240,79108,1,2,0:0:0:0:
120,224,79222,1,0,0:0:0:0:
64,228,79337,2,0,P|68:180|104:144,1,77.0000023498536,8|2,0:0|0:0,0:0:0:0:
180,92,79795,5,0,0:0:0:0:
216,136,79909,1,0,0:0:0:0:
264,168,80024,1,0,0:0:0:0:
320,176,80138,1,0,0:0:0:0:
376,156,80253,2,0,P|348:116|296:100,1,77.0000023498536,8|2,0:0|0:0,0:0:0:0:
203,210,80596,1,0,0:0:0:0:
203,210,80711,2,0,P|261:172|270:141,1,77.0000023498536,8|2,0:0|0:0,0:0:0:0:
284,112,81054,1,0,0:0:0:0:
268,56,81169,1,2,0:0:0:0:
156,76,81398,5,8,0:0:0:0:
203,210,81627,1,2,0:0:0:0:
348,264,81856,1,8,0:0:0:0:
272,176,82085,6,0,P|236:148|188:144,1,77.0000023498536,8|2,0:0|0:0,0:0:0:0:
92,148,82429,1,0,0:0:0:0:
92,148,82542,2,0,L|112:240,1,77.0000023498536,8|2,0:0|0:0,0:0:0:0:
108,223,82886,1,0,0:0:0:0:
108,223,83001,1,8,0:0:0:0:
252,248,83230,1,2,0:0:0:0:
368,168,83459,5,0,0:0:0:0:
372,224,83573,1,0,0:0:0:0:
344,276,83688,1,0,0:0:0:0:
292,296,83802,1,0,0:0:0:0:
236,288,83917,2,0,L|264:204,1,77.0000023498536,2|8,0:0|0:0,0:0:0:0:
168,140,84375,1,2,0:0:0:0:
286,101,84604,1,8,0:0:0:0:
251,169,84833,6,0,L|299:73,1,77.0000023498536,2|8,0:0|0:0,0:0:0:0:
428,68,85291,2,0,L|388:148,1,77.0000023498536,2|8,0:0|0:0,0:0:0:0:
228,244,85749,6,0,P|200:196|200:152,1,77.0000023498536,8|0,0:0|0:0,0:0:0:0:
208,120,86092,1,2,0:0:0:0:
244,76,86207,1,8,0:0:0:0:
336,136,86436,1,0,0:0:0:0:
392,144,86551,1,2,0:0:0:0:
444,120,86665,1,8,0:0:0:0:
208,120,86894,1,2,0:0:0:0:
308,64,87123,5,0,0:0:0:0:
364,60,87237,1,0,0:0:0:0:
420,76,87352,1,0,0:0:0:0:
456,120,87466,1,0,0:0:0:0:
464,176,87581,2,0,P|444:220|398:243,1,77.0000023498536,8|2,0:0|0:0,0:0:0:0:
300,256,87925,1,0,0:0:0:0:
300,256,88039,2,0,L|228:208,1,77.0000023498536,8|2,0:0|0:0,0:0:0:0:
140,152,88497,5,2,0:0:0:0:
304,112,88726,1,8,0:0:0:0:
92,204,88955,5,2,0:0:0:0:
288,44,89184,1,8,0:0:0:0:
332,272,89413,6,0,P|308:308|272:324,1,77.0000023498536,0|2,0:0|0:0,0:0:0:0:
220,328,89757,1,0,0:0:0:0:
164,312,89871,1,8,0:0:0:0:
120,204,90100,1,2,0:0:0:0:
176,204,90215,1,0,0:0:0:0:
228,180,90329,1,8,0:0:0:0:
300,88,90558,1,2,0:0:0:0:
416,80,90787,5,0,0:0:0:0:
448,128,90901,1,0,0:0:0:0:
444,184,91016,1,0,0:0:0:0:
400,220,91130,1,0,0:0:0:0:
344,232,91245,2,0,L|332:152,1,70,0|2,0:0|0:0,0:0:0:0:
312,48,91932,1,0,0:0:0:0:
212,108,92161,6,0,P|164:116|112:96,1,77.0000023498536,8|2,0:0|0:0,0:0:0:0:
28,72,92619,1,8,0:0:0:0:
333,162,93077,5,0,0:0:0:0:
336,96,99489,6,0,P|344:192|256:144,1,231.000007049561,0|2,0:0|0:0,0:0:0:0:
232,52,100405,6,0,L|160:108,1,70,4|0,0:0|0:0,0:0:0:0:
92,160,100863,1,0,0:0:0:0:
256,168,101092,1,2,0:0:0:0:
352,68,101321,1,8,0:0:0:0:
276,133,101550,1,0,0:0:0:0:
276,133,101665,2,0,L|184:201,1,105,8|2,0:0|0:0,0:0:0:0:
128,72,102238,6,0,L|56:76,2,70,4|0|8,0:0|0:0|0:0,0:0:0:0:
284,80,102925,1,2,0:0:0:0:
332,104,103039,1,0,0:0:0:0:
380,128,103153,2,0,L|456:164,2,70,8|0|8,0:0|0:0|0:0,0:0:0:0:
284,80,103841,5,2,0:0:0:0:
236,64,103955,1,8,0:0:0:0:
188,44,104070,2,0,L|204:124,1,70
56,288,104757,1,2,0:0:0:0:
201,112,104986,2,0,L|291:186,1,105.000004005432
68,200,105673,5,8,0:0:0:0:
108,232,105787,1,0,0:0:0:0:
152,264,105902,1,0,0:0:0:0:
240,324,106131,1,2,0:0:0:0:
260,168,106360,1,0,0:0:0:0:
108,232,106589,1,2,0:0:0:0:
396,264,106818,1,0,0:0:0:0:
412,108,107047,5,0,0:0:0:0:
300,252,107276,1,0,0:0:0:0:
220,84,107505,1,0,0:0:0:0:
128,208,107734,6,0,P|204:200|248:224,1,105,6|0,0:0|0:0,0:0:0:0:
276,236,108192,1,8,0:0:0:0:
336,136,108421,1,2,0:0:0:0:
128,208,108650,5,2,0:0:0:0:
132,212,108763,1,8,0:0:0:0:
336,136,108993,1,2,0:0:0:0:
336,136,109108,1,8,0:0:0:0:
168,268,109337,5,2,0:0:0:0:
296,76,109566,1,2,0:0:0:0:
52,240,109795,5,8,0:0:0:0:
416,112,110024,1,2,0:0:0:0:
200,68,110253,1,8,0:0:0:0:
224,176,110482,5,2,0:0:0:0:
216,228,110596,1,8,0:0:0:0:
180,264,110710,1,0,0:0:0:0:
132,284,110825,1,2,0:0:0:0:
80,280,110939,1,8,0:0:0:0:
100,132,111169,1,2,0:0:0:0:
240,76,111398,1,0,0:0:0:0:
364,172,111627,6,0,P|364:212|348:248,1,70,2|0,0:0|0:0,0:0:0:0:
276,312,112085,1,0,0:0:0:0:
224,220,112314,1,2,0:0:0:0:
128,180,112543,1,0,0:0:0:0:
128,180,112657,1,0,0:0:0:0:
276,312,113001,6,0,P|338:292|360:216,1,140,2|0,0:0|0:0,0:0:0:0:
388,124,113688,2,0,P|415:151|435:194,1,70,2|0,0:0|0:0,0:0:0:0:
460,280,114146,1,0,0:0:0:0:
388,124,114375,5,0,0:0:0:0:
240,80,114604,1,2,0:0:0:0:
100,132,114833,1,0,0:0:0:0:
264,180,115062,5,6,0:0:0:0:
100,132,115291,1,0,0:0:0:0:
260,84,115520,1,8,0:0:0:0:
408,128,115749,5,2,0:0:0:0:
408,128,115863,1,8,0:0:0:0:
296,200,116092,1,2,0:0:0:0:
296,200,116207,1,8,0:0:0:0:
164,160,116436,1,0,0:0:0:0:
152,288,116665,6,0,P|188:268|208:232,1,70,10|0,0:0|0:0,0:0:0:0:
296,200,117123,2,0,P|292:160|260:120,1,70,2|0,0:0|0:0,0:0:0:0:
196,76,117581,1,2,0:0:0:0:
188,176,117810,5,0,0:0:0:0:
284,40,118039,1,0,0:0:0:0:
360,188,118268,1,8,0:0:0:0:
272,128,118497,1,2,0:0:0:0:
224,104,118612,1,0,0:0:0:0:
180,80,118726,1,0,0:0:0:0:
152,264,118955,6,0,L|224:196,1,70,2|0,0:0|0:0,0:0:0:0:
152,124,119413,1,0,0:0:0:0:
268,184,119642,1,2,0:0:0:0:
392,140,119871,1,2,0:0:0:0:
412,188,119986,1,2,0:0:0:0:
428,236,120100,2,2,L|444:292,1,35
456,348,120329,6,0,P|396:356|348:300,1,140,8|0,0:0|0:0,0:0:0:0:
312,200,121016,2,0,L|240:260,1,70,2|8,0:0|0:0,0:0:0:0:
172,308,121474,1,2,0:0:0:0:
244,152,121703,1,8,0:0:0:0:
348,300,121932,1,4,0:0:0:0:
244,248,122161,5,0,0:0:0:0:
192,224,122276,1,0,0:0:0:0:
135,195,122390,2,0,L|51:151,1,83.9999974365235,8|2,0:0|0:0,0:0:0:0:
61,157,122734,1,0,0:0:0:0:
68,160,122848,1,8,0:0:0:0:
284,116,123077,1,2,0:0:0:0:
468,196,123306,5,8,0:0:0:0:
292,124,123535,1,2,0:0:0:0:
292,124,123649,1,0,0:0:0:0:
292,124,123764,1,8,0:0:0:0:
344,292,123993,5,2,0:0:0:0:
344,292,124108,1,0,0:0:0:0:
344,292,124222,1,8,0:0:0:0:
140,240,124451,5,2,0:0:0:0:
80,220,124566,1,0,0:0:0:0:
20,200,124680,1,8,0:0:0:0:
144,176,124909,1,2,0:0:0:0:
268,116,125138,2,0,P|320:95|373:101,1,83.9999974365235,0|8,0:0|0:0,0:0:0:0:
304,280,125596,1,0,0:0:0:0:
204,136,125825,6,0,L|172:84,1,41.9999987182618
160,40,126054,2,0,L|252:84,1,83.9999974365235,8|8,0:0|0:0,0:0:0:0:
356,188,126512,2,0,L|268:144,1,83.9999974365235,2|8,0:0|0:0,0:0:0:0:
156,168,126856,1,0,0:0:0:0:
156,168,126970,2,0,L|236:208,1,83.9999974365235,2|8,0:0|0:0,0:0:0:0:
344,264,127428,2,0,P|328:304|276:328,1,83.9999974365235,2|8,0:0|0:0,0:0:0:0:
156,168,127886,5,2,0:0:0:0:
280,172,128115,1,0,0:0:0:0:
340,152,128230,1,2,0:0:0:0:
380,104,128344,1,0,0:0:0:0:
264,52,128573,1,8,0:0:0:0:
216,176,128802,5,0,0:0:0:0:
220,240,128917,1,0,0:0:0:0:
256,292,129031,1,0,0:0:0:0:
312,316,129146,1,0,0:0:0:0:
376,308,129260,1,0,0:0:0:0:
332,200,129489,6,0,L|312:152,1,41.9999987182618,2|0,0:0|0:0,0:0:0:0:
296,100,129718,2,0,L|400:104,1,83.9999974365235,8|0,0:0|0:0,0:0:0:0:
379,103,130062,1,0,0:0:0:0:
379,103,130176,1,8,0:0:0:0:
232,96,130405,1,2,0:0:0:0:
112,260,130634,5,0,0:0:0:0:
296,216,130864,1,2,0:0:0:0:
360,60,131093,1,8,0:0:0:0:
192,96,131321,5,0,0:0:0:0:
312,136,131550,2,8,L|408:168,1,83.9999974365235,8|2,0:0|0:0,0:0:0:0:
391,162,131894,1,0,0:0:0:0:
391,162,132009,1,8,0:0:0:0:
160,152,132238,1,2,0:0:0:0:
420,260,132467,5,0,0:0:0:0:
304,72,132696,1,2,0:0:0:0:
188,276,132925,1,8,0:0:0:0:
248,172,133154,5,0,0:0:0:0:
114,242,133383,2,0,P|150:269|198:274,1,83.9999974365235,2|0,0:0|0:0,0:0:0:0:
312,252,133841,1,8,0:0:0:0:
228,160,134070,5,0,0:0:0:0:
252,284,134299,2,0,P|276:327|320:340,1,83.9999974365235,2|0,0:0|0:0,0:0:0:0:
368,344,134642,1,0,0:0:0:0:
424,312,134757,1,8,0:0:0:0:
344,236,134986,1,0,0:0:0:0:
368,344,135215,5,2,0:0:0:0:
312,92,135444,1,8,0:0:0:0:
448,268,135673,5,2,0:0:0:0:
201,190,135902,1,8,0:0:0:0:
388,164,136131,6,0,L|468:152,1,70,2|12,0:0|0:0,0:0:0:0:
208,308,138879,6,0,P|160:248|172:176,1,154.000004699707,0|0,0:0|0:0,0:0:0:0:
244,88,139566,1,8,0:0:0:0:
316,176,139795,6,0,L|340:188,7,19.2500005874634,0|0|0|0|0|0|0|0,0:0|0:0|0:0|0:0|0:0|0:0|0:0|0:0,0:0:0:0:
264,208,140253,2,0,L|272:236,7,19.2500005874634,0|0|0|0|0|0|0|0,0:0|0:0|0:0|0:0|0:0|0:0|0:0|0:0,0:0:0:0:
208,208,140711,2,0,P|144:164|136:88,1,154.000004699707,0|0,0:0|0:0,0:0:0:0:
32,216,141398,6,0,L|76:256,1,38.5000011749268
152,312,141627,1,8,2:0:0:0:
256,240,141856,6,0,L|204:208,1,38.5000011749268
124,156,142085,1,8,0:0:0:0:
236,124,142314,6,0,L|272:112,1,38.5000011749268,0|0,0:0|0:0,0:0:0:0:
236,124,142543,6,0,P|184:164|120:108,1,154.000004699707,0|8,0:0|0:0,0:0:0:0:
228,68,143230,2,0,L|268:52,1,38.5000011749268,0|0,0:0|0:0,0:0:0:0:
121,117,143459,5,0,0:0:0:0:
296,152,143688,1,0,0:0:0:0:
120,220,143917,2,0,L|92:232,8,19.2500005874634,0|0|0|0|0|0|0|0|0,0:0|0:0|0:0|0:0|0:0|0:0|0:0|0:0|0:0,0:0:0:0:
364,108,144604,5,8,0:0:0:0:
244,48,144833,1,0,0:0:0:0:
248,172,145062,1,8,0:0:0:0:
364,108,145291,1,0,0:0:0:0:
144,232,145520,1,8,0:0:0:0:
272,236,145749,5,0,0:0:0:0:
328,216,145863,1,0,0:0:0:0:
364,168,145978,1,0,0:0:0:0:
368,112,146092,1,0,0:0:0:0:
344,60,146207,6,0,P|392:48|432:60,2,77.0000023498536,0|0|0,0:0|0:0|0:0,0:0:0:0:
248,124,146894,2,0,L|212:152,1,38.5000011749268,8|0,0:0|0:0,0:0:0:0:
164,168,147123,6,0,L|152:152,7,19.2500005874634,0|0|0|0|0|0|0|0,0:0|0:0|0:0|0:0|0:0|0:0|0:0|0:0,0:0:0:0:
132,216,147581,2,0,L|100:216,7,19.2500005874634,0|0|0|0|0|0|0|0,0:0|0:0|0:0|0:0|0:0|0:0|0:0|0:0,0:0:0:0:
136,268,148039,2,0,P|180:324|256:308,1,154.000004699707,0|0,0:0|0:0,0:0:0:0:
352,252,148726,6,0,L|401:218,1,38.5000011749268,0|0,0:0|0:0,0:0:0:0:
468,176,148955,1,8,2:0:0:0:
248,188,149184,6,0,L|198:221,1,38.5000011749268,0|0,0:0|0:0,0:0:0:0:
124,268,149413,1,8,0:0:0:0:
152,156,149642,6,0,L|138:206,1,38.5000011749268,0|0,0:0|0:0,0:0:0:0:
152,156,149871,6,0,P|132:95|209:87,1,154.000004699707,0|8,0:0|0:0,0:0:0:0:
272,176,150558,2,0,L|216:216,1,38.5000011749268,0|0,0:0|0:0,0:0:0:0:
184,204,150787,6,0,L|172:232,7,19.2500005874634,0|0|0|0|0|0|0|0,0:0|0:0|0:0|0:0|0:0|0:0|0:0|0:0,0:0:0:0:
132,172,151245,2,0,L|108:192,7,19.2500005874634,0|0|0|0|0|0|0|0,0:0|0:0|0:0|0:0|0:0|0:0|0:0|0:0,0:0:0:0:
116,112,151703,1,0,0:0:0:0:
448,56,152161,5,8,0:0:0:0:
320,128,152390,1,0,0:0:0:0:
180,84,152619,6,0,L|168:48,2,25.6666674499512,0|0|0,0:0|0:0|0:0,0:0:0:0:
136,128,152848,6,0,L|92:104,2,25.6666674499512,0|0|0,0:0|0:0|0:0,0:0:0:0:
108,184,153077,6,0,L|68:184,2,25.6666674499512,0|0|0,0:0|0:0|0:0,0:0:0:0:
100,248,153306,6,0,L|64:264,2,25.6666674499512,0|0|0,0:0|0:0|0:0,0:0:0:0:
128,296,153535,5,4,0:0:0:0:
96,188,166360,5,0,0:0:0:0:
316,96,166589,1,0,0:0:0:0:
316,96,166703,1,0,0:0:0:0:
316,96,166818,1,8,0:0:0:0:
96,188,167047,5,0,0:0:0:0:
316,96,167276,1,8,0:0:0:0:
288,292,167505,5,0,0:0:0:0:
236,188,167734,1,0,0:0:0:0:
212,136,167848,1,0,0:0:0:0:
188,84,167963,1,8,0:0:0:0:
69,149,168192,6,0,P|141:145|189:69,1,154.000004699707,0|8,0:0|0:0,0:0:0:0:
292,128,168879,2,0,P|340:64|424:68,1,154.000004699707,0|0,0:0|0:0,0:0:0:0:
408,180,169566,1,8,0:0:0:0:
280,24,169795,5,0,0:0:0:0:
220,216,170024,1,0,0:0:0:0:
328,200,170253,5,0,0:0:0:0:
172,328,170482,1,0,0:0:0:0:
304,112,170711,5,8,0:0:0:0:
172,328,170940,1,0,0:0:0:0:
416,184,171398,6,0,L|344:240,1,70,0|0,0:0|0:0,0:0:0:0:
256,272,171741,1,0,0:0:0:0:
256,272,171856,2,0,L|272:184,1,70,0|0,0:0|0:0,0:0:0:0:
292,100,172314,6,0,L|340:184,1,70,0|0,0:0|0:0,0:0:0:0:
200,164,172772,2,0,L|180:232,1,70,0|0,0:0|0:0,0:0:0:0:
48,96,173230,6,0,L|132:112,1,70,0|0,0:0|0:0,0:0:0:0:
248,156,173573,1,0,0:0:0:0:
248,156,173688,2,0,L|344:136,1,70,0|0,0:0|0:0,0:0:0:0:
460,100,174031,1,0,0:0:0:0:
460,100,174146,2,0,L|424:184,1,70,0|0,0:0|0:0,0:0:0:0:
392,260,174604,1,0,0:0:0:0:
276,156,174833,5,0,0:0:0:0:
120,116,175062,1,8,0:0:0:0:
384,52,175291,1,0,0:0:0:0:
304,272,175520,6,0,L|280:168,1,77.0000023498536,0|0,0:0|0:0,0:0:0:0:
260,84,175978,1,8,0:0:0:0:
368,160,176207,1,0,0:0:0:0:
304,272,176436,5,0,0:0:0:0:
280,160,176665,1,0,0:0:0:0:
264,104,176779,1,0,0:0:0:0:
248,48,176894,1,8,0:0:0:0:
152,116,177123,1,0,0:0:0:0:
108,152,177238,1,0,0:0:0:0:
52,164,177352,1,0,0:0:0:0:
152,224,177581,1,0,0:0:0:0:
268,220,177810,1,8,0:0:0:0:
360,152,178039,5,0,0:0:0:0:
324,108,178154,1,0,0:0:0:0:
320,52,178268,1,0,0:0:0:0:
208,24,178497,1,0,0:0:0:0:
216,80,178612,1,0,0:0:0:0:
188,132,178726,1,8,0:0:0:0:
92,196,178955,1,0,0:0:0:0:
208,24,179184,6,0,L|214:62,1,38.5000011749268,0|0,0:0|0:0,0:0:0:0:
123,84,179413,2,0,L|156:105,1,38.5000011749268,0|0,0:0|0:0,0:0:0:0:
104,166,179642,2,0,L|142:161,1,38.5000011749268,0|0,0:0|0:0,0:0:0:0:
150,222,179871,5,0,0:0:0:0:
176,272,179986,1,0,0:0:0:0:
230,298,180100,1,0,0:0:0:0:
286,299,180215,2,0,L|324:276,1,38.5000011749268,0|0,0:0|0:0,0:0:0:0:
388,296,180444,1,0,0:0:0:0:
430,257,180558,1,0,0:0:0:0:
450,205,180672,1,0,0:0:0:0:
437,151,180787,1,0,0:0:0:0:
402,103,180901,1,0,0:0:0:0:
356,71,181016,6,0,L|371:48,7,19.2500005874634,0|0|0|0|0|0|0|0,0:0|0:0|0:0|0:0|0:0|0:0|0:0|0:0,0:0:0:0:
301,55,181474,6,0,L|300:29,7,19.2500005874634,0|0|0|0|0|0|0|0,0:0|0:0|0:0|0:0|0:0|0:0|0:0|0:0,0:0:0:0:
250,67,181932,5,0,0:0:0:0:
324,292,182390,5,4,0:0:0:0:
232,220,182619,5,0,0:0:0:0:
200,172,182734,1,0,0:0:0:0:
167,119,182847,2,0,L|280:128,1,83.9999974365235,8|2,0:0|0:0,0:0:0:0:
250,125,183191,1,0,0:0:0:0:
250,125,183305,1,0,0:0:0:0:
424,148,183535,1,2,0:0:0:0:
360,64,183764,5,2,0:0:0:0:
360,64,183879,1,0,0:0:0:0:
324,228,184107,1,2,0:0:0:0:
324,228,184222,1,8,0:0:0:0:
220,160,184451,5,0,0:0:0:0:
168,124,184566,1,0,0:0:0:0:
116,92,184680,2,0,L|136:192,1,83.9999974365235,8|2,0:0|0:0,0:0:0:0:
224,224,185024,1,0,0:0:0:0:
224,224,185138,2,0,L|148:300,1,83.9999974365235,8|2,0:0|0:0,0:0:0:0:
376,40,185596,5,8,0:0:0:0:
388,260,185825,1,2,0:0:0:0:
228,40,186054,1,8,0:0:0:0:
192,208,186283,5,2,0:0:0:0:
156,260,186398,1,0,0:0:0:0:
96,284,186512,2,0,P|48:288|8:268,1,83.9999974365235,8|2,0:0|0:0,0:0:0:0:
84,172,186970,2,0,P|56:132|53:87,1,83.9999974365235,8|2,0:0|0:0,0:0:0:0:
148,104,187314,1,0,0:0:0:0:
148,104,187428,2,0,P|175:143|178:188,1,83.9999974365235,8|2,0:0|0:0,0:0:0:0:
160,304,187886,2,0,L|240:268,1,83.9999974365235,8|2,0:0|0:0,0:0:0:0:
400,184,188344,5,0,0:0:0:0:
240,92,188573,1,2,0:0:0:0:
268,148,188688,1,0,0:0:0:0:
300,204,188802,1,8,0:0:0:0:
164,192,189031,1,2,0:0:0:0:
236,88,189260,5,2,0:0:0:0:
78,106,189489,1,0,0:0:0:0:
120,149,189603,1,0,0:0:0:0:
164,192,189718,1,8,0:0:0:0:
144,316,189947,1,2,0:0:0:0:
204,292,190062,1,0,0:0:0:0:
260,268,190176,6,0,L|372:224,1,83.9999974365235,8|10,0:0|0:0,0:0:0:0:
338,237,190520,1,0,0:0:0:0:
338,237,190634,1,8,0:0:0:0:
232,168,190863,1,2,0:0:0:0:
204,292,191092,1,8,0:0:0:0:
108,212,191321,5,2,0:0:0:0:
61,170,191436,1,0,0:0:0:0:
15,124,191550,1,8,0:0:0:0:
136,160,191779,5,2,0:0:0:0:
248,116,192008,2,0,P|289:138|312:175,1,83.9999974365235,8|2,0:0|0:0,0:0:0:0:
224,220,192352,1,0,0:0:0:0:
224,220,192467,2,0,P|206:278|183:301,1,83.9999974365235,8|2,0:0|0:0,0:0:0:0:
76,348,192925,1,8,0:0:0:0:
136,160,193154,1,2,0:0:0:0:
280,296,193383,1,8,0:0:0:0:
72,248,193612,5,2,0:0:0:0:
188,196,193841,2,0,L|276:156,1,83.9999974365235,8|2,0:0|0:0,0:0:0:0:
232,284,194299,1,8,0:0:0:0:
144,108,194528,1,2,0:0:0:0:
343,131,194757,2,0,L|247:167,1,83.9999974365235,8|2,0:0|0:0,0:0:0:0:
160,204,195215,1,8,0:0:0:0:
180,80,195444,1,2,0:0:0:0:
264,160,195673,5,2,0:0:0:0:
372,244,195902,1,8,0:0:0:0:
232,124,196131,5,2,0:0:0:0:
420,240,196360,1,8,0:0:0:0:
204,259,196589,6,0,L|380:243,1,167.999994873047,2|8,0:0|0:0,0:0:0:0:
436,136,197276,5,0,0:0:0:0:
312,128,197505,2,0,L|364:220,1,83.9999974365235,2|0,0:0|0:0,0:0:0:0:
376,24,197963,1,8,0:0:0:0:
240,16,198192,5,0,0:0:0:0:
229,141,198421,2,0,L|325:125,1,83.9999974365235,2|0,0:0|0:0,0:0:0:0:
436,104,198879,1,8,0:0:0:0:
396,224,199108,5,0,0:0:0:0:
352,268,199222,1,0,0:0:0:0:
292,288,199337,2,0,P|243:288|184:250,1,83.9999974365235,2|8,0:0|0:0,0:0:0:0:
136,216,199680,1,0,0:0:0:0:
136,216,199795,2,0,P|184:188|240:180,1,83.9999974365235,2|8,0:0|0:0,0:0:0:0:
148,292,200253,6,0,B|84:300|52:276|20:176|44:160|108:148|128:124|92:100|48:136,1,251.999992309571,2|0,0:0|0:0,0:0:0:0:
64,100,201168,6,0,L|144:56,1,77.0000023498536,8|2,0:0|0:0,0:0:0:0:
160,176,201511,1,0,0:0:0:0:
160,176,201626,2,0,L|248:200,1,77.0000023498536,0|10,0:0|0:0,0:0:0:0:
264,304,202084,2,0,P|316:304|348:284,1,77.0000023498536,0|10,0:0|0:0,0:0:0:0:
428,224,202542,5,0,0:0:0:0:
376,200,202656,1,0,0:0:0:0:
340,156,202771,1,0,0:0:0:0:
332,100,202885,1,0,0:0:0:0:
348,44,203000,2,8,L|256:100,1,77.0000023498536
240,192,203344,1,0,0:0:0:0:
240,192,203458,2,0,L|144:208,1,77.0000023498536,2|8,0:0|0:0,0:0:0:0:
68,140,203916,5,2,0:0:0:0:
248,268,204145,1,8,0:0:0:0:
348,156,204374,1,2,0:0:0:0:
136,264,204603,1,12,0:0:0:0:
116,152,204832,6,0,P|132:116|176:92,1,77.0000023498536,8|2,0:0|0:0,0:0:0:0:
292,120,205175,1,0,0:0:0:0:
292,120,205290,2,0,L|264:216,1,77.0000023498536,0|10,0:0|0:0,0:0:0:0:
128,296,205748,2,0,L|156:208,1,77.0000023498536,0|10,0:0|0:0,0:0:0:0:
244,292,206206,5,0,0:0:0:0:
296,316,206320,1,0,0:0:0:0:
352,328,206435,1,0,0:0:0:0:
408,320,206549,1,0,0:0:0:0:
460,296,206664,2,0,P|420:264|400:216,1,77.0000023498536,8|8,0:0|0:0,0:0:0:0:
324,164,207122,2,0,P|294:208|250:226,1,77.0000023498536,2|8,0:0|0:0,0:0:0:0:
221,241,207465,1,0,0:0:0:0:
164,250,207580,1,2,0:0:0:0:
56,212,207809,5,8,0:0:0:0:
212,180,208038,1,2,0:0:0:0:
340,272,208267,1,12,0:0:0:0:
56,212,208496,6,0,L|64:124,1,77.0000023498536,8|2,0:0|0:0,0:0:0:0:
212,180,208840,1,0,0:0:0:0:
212,180,208955,2,0,L|293:139,1,77.0000023498536,0|10,0:0|0:0,0:0:0:0:
284,260,209412,2,0,P|260:292|260:336,1,77.0000023498536,0|10,0:0|0:0,0:0:0:0:
400,316,209870,5,0,0:0:0:0:
432,268,209984,1,0,0:0:0:0:
432,212,210099,1,0,0:0:0:0:
400,164,210213,1,0,0:0:0:0:
348,136,210328,2,0,P|284:140|252:164,1,77.0000023498536,8|8,0:0|0:0,0:0:0:0:
200,272,210672,1,0,0:0:0:0:
200,272,210786,2,0,L|168:192,1,77.0000023498536,2|8,0:0|0:0,0:0:0:0:
328,276,211244,6,0,L|368:352,1,77.0000023498536,2|8,0:0|0:0,0:0:0:0:
412,180,211702,2,8,L|368:99,1,77.0000023498536,2|12,0:0|0:0,0:0:0:0:
264,140,212160,6,0,L|176:108,2,77.0000023498536,10|0|10,0:0|0:0|0:0,0:0:0:0:
372,180,212847,1,8,0:0:0:0:
424,200,212962,1,0,0:0:0:0:
476,224,213076,1,2,0:0:0:0:
272,228,213305,1,10,0:0:0:0:
100,312,213534,5,0,0:0:0:0:
88,256,213649,1,0,0:0:0:0:
96,200,213763,1,0,0:0:0:0:
136,156,213878,1,0,0:0:0:0:
188,132,213992,6,8,P|232:128|280:148,1,77.0000023498536,8|2,0:0|0:0,0:0:0:0:
200,328,214450,1,0,0:0:0:0:
444,268,214679,5,2,0:0:0:0:
160,212,214908,1,0,0:0:0:0:
320,300,215138,1,2,0:0:0:0:
124,100,215366,1,6,0:0:0:0:
