osu file format v14

[General]
AudioFilename: audio.mp3
AudioLeadIn: 0
PreviewTime: 60687
Countdown: 3
SampleSet: Soft
StackLeniency: 0.7
Mode: 0
LetterboxInBreaks: 0
WidescreenStoryboard: 1

[Editor]
DistanceSpacing: 0.6
BeatDivisor: 4
GridSize: 16
TimelineZoom: 0.6999999

[Metadata]
Title:Gokuraku jodo
TitleUnicode:極楽浄土
Artist:GARNiDELiA
ArtistUnicode:GARNiDELiA
Creator:Langshao
Version:HPPPPPPPPP
Source:Gokuraku jodo
Tags:
BeatmapID:1133195
BeatmapSetID:500037

[Difficulty]
HPDrainRate:10
CircleSize:2
OverallDifficulty:1
ApproachRate:10
SliderMultiplier:2.00000000596047
SliderTickRate:4

[Events]
//Background and Video events
0,0,"BG1.png",0,0
//Break Periods
//Storyboard Layer 0 (Background)
//Storyboard Layer 1 (Fail)
//Storyboard Layer 2 (Pass)
//Storyboard Layer 3 (Foreground)
//Storyboard Sound Samples

[TimingPoints]
0,458.015267175573,4,2,0,100,1,0
16946,458.015267175573,4,2,0,100,1,0
60687,458.015267175573,4,2,0,100,1,1
60687,-50,4,2,0,100,0,1
75572,458.015267175573,4,2,0,100,1,0
75572,-66.6666666666667,4,2,0,100,0,0
90229,458.015267175573,4,2,0,100,1,0
90229,-50,4,2,0,100,0,0
176335,229.007633587786,4,2,0,100,1,0
179770,458.015267175573,4,2,0,100,1,1
179885,-50,4,2,0,100,0,1
197404,229.007633587786,4,2,0,100,1,0
201091,458.015267175573,4,2,0,100,1,0
201091,-50,4,2,0,100,0,0

[Colours]
Combo1 : 255,0,0
Combo2 : 255,170,213
Combo3 : 255,255,0
Combo4 : 181,255,255
Combo5 : 249,0,255

[HitObjects]
160,112,1832,5,0,0:0:0:0:
368,112,2061,1,0,0:0:0:0:
256,272,2290,1,0,0:0:0:0:
256,192,2977,1,0,0:0:0:0:
368,192,3206,1,0,0:0:0:0:
144,112,3893,2,0,L|288:112,5,100.000000298023
384,152,5496,5,0,0:0:0:0:
152,112,5725,1,0,0:0:0:0:
160,256,5954,1,0,0:0:0:0:
384,232,6641,1,0,0:0:0:0:
264,88,6870,1,0,0:0:0:0:
144,112,7557,2,0,L|288:112,5,100.000000298023
408,192,9160,5,0,0:0:0:0:
120,112,9389,1,0,0:0:0:0:
376,224,9618,1,0,0:0:0:0:
280,96,10305,1,0,0:0:0:0:
232,240,10534,1,0,0:0:0:0:
144,112,11221,2,0,L|288:112,9,100.000000298023
128,128,13740,1,0,0:0:0:0:
240,272,14198,1,0,0:0:0:0:
320,128,14656,1,0,0:0:0:0:
144,112,15114,2,0,L|288:112,2,100.000000298023
376,104,15801,1,0,0:0:0:0:
376,232,16030,1,0,0:0:0:0:
192,120,16488,1,0,0:0:0:0:
384,160,16946,5,0,0:0:0:0:
384,256,17404,1,0,0:0:0:0:
256,192,17862,1,0,0:0:0:0:
112,240,18320,1,0,0:0:0:0:
144,240,18434,1,0,0:0:0:0:
176,240,18549,1,0,0:0:0:0:
208,240,18663,1,0,0:0:0:0:
240,240,18778,1,0,0:0:0:0:
128,64,19236,5,0,0:0:0:0:
352,128,19694,1,0,0:0:0:0:
272,96,19923,1,0,0:0:0:0:
208,144,20152,1,0,0:0:0:0:
288,176,20381,1,0,0:0:0:0:
384,160,20610,5,0,0:0:0:0:
384,256,21068,1,0,0:0:0:0:
240,208,21526,1,0,0:0:0:0:
336,128,21984,1,0,0:0:0:0:
352,160,22098,1,0,0:0:0:0:
352,192,22213,1,0,0:0:0:0:
336,224,22327,1,0,0:0:0:0:
304,240,22442,1,0,0:0:0:0:
288,152,22900,1,0,0:0:0:0:
432,192,23358,1,0,0:0:0:0:
352,128,23587,1,0,0:0:0:0:
304,144,23816,1,0,0:0:0:0:
272,184,24045,1,0,0:0:0:0:
224,208,24274,5,0,0:0:0:0:
224,304,24732,1,0,0:0:0:0:
80,256,25190,1,0,0:0:0:0:
240,64,25648,1,0,0:0:0:0:
288,96,25762,1,0,0:0:0:0:
320,144,25877,1,0,0:0:0:0:
336,192,25991,1,0,0:0:0:0:
336,256,26106,1,0,0:0:0:0:
248,176,26564,1,0,0:0:0:0:
464,272,27022,1,0,0:0:0:0:
376,192,27251,1,0,0:0:0:0:
328,216,27480,1,0,0:0:0:0:
160,160,27709,1,0,0:0:0:0:
384,160,27938,5,0,0:0:0:0:
384,256,28396,1,0,0:0:0:0:
240,208,28854,1,0,0:0:0:0:
144,112,29312,2,0,L|288:112,2,100.000000298023
464,112,30228,5,0,0:0:0:0:
352,272,30457,1,0,0:0:0:0:
224,176,30686,1,0,0:0:0:0:
48,176,30915,1,0,0:0:0:0:
0,64,31144,1,0,0:0:0:0:
152,128,31602,1,0,0:0:0:0:
208,160,32060,1,0,0:0:0:0:
144,112,32289,2,0,L|288:112,9,100.000000298023
128,80,35953,6,0,B|400:304|400:304|128:304|128:304|128:80|128:80|256:80|256:80|128:80|128:80|416:80,1,1350.00000402332
400,288,39617,6,0,L|544:288,9,100.000000298023
80,128,42365,1,0,0:0:0:0:
160,160,42594,1,0,0:0:0:0:
240,192,42823,1,0,0:0:0:0:
80,208,43281,1,0,0:0:0:0:
160,240,43510,1,0,0:0:0:0:
240,272,43739,1,0,0:0:0:0:
400,176,44197,2,0,L|400:32,5,100.000000298023
144,112,45571,2,0,L|288:112,15,100.000000298023
144,112,49465,2,0,B|336:208,1,200.000000596047
80,224,50152,2,0,L|224:224,11,100.000000298023
336,64,52900,2,0,L|480:64,4,100.000000298023
144,112,54274,2,0,L|288:112,2,100.000000298023
144,80,54961,2,0,B|368:288|368:288|144:288|144:288|368:80|368:80|256:288|256:288|144:176|144:176|256:80|256:80|368:80,1,1450.00000432134
352,80,58854,2,0,B|320:112|320:112|288:96|288:96|256:128|256:128|224:112|224:112|192:144|192:144|160:128|160:128|128:160|128:160|48:128,1,375
96,32,60000,2,0,B|176:48|160:112|160:112|144:176|304:112,1,225
288,240,60687,6,0,P|320:320|512:272,4,300
189,171,62290,2,0,L|221:283,17,75
208,224,64351,2,0,L|320:208,4,75
272,80,65038,2,0,L|256:304,4,225
384,80,66412,2,0,L|304:64,13,75
304,272,68244,6,0,L|224:320,13,75
416,192,69847,2,0,L|288:304,7,150
112,272,71679,6,0,L|192:288,5,75
272,96,72595,2,0,L|368:128,4,100.000000298023
224,208,73740,2,0,L|336:208,8,100.000000298023
0,112,75572,5,0,0:0:0:0:
496,128,76030,1,0,0:0:0:0:
112,384,76488,1,0,0:0:0:0:
112,80,76946,2,0,L|208:112,4,75.0000030845407
432,96,79236,5,0,0:0:0:0:
96,320,79694,1,0,0:0:0:0:
192,96,80152,1,0,0:0:0:0:
224,240,80610,2,0,L|304:256,4,75.0000030845407
512,32,82900,5,0,0:0:0:0:
16,320,83358,1,0,0:0:0:0:
80,176,83816,1,0,0:0:0:0:
144,112,84274,2,0,L|240:112,4,75.0000030845407
384,160,86564,5,0,0:0:0:0:
256,352,87022,1,0,0:0:0:0:
80,288,87480,1,0,0:0:0:0:
144,112,87938,2,0,L|256:112,4,75.0000030845407
48,368,88854,5,0,0:0:0:0:
448,16,89083,1,0,0:0:0:0:
368,320,89312,1,0,0:0:0:0:
464,192,89541,1,0,0:0:0:0:
256,192,89770,1,0,0:0:0:0:
