osu file format v14

[General]
AudioFilename: audio.mp3
AudioLeadIn: 0
PreviewTime: 60687
Countdown: 3
SampleSet: None
StackLeniency: 0.7
Mode: 0
LetterboxInBreaks: 0
WidescreenStoryboard: 1

[Editor]
DistanceSpacing: 0.6
BeatDivisor: 4
GridSize: 16
TimelineZoom: 0.9

[Metadata]
Title:Gokuraku jodo
TitleUnicode:極楽浄土
Artist:GARNiDELiA
ArtistUnicode:GARNiDELiA
Creator:Langshao
Version:Decathlon
Source:Gokuraku jodo
Tags:
BeatmapID:1133191
BeatmapSetID:500037

[Difficulty]
HPDrainRate:10
CircleSize:7
OverallDifficulty:10
ApproachRate:10
SliderMultiplier:2.00000000596047
SliderTickRate:1

[Events]
//Background and Video events
0,0,"狼少.png",0,0
//Break Periods
2,133940,171463
//Storyboard Layer 0 (Background)
//Storyboard Layer 1 (Fail)
//Storyboard Layer 2 (Pass)
//Storyboard Layer 3 (Foreground)
//Storyboard Sound Samples

[TimingPoints]
0,458.015267175573,4,2,0,100,1,0
16946,458.015267175573,4,2,0,100,1,0
60687,458.015267175573,4,2,0,100,1,1
75572,458.015267175573,4,2,0,100,1,0
90229,458.015267175573,4,2,0,100,1,0
176335,229.007633587786,4,2,0,100,1,0
179770,458.015267175573,4,2,0,100,1,1
197404,229.007633587786,4,2,0,100,1,0
201091,458.015267175573,4,2,0,100,1,0
201091,-50,4,2,0,100,0,0

[Colours]
Combo1 : 255,0,0
Combo2 : 255,170,213
Combo3 : 255,255,0
Combo4 : 181,255,255
Combo5 : 249,0,255

[HitObjects]
176,192,1832,5,0,0:0:0:0:
256,192,2061,1,0,0:0:0:0:
336,192,2290,1,0,0:0:0:0:
144,96,2977,1,0,0:0:0:0:
352,272,3206,1,0,0:0:0:0:
155,162,3893,1,0,0:0:0:0:
512,176,4122,1,0,0:0:0:0:
439,195,4351,1,0,0:0:0:0:
364,201,4580,1,0,0:0:0:0:
289,208,4809,1,0,0:0:0:0:
214,198,5038,1,0,0:0:0:0:
68,203,5496,5,0,0:0:0:0:
167,170,5725,1,0,0:0:0:0:
240,272,5954,1,0,0:0:0:0:
384,232,6641,1,0,0:0:0:0:
264,88,6870,1,0,0:0:0:0:
226,309,7557,1,0,0:0:0:0:
196,239,7786,1,0,0:0:0:0:
197,180,8015,1,0,0:0:0:0:
268,201,8244,1,0,0:0:0:0:
308,137,8473,1,0,0:0:0:0:
368,128,8702,1,0,0:0:0:0:
408,192,9160,5,0,0:0:0:0:
335,172,9389,1,0,0:0:0:0:
298,257,9618,1,0,0:0:0:0:
280,96,10305,1,0,0:0:0:0:
240,159,10534,1,0,0:0:0:0:
144,128,11221,1,0,0:0:0:0:
232,128,11450,1,0,0:0:0:0:
234,202,11679,1,0,0:0:0:0:
305,179,11908,1,0,0:0:0:0:
334,110,12137,1,0,0:0:0:0:
267,75,12366,1,0,0:0:0:0:
160,208,12595,1,0,0:0:0:0:
227,241,12824,1,0,0:0:0:0:
310,172,13053,1,0,0:0:0:0:
224,144,13282,1,0,0:0:0:0:
353,220,13740,1,0,0:0:0:0:
240,272,14198,1,0,0:0:0:0:
264,168,14656,1,0,0:0:0:0:
78,65,15114,5,0,0:0:0:0:
108,86,15229,1,0,0:0:0:0:
136,110,15343,1,0,0:0:0:0:
163,135,15458,1,0,0:0:0:0:
190,160,15572,1,0,0:0:0:0:
91,240,15801,1,0,0:0:0:0:
263,263,16030,1,0,0:0:0:0:
341,177,16488,1,0,0:0:0:0:
384,160,16946,5,0,0:0:0:0:
384,256,17404,1,0,0:0:0:0:
256,192,17862,1,0,0:0:0:0:
177,68,18320,1,0,0:0:0:0:
220,66,18434,1,0,0:0:0:0:
260,71,18549,1,0,0:0:0:0:
294,89,18663,1,0,0:0:0:0:
324,113,18778,1,0,0:0:0:0:
128,64,19236,5,0,0:0:0:0:
384,192,19694,1,0,0:0:0:0:
272,96,19923,1,0,0:0:0:0:
344,224,20152,1,0,0:0:0:0:
112,128,20381,1,0,0:0:0:0:
384,160,20610,5,0,0:0:0:0:
384,256,21068,1,0,0:0:0:0:
240,208,21526,1,0,0:0:0:0:
336,128,21984,1,0,0:0:0:0:
358,157,22098,1,0,0:0:0:0:
373,191,22213,1,0,0:0:0:0:
377,228,22327,1,0,0:0:0:0:
367,264,22442,1,0,0:0:0:0:
288,152,22900,1,0,0:0:0:0:
432,192,23358,1,0,0:0:0:0:
352,128,23587,1,0,0:0:0:0:
130,111,23816,1,0,0:0:0:0:
266,95,24045,1,0,0:0:0:0:
109,263,24274,5,0,0:0:0:0:
224,304,24732,1,0,0:0:0:0:
80,256,25190,1,0,0:0:0:0:
240,64,25648,1,0,0:0:0:0:
264,91,25762,1,0,0:0:0:0:
258,128,25877,1,0,0:0:0:0:
233,156,25991,1,0,0:0:0:0:
195,158,26106,1,0,0:0:0:0:
278,282,26564,1,0,0:0:0:0:
464,272,27022,1,0,0:0:0:0:
376,192,27251,1,0,0:0:0:0:
48,264,27480,1,0,0:0:0:0:
266,115,27709,1,0,0:0:0:0:
384,160,27938,5,0,0:0:0:0:
17,296,28396,1,0,0:0:0:0:
352,41,28854,1,0,0:0:0:0:
26,68,29312,1,0,0:0:0:0:
52,93,29426,1,0,0:0:0:0:
57,130,29541,1,0,0:0:0:0:
73,163,29655,1,0,0:0:0:0:
104,183,29770,2,0,L|224:295,1,150.000000298024
231,281,30228,5,0,0:0:0:0:
370,183,30457,1,0,0:0:0:0:
200,122,30686,1,0,0:0:0:0:
238,252,30915,1,0,0:0:0:0:
276,187,31144,1,0,0:0:0:0:
108,238,31602,5,0,0:0:0:0:
328,176,32060,5,0,0:0:0:0:
263,137,32289,1,0,0:0:0:0:
260,87,32518,1,0,0:0:0:0:
225,179,32747,1,0,0:0:0:0:
128,112,32976,1,0,0:0:0:0:
162,178,33205,1,0,0:0:0:0:
260,87,33434,1,0,0:0:0:0:
322,128,33663,1,0,0:0:0:0:
240,192,33892,1,0,0:0:0:0:
77,125,34121,1,0,0:0:0:0:
149,142,34350,1,0,0:0:0:0:
45,154,35953,5,0,0:0:0:0:
206,134,36182,1,0,0:0:0:0:
181,236,36411,1,0,0:0:0:0:
78,111,36640,1,0,0:0:0:0:
131,163,36869,1,0,0:0:0:0:
187,117,37098,1,0,0:0:0:0:
280,92,37327,1,0,0:0:0:0:
131,265,37556,1,0,0:0:0:0:
199,234,37785,1,0,0:0:0:0:
162,168,38014,1,0,0:0:0:0:
245,113,38243,1,0,0:0:0:0:
267,184,38472,1,0,0:0:0:0:
388,219,39617,5,0,0:0:0:0:
339,161,39846,1,0,0:0:0:0:
425,110,40075,1,0,0:0:0:0:
256,208,40304,1,0,0:0:0:0:
206,174,40533,1,0,0:0:0:0:
240,108,40762,1,0,0:0:0:0:
129,202,40991,1,0,0:0:0:0:
250,200,41220,1,0,0:0:0:0:
338,204,41449,1,0,0:0:0:0:
220,275,41678,1,0,0:0:0:0:
203,133,42365,1,0,0:0:0:0:
113,138,42594,1,0,0:0:0:0:
49,177,42823,1,0,0:0:0:0:
56,252,43281,1,0,0:0:0:0:
154,215,43510,1,0,0:0:0:0:
109,89,43739,1,0,0:0:0:0:
288,192,44197,5,0,0:0:0:0:
320,208,44312,1,0,0:0:0:0:
352,224,44426,1,0,0:0:0:0:
178,267,44655,1,0,0:0:0:0:
270,320,44884,1,0,0:0:0:0:
262,245,45113,1,0,0:0:0:0:
266,170,45342,1,0,0:0:0:0:
338,150,45571,1,0,0:0:0:0:
150,195,45800,1,0,0:0:0:0:
91,178,46029,1,0,0:0:0:0:
209,203,46258,5,0,0:0:0:0:
148,130,46487,1,0,0:0:0:0:
112,115,46716,1,0,0:0:0:0:
299,138,46946,1,0,0:0:0:0:
172,185,47175,1,0,0:0:0:0:
165,103,47404,1,0,0:0:0:0:
286,170,47633,1,0,0:0:0:0:
110,164,47862,1,0,0:0:0:0:
314,307,48091,1,0,0:0:0:0:
303,232,48320,1,0,0:0:0:0:
229,244,48549,1,0,0:0:0:0:
249,163,48778,1,0,0:0:0:0:
295,104,49007,1,0,0:0:0:0:
380,79,49236,5,0,0:0:0:0:
331,136,49465,1,0,0:0:0:0:
285,195,49694,1,0,0:0:0:0:
210,202,49923,1,0,0:0:0:0:
350,219,50152,1,0,0:0:0:0:
321,149,50381,1,0,0:0:0:0:
393,143,50610,1,0,0:0:0:0:
398,68,50839,1,0,0:0:0:0:
264,247,51068,1,0,0:0:0:0:
319,196,51297,1,0,0:0:0:0:
224,128,51526,1,0,0:0:0:0:
197,198,51755,1,0,0:0:0:0:
256,208,51984,1,0,0:0:0:0:
304,150,52213,1,0,0:0:0:0:
281,78,52442,1,0,0:0:0:0:
54,125,52671,1,0,0:0:0:0:
256,144,52900,5,0,0:0:0:0:
181,139,53129,1,0,0:0:0:0:
205,209,53358,1,0,0:0:0:0:
139,184,53587,1,0,0:0:0:0:
64,195,53816,1,0,0:0:0:0:
118,80,54045,1,0,0:0:0:0:
192,79,54274,1,0,0:0:0:0:
111,133,54503,1,0,0:0:0:0:
181,159,54732,1,0,0:0:0:0:
252,180,54961,1,0,0:0:0:0:
320,150,55190,1,0,0:0:0:0:
370,205,55419,1,0,0:0:0:0:
256,256,55648,1,0,0:0:0:0:
223,188,55877,1,0,0:0:0:0:
256,80,56106,1,0,0:0:0:0:
110,136,56335,1,0,0:0:0:0:
259,143,56793,1,0,0:0:0:0:
411,172,57480,1,0,0:0:0:0:
338,152,57709,1,0,0:0:0:0:
240,112,57938,1,0,0:0:0:0:
197,174,58167,1,0,0:0:0:0:
288,240,58396,1,0,0:0:0:0:
144,196,58854,5,0,0:0:0:0:
238,171,59083,5,0,0:0:0:0:
311,184,59312,5,0,0:0:0:0:
82,141,59541,5,0,0:0:0:0:
272,128,59770,5,0,0:0:0:0:
197,136,59999,5,0,0:0:0:0:
288,240,60687,6,0,P|320:320|360:292,1,150.000000447035
384,208,61374,2,0,L|448:144,1,50.0000001490117
405,134,61603,2,0,L|351:194,1,50.0000001490117
328,216,61832,2,0,L|440:264,1,100.000000298023
285,231,62290,2,0,L|317:343,2,100.000000298023
248,116,62977,2,0,L|344:212,2,100.000000298023
288,112,63664,2,0,L|544:176,1,250.000000745059
430,170,64351,2,0,L|481:156,1,50.0000001490117
352,180,64580,2,0,L|288:132,1,50.0000001490117
395,165,65038,2,0,L|384:288,1,100.000000298023
359,259,65496,1,0,0:0:0:0:
299,213,65725,1,0,0:0:0:0:
400,256,65954,2,0,L|288:320,1,100.000000298023
384,80,66412,2,0,L|304:64,1,50.0000001490117
329,162,66641,1,0,0:0:0:0:
258,135,66870,2,0,L|306:199,1,50.0000001490117
153,181,67099,2,0,L|249:197,1,50.0000001490117
304,272,68244,6,0,L|224:320,1,50.0000001490117
339,219,68931,2,0,L|211:235,1,100.000000298023
202,208,69389,2,0,L|199:130,1,50.0000001490117
236,98,69847,2,0,L|120:205,1,150.000000447035
112,240,70305,2,0,L|208:320,1,100.000000298023
146,103,70763,1,0,0:0:0:0:
336,128,70992,2,0,L|432:112,1,50.0000001490117
112,272,71450,6,0,L|192:288,1,50.0000001490117
64,112,71679,2,0,L|225:74,1,150.000000447035
374,97,72366,2,0,L|438:141,1,50.0000001490117
432,208,72595,2,0,B|352:160|277:207|277:207|208:256|128:208,1,300.00000089407
144,96,73511,2,0,L|256:64,2,100.000000298023
314,234,74198,1,0,0:0:0:0:
106,113,74427,1,0,0:0:0:0:
292,160,74656,1,0,0:0:0:0:
0,112,75572,5,0,0:0:0:0:
496,128,76030,1,0,0:0:0:0:
112,384,76488,1,0,0:0:0:0:
256,0,76946,1,0,0:0:0:0:
267,35,77060,1,0,0:0:0:0:
276,71,77175,1,0,0:0:0:0:
282,107,77289,1,0,0:0:0:0:
288,144,77404,1,0,0:0:0:0:
464,32,77862,5,0,0:0:0:0:
80,272,78320,1,0,0:0:0:0:
176,64,78549,1,0,0:0:0:0:
224,192,78778,1,0,0:0:0:0:
48,144,79007,1,0,0:0:0:0:
432,96,79236,5,0,0:0:0:0:
96,320,79694,1,0,0:0:0:0:
192,96,80152,1,0,0:0:0:0:
0,0,80610,1,0,0:0:0:0:
30,27,80724,1,0,0:0:0:0:
54,54,80839,1,0,0:0:0:0:
80,83,80953,1,0,0:0:0:0:
104,112,81068,1,0,0:0:0:0:
288,152,81526,1,0,0:0:0:0:
432,192,81984,1,0,0:0:0:0:
400,64,82213,1,0,0:0:0:0:
319,103,82442,1,0,0:0:0:0:
261,172,82671,1,0,0:0:0:0:
272,224,82900,5,0,0:0:0:0:
103,286,83358,1,0,0:0:0:0:
80,176,83816,1,0,0:0:0:0:
96,48,84274,1,0,0:0:0:0:
135,61,84388,1,0,0:0:0:0:
163,82,84503,1,0,0:0:0:0:
190,106,84617,1,0,0:0:0:0:
208,136,84732,1,0,0:0:0:0:
352,288,85190,1,0,0:0:0:0:
464,272,85648,1,0,0:0:0:0:
416,80,85877,1,0,0:0:0:0:
304,288,86106,1,0,0:0:0:0:
320,144,86335,1,0,0:0:0:0:
384,160,86564,5,0,0:0:0:0:
238,265,87022,1,0,0:0:0:0:
80,288,87480,1,0,0:0:0:0:
81,182,87938,1,0,0:0:0:0:
116,193,88052,1,0,0:0:0:0:
147,211,88167,1,0,0:0:0:0:
177,231,88281,1,0,0:0:0:0:
194,256,88396,1,0,0:0:0:0:
351,156,88854,5,0,0:0:0:0:
448,16,89083,1,0,0:0:0:0:
428,103,89312,1,0,0:0:0:0:
464,192,89541,1,0,0:0:0:0:
279,217,89770,1,0,0:0:0:0:
184,80,90229,5,0,0:0:0:0:
392,104,90687,1,0,0:0:0:0:
320,160,90916,1,0,0:0:0:0:
238,198,91145,1,0,0:0:0:0:
227,279,91374,1,0,0:0:0:0:
240,120,91603,1,0,0:0:0:0:
160,32,91832,1,0,0:0:0:0:
344,56,92061,1,0,0:0:0:0:
297,211,92290,1,0,0:0:0:0:
138,177,92519,1,0,0:0:0:0:
421,145,92748,1,0,0:0:0:0:
218,107,92977,1,0,0:0:0:0:
304,192,94580,5,0,0:0:0:0:
416,48,94809,1,0,0:0:0:0:
464,272,95038,1,0,0:0:0:0:
352,304,95267,1,0,0:0:0:0:
448,144,95725,1,0,0:0:0:0:
288,192,95954,1,0,0:0:0:0:
222,126,96183,1,0,0:0:0:0:
274,267,96641,1,0,0:0:0:0:
392,128,96870,1,0,0:0:0:0:
208,200,97099,1,0,0:0:0:0:
352,112,97328,1,0,0:0:0:0:
176,48,97557,1,0,0:0:0:0:
480,48,98015,1,0,0:0:0:0:
160,136,98244,5,0,0:0:0:0:
400,64,98473,1,0,0:0:0:0:
400,240,98702,2,0,L|512:256,1,75.0000001490116
392,160,99160,1,0,0:0:0:0:
80,144,99389,1,0,0:0:0:0:
256,64,99618,1,0,0:0:0:0:
176,240,99847,1,0,0:0:0:0:
352,80,100076,1,0,0:0:0:0:
378,116,100190,1,0,0:0:0:0:
403,153,100305,1,0,0:0:0:0:
176,80,100763,1,0,0:0:0:0:
48,0,100992,2,0,P|110:119|400:48,1,450.000000894071
272,128,102137,1,0,0:0:0:0:
361,122,102366,1,0,0:0:0:0:
208,200,102824,5,0,0:0:0:0:
336,272,103053,1,0,0:0:0:0:
416,64,103511,1,0,0:0:0:0:
216,296,103969,1,0,0:0:0:0:
168,160,104198,1,0,0:0:0:0:
392,208,104427,1,0,0:0:0:0:
336,120,104656,1,0,0:0:0:0:
160,160,104885,1,0,0:0:0:0:
240,304,105114,1,0,0:0:0:0:
384,80,105343,1,0,0:0:0:0:
96,176,105572,1,0,0:0:0:0:
400,208,105801,1,0,0:0:0:0:
136,144,106259,1,0,0:0:0:0:
320,88,106488,1,0,0:0:0:0:
343,174,106717,1,0,0:0:0:0:
448,208,106946,2,0,L|272:288,1,150.000000298023
279,185,107404,1,0,0:0:0:0:
235,94,107633,2,0,L|38:176,1,150.000000298024
240,240,108549,5,0,0:0:0:0:
376,96,108778,1,0,0:0:0:0:
408,288,109007,1,0,0:0:0:0:
330,242,109236,1,0,0:0:0:0:
249,202,109465,1,0,0:0:0:0:
400,152,109694,1,0,0:0:0:0:
208,224,109923,1,0,0:0:0:0:
112,184,110152,1,0,0:0:0:0:
201,173,110381,1,0,0:0:0:0:
72,152,110610,1,0,0:0:0:0:
161,164,110839,1,0,0:0:0:0:
144,224,111068,1,0,0:0:0:0:
224,264,111297,1,0,0:0:0:0:
240,320,111526,1,0,0:0:0:0:
288,192,111755,5,0,0:0:0:0:
112,304,111984,1,0,0:0:0:0:
146,220,112213,1,0,0:0:0:0:
227,181,112442,1,0,0:0:0:0:
305,225,112671,1,0,0:0:0:0:
352,166,112900,1,0,0:0:0:0:
352,16,113129,2,0,L|352:240,1,150.000000298024
336,144,113587,5,0,0:0:0:0:
410,93,113816,1,0,0:0:0:0:
457,169,114045,1,0,0:0:0:0:
368,240,114274,1,0,0:0:0:0:
281,214,114503,1,0,0:0:0:0:
203,168,114732,1,0,0:0:0:0:
113,168,114961,1,0,0:0:0:0:
144,232,115190,1,0,0:0:0:0:
304,160,115419,1,0,0:0:0:0:
184,96,116106,1,0,0:0:0:0:
240,165,116335,1,0,0:0:0:0:
144,152,116564,1,0,0:0:0:0:
176,272,116793,1,0,0:0:0:0:
243,212,117022,1,0,0:0:0:0:
320,232,117251,1,0,0:0:0:0:
285,148,117480,1,0,0:0:0:0:
192,192,117709,1,0,0:0:0:0:
272,96,117938,1,0,0:0:0:0:
80,256,118167,2,0,B|192:128|279:254|279:254|368:384|464:256,1,450.00000089407
160,160,119312,2,0,L|234:161,8,75.0000001490118
288,80,121145,2,0,L|384:80,7,75.0000001490116
328,248,122748,5,0,0:0:0:0:
408,120,122977,1,0,0:0:0:0:
448,248,123206,1,0,0:0:0:0:
288,144,123435,1,0,0:0:0:0:
168,200,123664,1,0,0:0:0:0:
224,304,123893,1,0,0:0:0:0:
280,128,124122,1,0,0:0:0:0:
400,112,124351,1,0,0:0:0:0:
408,192,124580,1,0,0:0:0:0:
329,235,124809,1,0,0:0:0:0:
280,136,125038,1,0,0:0:0:0:
120,144,125267,1,0,0:0:0:0:
304,272,125496,1,0,0:0:0:0:
264,184,125725,1,0,0:0:0:0:
392,128,125954,1,0,0:0:0:0:
219,178,126412,5,0,0:0:0:0:
280,88,126641,1,0,0:0:0:0:
152,80,126870,1,0,0:0:0:0:
128,160,127099,1,0,0:0:0:0:
217,160,127328,1,0,0:0:0:0:
305,177,127557,1,0,0:0:0:0:
424,208,127786,1,0,0:0:0:0:
368,288,128015,1,0,0:0:0:0:
288,245,128244,1,0,0:0:0:0:
230,175,128473,1,0,0:0:0:0:
368,128,128702,1,0,0:0:0:0:
192,320,128931,2,0,L|464:240,2,225.000000447035
144,128,130076,5,0,0:0:0:0:
231,147,130305,1,0,0:0:0:0:
319,163,130534,1,0,0:0:0:0:
339,250,130763,1,0,0:0:0:0:
240,248,130992,1,0,0:0:0:0:
176,152,131221,1,0,0:0:0:0:
120,208,131450,1,0,0:0:0:0:
199,250,131679,1,0,0:0:0:0:
256,160,132137,1,0,0:0:0:0:
352,96,132366,1,0,0:0:0:0:
416,120,132595,1,0,0:0:0:0:
288,224,132824,1,0,0:0:0:0:
352,80,133053,1,0,0:0:0:0:
208,152,133282,1,0,0:0:0:0:
128,120,133740,1,0,0:0:0:0:
144,160,172213,5,0,0:0:0:0:
208,64,172442,5,0,0:0:0:0:
256,176,172671,5,0,0:0:0:0:
314,107,172900,5,0,0:0:0:0:
403,108,173129,5,0,0:0:0:0:
343,175,173358,5,0,0:0:0:0:
353,264,173587,5,0,0:0:0:0:
346,280,173816,5,0,0:0:0:0:
192,272,174045,5,0,0:0:0:0:
158,188,174274,5,0,0:0:0:0:
197,107,174503,5,0,0:0:0:0:
242,104,174618,5,0,0:0:0:0:
293,66,174732,5,0,0:0:0:0:
323,87,174847,5,0,0:0:0:0:
348,114,174961,5,0,0:0:0:0:
362,148,175076,5,0,0:0:0:0:
374,183,175190,5,0,0:0:0:0:
369,220,175305,5,0,0:0:0:0:
339,243,175419,5,0,0:0:0:0:
301,249,175534,5,0,0:0:0:0:
266,235,175648,5,0,0:0:0:0:
239,208,175763,5,0,0:0:0:0:
213,180,175877,5,0,0:0:0:0:
61,95,176335,5,0,0:0:0:0:
76,69,176392,1,0,0:0:0:0:
103,57,176449,1,0,0:0:0:0:
132,55,176506,1,0,0:0:0:0:
161,63,176564,1,0,0:0:0:0:
166,92,176621,1,0,0:0:0:0:
175,120,176678,1,0,0:0:0:0:
189,145,176735,1,0,0:0:0:0:
205,167,176793,1,0,0:0:0:0:
233,177,176850,1,0,0:0:0:0:
262,171,176907,1,0,0:0:0:0:
288,157,176964,1,0,0:0:0:0:
309,135,177022,1,0,0:0:0:0:
317,106,177079,1,0,0:0:0:0:
302,79,177136,1,0,0:0:0:0:
282,56,177193,1,0,0:0:0:0:
253,46,177251,1,0,0:0:0:0:
223,51,177308,1,0,0:0:0:0:
196,65,177365,1,0,0:0:0:0:
177,88,177422,1,0,0:0:0:0:
165,116,177480,1,0,0:0:0:0:
156,144,177537,1,0,0:0:0:0:
145,171,177594,1,0,0:0:0:0:
130,197,177651,1,0,0:0:0:0:
108,218,177709,1,0,0:0:0:0:
95,245,177766,1,0,0:0:0:0:
97,274,177823,1,0,0:0:0:0:
110,300,177880,1,0,0:0:0:0:
131,321,177938,1,0,0:0:0:0:
156,336,177995,1,0,0:0:0:0:
236,295,178167,6,0,L|310:294,12,75.0000001490118
139,189,179770,6,0,L|236:200,1,70.0000001490117
448,80,180228,2,0,L|464:272,1,140.000000298023
192,288,180686,2,0,L|304:336,1,70.0000001490117
128,112,181602,2,0,L|224:208,2,70.0000001490117
176,150,182289,2,0,L|307:145,1,70.0000001490117
352,256,182747,2,0,L|272:240,1,70.0000001490117
112,160,183205,2,0,L|48:112,1,70.0000001490117
7,214,183663,6,0,L|0:352,1,70.0000001490117
384,80,184121,2,0,L|496:48,1,70.0000001490117
400,256,184579,2,0,L|288:320,2,70.0000001490117
128,192,185266,2,0,L|48:176,1,70.0000001490117
128,272,185724,2,0,P|208:320|176:336,1,140.000000298023
66,119,186182,2,0,L|235:168,3,140.000000298023
64,128,187327,6,0,L|-16:176,5,70.0000001490117
336,320,188243,2,0,L|288:144,1,140.000000298023
176,208,188701,2,0,L|48:320,1,140.000000298023
112,240,189159,2,0,L|208:320,1,70.0000001490117
64,160,189617,2,0,L|160:128,1,70.0000001490117
339,178,190075,2,0,L|472:256,1,140.000000298023
208,256,190762,6,0,L|448:320,1,210.000000447035
32,272,191449,2,0,L|112:208,1,70.0000001490117
304,112,191907,2,0,B|224:160|149:113|149:113|80:64|0:112,1,280.000000596047
144,288,192823,2,0,L|256:320,2,70.0000001490117
277,181,193510,2,0,L|341:133,1,70.0000001490117
460,156,193739,2,0,L|460:60,1,70.0000001490117
112,112,194197,6,0,L|192:96,2,70.0000001490117
256,224,194655,2,0,L|509:171,1,210.000000447035
308,234,195342,2,0,B|228:282|153:235|153:235|84:186|4:234,1,280.000000596047
144,288,196258,2,0,L|256:320,2,70.0000001490117
208,191,196716,2,0,L|320:223,2,70.0000001490117
48,96,197404,5,0,0:0:0:0:
70,79,197518,5,0,0:0:0:0:
97,75,197633,5,0,0:0:0:0:
123,84,197747,5,0,0:0:0:0:
143,103,197862,5,0,0:0:0:0:
151,129,197976,5,0,0:0:0:0:
157,156,198091,5,0,0:0:0:0:
166,182,198205,5,0,0:0:0:0:
184,203,198320,5,0,0:0:0:0:
207,218,198434,5,0,0:0:0:0:
233,226,198549,5,0,0:0:0:0:
260,225,198663,5,0,0:0:0:0:
286,215,198778,5,0,0:0:0:0:
305,194,198892,5,0,0:0:0:0:
312,167,199007,5,0,0:0:0:0:
296,143,199121,5,0,0:0:0:0:
269,133,199236,5,0,0:0:0:0:
244,146,199350,5,0,0:0:0:0:
229,170,199465,5,0,0:0:0:0:
228,197,199579,5,0,0:0:0:0:
241,221,199694,5,0,0:0:0:0:
262,238,199808,5,0,0:0:0:0:
289,243,199923,5,0,0:0:0:0:
316,244,200037,5,0,0:0:0:0:
432,192,201091,5,0,0:0:0:0:
412,139,201320,1,0,0:0:0:0:
361,162,201549,1,0,0:0:0:0:
307,146,201778,1,0,0:0:0:0:
224,208,202007,5,0,0:0:0:0:
298,291,202465,1,0,0:0:0:0:
191,255,202923,1,0,0:0:0:0:
159,147,203381,1,0,0:0:0:0:
186,146,203495,1,0,0:0:0:0:
213,153,203610,1,0,0:0:0:0:
238,163,203724,1,0,0:0:0:0:
253,186,203839,1,0,0:0:0:0:
317,167,204297,1,0,0:0:0:0:
464,272,204755,1,0,0:0:0:0:
408,264,204984,1,0,0:0:0:0:
320,272,205213,1,0,0:0:0:0:
236,191,205442,1,0,0:0:0:0:
374,248,205671,5,0,0:0:0:0:
256,352,206129,1,0,0:0:0:0:
80,288,206587,1,0,0:0:0:0:
221,283,207045,1,0,0:0:0:0:
248,278,207159,1,0,0:0:0:0:
274,268,207274,1,0,0:0:0:0:
292,247,207388,1,0,0:0:0:0:
302,220,207503,1,0,0:0:0:0:
0,384,207961,5,0,0:0:0:0:
46,353,208190,1,0,0:0:0:0:
64,288,208419,1,0,0:0:0:0:
108,253,208648,1,0,0:0:0:0:
162,239,208877,1,0,0:0:0:0:
432,96,209335,5,0,0:0:0:0:
96,320,209793,1,0,0:0:0:0:
458,86,210251,1,0,0:0:0:0:
92,120,210709,1,0,0:0:0:0:
119,123,210823,1,0,0:0:0:0:
146,128,210938,1,0,0:0:0:0:
173,133,211052,1,0,0:0:0:0:
200,138,211167,1,0,0:0:0:0:
256,304,211625,1,0,0:0:0:0:
215,265,211854,1,0,0:0:0:0:
269,251,212083,1,0,0:0:0:0:
312,215,212312,1,0,0:0:0:0:
256,192,212541,1,0,0:0:0:0:
