osu file format v14

[General]
AudioFilename: GARNiDELiA - .mp3
AudioLeadIn: 0
PreviewTime: 60450
Countdown: 0
SampleSet: Soft
StackLeniency: 0.7
Mode: 0
LetterboxInBreaks: 0
WidescreenStoryboard: 1

[Editor]
Bookmarks: 212511
DistanceSpacing: 1.6
BeatDivisor: 4
GridSize: 4
TimelineZoom: 2.1

[Metadata]
Title:Gokuraku Jodo
TitleUnicode:極楽浄土
Artist:GARNiDELiA
ArtistUnicode:GARNiDELiA
Creator:Vert
Version:Soda's Hard
Source:
Tags:MARiA 極楽浄土 Violet Cry Zweib Mei LunaSaika kanor - Cappuccino - sodarose
BeatmapID:1289645
BeatmapSetID:489039

[Difficulty]
HPDrainRate:5
CircleSize:4
OverallDifficulty:6
ApproachRate:7.6
SliderMultiplier:1.4
SliderTickRate:1

[Events]
//Background and Video events
0,0,"bg233.png",0,0
//Break Periods
2,136022,148942
//Storyboard Layer 0 (Background)
//Storyboard Layer 1 (Fail)
//Storyboard Layer 2 (Pass)
//Storyboard Layer 3 (Foreground)
//Storyboard Sound Samples

[TimingPoints]
440,458.015267175573,4,2,1,50,1,0
43035,-83.3333333333333,4,2,1,65,0,0
43378,-100,4,2,1,65,0,0
43951,-83.3333333333333,4,2,1,65,0,0
46220,-83.3333333333333,4,1,1,65,0,0
46241,-100,4,1,1,65,0,0
60419,-100,4,2,1,75,0,0
60898,-90.9090909090909,4,2,1,80,0,1
75554,-100,4,2,1,75,0,0
88815,-100,4,2,1,60,0,0
90189,-100,4,2,1,55,0,0
101182,-100,4,2,1,65,0,0
103035,-83.3333333333333,4,2,1,65,0,0
104180,-100,4,2,1,65,0,0
104846,-100,4,1,1,65,0,0
119044,-100,4,2,1,75,0,0
119523,-90.9090909090909,4,2,1,80,0,1
134180,-100,4,1,2,55,0,0
150648,-100,4,1,2,60,0,0
156144,-100,4,1,2,50,0,0
156602,-100,4,1,2,55,0,0
157060,-100,4,1,2,60,0,0
157518,-100,4,1,2,65,0,0
157976,-100,4,1,2,70,0,0
165304,-100,4,3,1,70,0,0
171716,-100,4,3,2,70,0,0
171773,-100,4,3,1,70,0,0
172632,-100,4,3,1,60,0,0
173090,-100,4,3,1,62,0,0
173548,-100,4,3,1,64,0,0
174006,-100,4,3,1,66,0,0
174464,-100,4,3,1,68,0,0
174922,-100,4,3,1,70,0,0
175380,-100,4,3,1,72,0,0
175838,-100,4,3,1,74,0,0
176296,-100,4,3,1,80,0,0
178207,-100,4,2,1,40,0,0
179044,-100,4,2,1,80,0,0
179981,-90.9090909090909,4,2,1,80,0,1
197844,-100,4,2,1,80,0,0
198302,-100,4,2,1,75,0,0
213338,-100,4,2,1,5,0,0

[Colours]
Combo1 : 255,128,255
Combo2 : 128,255,128
Combo3 : 255,255,128
Combo4 : 128,128,255

[HitObjects]
256,308,1814,5,2,3:2:0:0:
192,232,2043,1,0,3:0:0:0:
320,232,2272,6,0,P|352:188|336:104,1,140,8|0,3:0|0:0,0:0:0:0:
260,48,2959,1,2,0:0:0:0:
200,124,3188,2,0,P|156:156|72:140,1,140,8|0,0:0|0:0,0:0:0:0:
128,60,3875,1,2,0:0:0:0:
164,248,4104,6,0,L|156:336,1,70,8|2,0:0|0:0,0:0:0:0:
264,284,4562,2,0,L|272:372,1,70,8|2,0:0|0:0,0:0:0:0:
320,184,5020,2,0,L|160:172,1,140,8|10,0:0|3:2,0:0:0:0:
228,88,5707,1,0,3:0:0:0:
384,124,5936,6,0,B|412:160|412:160|400:264,1,140,8|0,3:0|0:0,0:0:0:0:
320,312,6623,1,2,0:0:0:0:
232,356,6852,2,0,P|176:328|96:356,1,140,8|0,0:0|0:0,0:0:0:0:
32,284,7539,1,0,0:0:0:0:
124,168,7768,6,0,L|120:256,1,70,8|2,0:0|0:0,0:0:0:0:
224,196,8226,2,0,L|220:126,1,70,8|2,0:0|0:0,0:0:0:0:
132,20,8684,2,0,L|288:28,1,140,8|8,0:0|3:2,0:0:0:0:
356,76,9371,1,2,3:2:0:0:
432,244,9600,6,0,L|448:340,2,70,8|2|4,3:0|0:0|0:0,0:0:0:0:
364,172,10287,1,2,0:0:0:0:
356,76,10516,2,0,L|432:68,2,70,8|2|4,0:0|0:0|0:0,0:0:0:0:
260,88,11203,1,2,0:0:0:0:
172,48,11432,6,0,P|112:44|88:56,1,70,8|2,0:0|0:0,0:0:0:0:
132,140,11890,2,0,P|75:160|58:181,1,70,4|2,0:0|3:2,0:0:0:0:
136,240,12348,1,8,0:0:0:0:
76,316,12577,1,2,0:0:0:0:
228,288,12806,1,4,0:0:0:0:
204,384,13035,1,2,0:0:0:0:
296,212,13264,6,0,L|448:224,1,140,8|4,3:0|0:0,0:0:0:0:
240,28,14180,2,0,L|72:40,1,140,8|4,0:0|0:0,0:0:0:0:
192,256,15096,5,8,0:0:0:0:
296,212,15325,1,4,0:0:0:0:
296,212,15440,1,2,0:0:0:0:
296,212,15554,1,8,0:0:0:0:
192,256,15783,1,8,0:0:0:0:
208,124,16012,2,0,L|368:132,1,140,4|8,0:0|3:0,0:0:0:0:
160,336,16928,6,0,P|120:308|108:272,1,70,4|0,3:0|0:0,0:0:0:0:
288,236,17386,2,0,P|283:284|258:313,1,70,4|0,0:0|0:0,0:0:0:0:
140,188,17844,2,0,P|184:167|221:174,1,70,8|0,0:0|0:0,0:0:0:0:
376,288,18302,2,0,L|428:312,3,35,4|2|2|2,3:2|3:2|3:2|3:2,0:0:0:0:
452,324,18760,6,0,L|456:236,1,70,8|0,0:0|0:0,0:0:0:0:
380,172,19218,2,0,L|376:84,1,70,4|0,0:0|0:0,0:0:0:0:
464,28,19676,1,8,0:0:0:0:
368,8,19905,1,2,0:0:0:0:
296,76,20134,1,4,0:0:0:0:
200,56,20363,1,2,0:0:0:0:
32,40,20592,6,0,L|112:32,1,70,8|0,0:0|0:0,0:0:0:0:
152,132,21050,2,0,L|72:124,1,70,4|0,0:0|0:0,0:0:0:0:
20,220,21508,2,0,L|100:212,1,70,8|0,0:0|0:0,0:0:0:0:
124,320,21966,2,0,L|180:328,3,35,4|2|2|2,3:2|3:2|3:2|3:2,0:0:0:0:
208,332,22424,6,0,P|216:280|208:256,1,70,8|0,0:0|0:0,0:0:0:0:
152,132,22882,2,0,P|193:164|217:170,1,70,4|0,0:0|0:0,0:0:0:0:
320,184,23340,1,8,0:0:0:0:
296,76,23569,1,2,0:0:0:0:
324,200,23798,1,4,0:0:0:0:
400,116,24027,1,2,0:0:0:0:
380,268,24256,6,0,L|296:276,1,70,8|0,3:0|0:0,0:0:0:0:
232,352,24714,2,0,L|152:325,1,70,4|0,2:0|0:0,0:0:0:0:
60,360,25172,2,0,L|0:304,1,70,8|0,0:0|0:0,0:0:0:0:
48,184,25630,2,0,L|88:176,3,35,4|2|2|2,3:2|3:2|3:2|3:2,0:0:0:0:
128,192,26088,6,0,L|128:112,1,70,8|0,0:0|0:0,0:0:0:0:
232,80,26546,2,0,L|232:150,1,70,4|0,0:0|0:0,0:0:0:0:
144,32,27004,1,8,0:0:0:0:
232,80,27233,1,2,0:0:0:0:
316,28,27462,1,4,0:0:0:0:
396,84,27691,1,2,0:0:0:0:
480,32,27920,6,0,L|488:120,1,70,8|0,0:0|0:0,0:0:0:0:
392,164,28378,2,0,L|384:252,1,70,4|0,0:0|0:0,0:0:0:0:
480,292,28836,2,0,L|488:380,1,70,8|0,0:0|0:0,0:0:0:0:
340,336,29294,2,0,L|300:324,3,35,4|2|2|2,3:2|3:2|3:2|3:2,0:0:0:0:
260,316,29752,6,0,B|244:372|196:368|196:368|180:344|180:344|156:344,1,140,8|4,3:0|0:0,0:0:0:0:
48,368,30440,1,10,3:2:0:0:
112,256,30669,2,0,P|172:244|200:252,2,70,8|2|6,3:2|3:2|3:2,0:0:0:0:
340,336,31585,6,0,L|356:184,1,140,8|8,3:0|0:0,0:0:0:0:
368,100,32272,1,2,3:0:0:0:
452,48,32501,2,0,P|464:104|452:144,1,70,8|2,0:0|0:0,0:0:0:0:
368,100,32959,2,0,L|284:96,1,70,8|2,0:0|3:0,0:0:0:0:
208,28,33417,6,0,P|188:72|160:92,1,70,8|0,0:0|0:0,0:0:0:0:
88,136,33875,2,0,P|112:160|123:193,1,70,8|2,0:0|3:0,0:0:0:0:
60,268,34333,2,0,L|208:276,1,140,8|8,0:0|0:0,0:0:0:0:
296,268,35020,1,2,3:0:0:0:
228,360,35249,6,0,L|367:352,1,140,8|8,0:0|0:0,0:0:0:0:
464,336,35936,1,2,3:0:0:0:
400,260,36165,2,0,P|396:212|408:180,1,70,8|2,0:0|0:0,0:0:0:0:
472,120,36623,2,0,L|392:104,1,70,8|2,0:0|3:0,0:0:0:0:
320,32,37081,6,0,P|292:88|212:104,2,140,8|8|8,0:0|0:0|0:0,0:0:0:0:
224,8,38226,1,2,3:0:0:0:
221,106,38455,2,0,L|221:194,1,70,8|2,0:0|3:0,0:0:0:0:
144,236,38913,6,0,P|200:212|272:272,1,140,8|8,3:0|0:0,0:0:0:0:
300,340,39600,1,2,3:0:0:0:
368,268,39829,2,0,P|368:220|348:184,1,70,8|2,0:0|0:0,0:0:0:0:
300,340,40287,2,0,P|266:350|232:348,1,70,8|2,0:0|3:0,0:0:0:0:
136,292,40745,6,0,L|140:380,1,70,8|2,0:0|0:0,0:0:0:0:
28,340,41203,2,0,L|31:270,1,70,8|2,0:0|3:0,0:0:0:0:
8,160,41661,2,0,P|88:164|120:108,1,140,8|8,0:0|0:0,0:0:0:0:
80,32,42348,1,2,3:0:0:0:
216,8,42577,6,0,P|256:20|288:48,1,70,8|2,3:2|3:0,0:0:0:0:
200,116,43035,2,0,L|356:120,1,125.999996154785,4|0,3:0|0:0,0:0:0:0:
376,124,43493,2,0,P|384:84|368:36,1,70,8|2,3:2|3:0,0:0:0:0:
272,212,43951,2,0,L|408:216,1,125.999996154785,4|0,3:0|0:0,0:0:0:0:
456,216,44409,6,0,L|468:312,1,83.9999974365235,4|0,3:0|0:0,0:0:0:0:
312,300,44867,2,0,L|312:392,1,83.9999974365235,8|0,0:0|0:0,0:0:0:0:
168,232,45325,2,0,L|156:328,1,83.9999974365235,4|0,3:0|0:0,0:0:0:0:
44,224,45783,1,0,0:0:0:0:
44,224,46012,1,0,0:0:0:0:
44,224,46241,6,0,P|56:168|152:128,1,140,4|8,0:3|0:0,0:0:0:0:
220,148,46928,1,2,0:3:0:0:
292,44,47157,2,0,L|144:32,1,140,4|2,0:2|0:3,0:0:0:0:
122,126,47844,1,2,0:0:0:0:
220,148,48073,6,0,P|224:200|212:232,1,70,0|8,0:0|0:0,0:0:0:0:
316,236,48531,2,0,P|298:285|274:309,1,70,0|2,0:0|0:0,0:0:0:0:
200,344,48989,2,0,P|160:296|72:304,1,140,4|2,0:2|0:3,0:0:0:0:
16,364,49676,1,2,0:2:0:0:
16,364,49791,1,0,0:0:0:0:
16,364,49905,6,0,L|12:280,1,70,8|2,0:3|0:0,0:0:0:0:
76,220,50363,2,0,L|80:136,1,70,4|2,0:2|0:3,0:0:0:0:
52,56,50821,2,0,P|116:68|192:32,1,140,8|2,0:0|0:3,0:0:0:0:
276,16,51508,1,8,0:0:0:0:
240,120,51737,6,0,P|316:112|388:156,1,140,0|4,0:0|0:2,0:0:0:0:
436,212,52424,1,2,0:3:0:0:
484,124,52653,2,0,P|484:72|472:36,1,70,2|8,0:3|0:0,0:0:0:0:
436,212,53111,1,4,0:2:0:0:
392,308,53340,1,2,0:3:0:0:
392,308,53455,1,0,0:0:0:0:
392,308,53569,6,0,P|324:292|232:328,1,140,4|8,0:3|0:0,0:0:0:0:
172,360,54256,1,2,0:3:0:0:
96,300,54485,2,0,L|92:152,1,140,4|2,0:2|0:3,0:0:0:0:
132,72,55172,1,2,0:0:0:0:
200,144,55401,6,0,P|228:96|228:56,1,70,0|8,0:0|0:0,0:0:0:0:
64,4,55859,2,0,P|36:52|36:92,1,70,0|2,0:0|0:3,0:0:0:0:
132,72,56317,2,0,L|288:72,1,140,4|2,0:2|0:3,0:0:0:0:
376,24,57004,1,2,0:2:0:0:
376,24,57119,1,0,0:0:0:0:
376,24,57233,6,0,P|412:32|444:72,1,70,8|2,0:3|0:0,0:0:0:0:
380,136,57691,2,0,L|372:208,1,70,4|2,0:2|0:3,0:0:0:0:
424,288,58149,2,0,P|376:260|296:280,1,140,8|2,0:0|0:3,0:0:0:0:
208,364,58836,1,4,0:2:0:0:
256,192,58951,12,4,60440,0:0:0:0:
136,148,60898,6,0,L|128:236,1,77.0000023498536,12|2,0:3|0:1,0:0:0:0:
248,116,61356,2,0,L|252:204,1,77.0000023498536,4|2,0:0|0:3,0:0:0:0:
192,296,61814,1,8,0:0:0:0:
328,268,62043,2,0,L|376:272,2,38.5000011749268,2|0|4,3:0|3:0|3:2,0:0:0:0:
200,304,62501,1,2,3:1:0:0:
200,304,62615,1,2,3:1:0:0:
200,304,62730,6,0,P|148:324|124:356,1,77.0000023498536,8|2,0:3|0:1,0:0:0:0:
24,280,63188,2,0,P|1:330|7:370,1,77.0000023498536,4|2,0:0|0:3,0:0:0:0:
124,244,63646,1,8,0:0:0:0:
48,148,63875,1,6,3:2:0:0:
48,148,64104,1,6,3:2:0:0:
108,40,64333,1,2,3:1:0:0:
108,40,64447,1,2,3:1:0:0:
108,40,64562,6,0,P|172:68|260:40,1,154.000004699707,8|4,3:0|0:0,0:0:0:0:
364,0,65249,1,2,0:3:0:0:
312,120,65478,2,0,P|304:172|320:208,1,77.0000023498536,2|8,0:1|0:0,0:0:0:0:
424,144,65936,2,0,P|432:106|423:69,1,77.0000023498536,4|10,0:0|0:0,0:0:0:0:
250,47,66394,6,0,P|224:120|232:180,1,115.50000352478,8|2,0:3|0:1,0:0:0:0:
236,208,66852,2,0,P|172:204|144:216,1,77.0000023498536,4|2,0:2|0:3,0:0:0:0:
292,288,67310,2,0,P|327:234|331:204,1,77.0000023498536,8|2,0:0|3:0,0:0:0:0:
196,304,67768,1,6,3:2:0:0:
256,384,67997,1,0,0:0:0:0:
256,384,68111,1,0,0:0:0:0:
256,384,68226,6,0,P|304:388|356:360,1,77.0000023498536,12|2,3:0|0:1,0:0:0:0:
380,360,68569,1,0,0:0:0:0:
380,360,68684,2,0,L|392:272,1,77.0000023498536,4|2,0:0|0:3,0:0:0:0:
464,184,69142,2,0,P|400:180|364:84,1,154.000004699707,8|4,0:0|0:0,0:0:0:0:
412,12,69829,1,2,3:1:0:0:
268,12,70058,6,0,P|236:56|232:84,1,77.0000023498536,8|2,0:3|0:3,0:0:0:0:
112,96,70516,2,0,P|144:140|148:168,1,77.0000023498536,4|2,0:0|0:3,0:0:0:0:
76,260,70974,1,8,0:0:0:0:
196,292,71203,1,6,3:2:0:0:
196,292,71432,1,6,3:2:0:0:
84,376,71661,1,2,3:1:0:0:
84,376,71775,1,2,3:1:0:0:
84,376,71890,6,0,P|144:368|184:376,1,77.0000023498536,8|2,0:3|0:1,0:0:0:0:
284,376,72348,1,4,3:2:0:0:
284,376,72577,1,0,0:0:0:0:
352,200,72806,2,0,P|364:256|356:288,1,77.0000023498536,8|2,0:0|0:3,0:0:0:0:
284,376,73264,1,6,3:2:0:0:
224,268,73493,1,0,0:0:0:0:
256,148,73722,5,8,3:0:0:0:
352,200,73951,1,8,3:2:0:0:
408,108,74180,1,8,3:2:0:0:
312,56,74409,1,8,3:2:0:0:
256,148,74638,2,0,P|244:216|304:296,1,154.000004699707,10|6,3:2|3:2,0:0:0:0:
286,285,75554,6,0,P|238:281|198:293,1,70,4|0,3:0|0:0,0:0:0:0:
84,356,76012,2,0,P|132:360|172:348,1,70,4|0,0:0|0:0,0:0:0:0:
160,216,76470,2,0,L|152:136,1,70,8|0,0:0|0:0,0:0:0:0:
96,28,76928,2,0,L|144:44,3,35,4|2|2|2,3:2|3:2|3:2|3:2,0:0:0:0:
180,44,77386,6,0,P|224:36|260:8,1,70,8|0,0:0|0:0,0:0:0:0:
304,116,77844,2,0,P|334:83|347:39,1,70,4|0,0:0|0:0,0:0:0:0:
452,100,78302,2,0,P|457:55|442:12,1,70,8|2,0:0|0:0,0:0:0:0:
388,184,78760,1,4,0:0:0:0:
480,244,78989,1,2,0:0:0:0:
352,280,79218,6,0,P|308:252|288:216,1,70,8|0,0:0|0:0,0:0:0:0:
300,128,79676,2,0,P|247:131|210:113,1,70,4|0,0:0|0:0,0:0:0:0:
188,24,80134,2,0,P|147:57|107:65,1,70,8|0,0:0|0:0,0:0:0:0:
24,140,80592,2,0,L|48:188,3,35,4|2|2|2,3:2|3:2|3:2|3:2,0:0:0:0:
68,212,81050,6,0,L|56:296,1,70,8|0,0:0|0:0,0:0:0:0:
172,284,81508,2,0,L|168:380,1,70,4|0,0:0|0:0,0:0:0:0:
264,220,81966,1,8,0:0:0:0:
288,316,82195,1,2,0:0:0:0:
352,152,82424,1,4,0:0:0:0:
404,236,82653,1,2,0:0:0:0:
468,140,82882,6,0,L|468:70,1,70,8|0,3:0|0:0,0:0:0:0:
364,32,83340,2,0,L|364:102,1,70,4|0,0:0|0:0,0:0:0:0:
260,140,83798,2,0,L|260:70,1,70,8|0,0:0|0:0,0:0:0:0:
156,32,84256,2,0,L|136:72,3,35,4|2|2|2,3:2|3:2|3:2|3:2,0:0:0:0:
120,108,84714,6,0,P|76:132|28:128,1,70,8|0,0:0|0:0,0:0:0:0:
160,196,85172,2,0,P|204:220|252:216,1,70,4|0,0:0|0:0,0:0:0:0:
112,284,85630,2,0,P|68:308|20:304,1,70,8|2,0:0|0:0,0:0:0:0:
140,376,86088,1,4,0:0:0:0:
248,344,86317,1,2,0:0:0:0:
356,372,86546,6,0,L|352:296,1,70,8|0,0:0|0:0,0:0:0:0:
460,332,87004,2,0,L|456:256,1,70,4|0,0:0|0:0,0:0:0:0:
368,192,87462,2,0,L|364:116,1,70,8|0,0:0|0:0,0:0:0:0:
464,12,87920,2,0,L|432:24,3,35,4|2|2|2,3:2|3:2|3:2|3:2,0:0:0:0:
384,40,88378,6,0,B|348:12|280:12|280:12|300:28|288:60,1,140,8|2,3:0|0:0,0:0:0:0:
244,124,89065,1,2,3:2:0:0:
176,52,89294,2,0,L|88:44,2,70,0|2|2,3:0|0:0|3:2,0:0:0:0:
344,136,90210,5,8,0:0:0:0:
244,124,90440,1,2,0:0:0:0:
148,132,90669,2,0,P|84:208|92:272,1,140,0|2,0:0|0:0,0:0:0:0:
180,224,91356,1,0,0:0:0:0:
180,224,91470,1,2,0:0:0:0:
180,224,91585,2,0,L|256:232,1,70,0|2,0:0|0:0,0:0:0:0:
320,300,92043,6,0,L|244:308,1,70,8|2,0:0|0:0,0:0:0:0:
352,212,92501,2,0,P|416:288|408:352,1,140,0|2,0:0|0:0,0:0:0:0:
348,384,93188,1,0,0:0:0:0:
348,384,93302,1,2,0:0:0:0:
348,384,93417,2,0,L|278:376,1,70,0|2,0:0|0:0,0:0:0:0:
184,356,93875,5,8,0:0:0:0:
88,364,94104,1,2,0:0:0:0:
28,284,94333,2,0,L|-24:280,2,35,0|2|0,0:0|0:0|0:0,0:0:0:0:
96,212,94791,1,2,0:0:0:0:
28,144,95020,1,0,0:0:0:0:
28,144,95134,1,2,0:0:0:0:
28,144,95249,2,0,P|32:80|44:56,1,70,0|2,0:0|0:0,0:0:0:0:
120,24,95707,6,0,L|212:32,1,70,8|2,0:0|0:0,0:0:0:0:
284,60,96165,2,0,L|292:20,2,35,0|2|0,3:0|0:0|0:0,0:0:0:0:
224,124,96623,2,0,B|272:160|328:136|328:136|360:176|360:176|336:200|292:176,1,210,10|0,0:0|0:0,0:0:0:0:
224,124,97539,6,0,L|216:208,1,70,8|2,3:0|0:0,0:0:0:0:
104,196,97997,2,0,L|112:280,1,70,4|2,0:0|0:3,0:0:0:0:
56,364,98455,2,0,P|96:352|144:360,1,70,8|2,0:0|0:0,0:0:0:0:
228,312,98913,2,0,P|260:323|295:322,1,70,4|2,0:0|0:3,0:0:0:0:
404,352,99371,6,0,B|416:320|400:284|400:284|432:300|480:280,2,140,8|4|8,0:0|0:0|0:0,0:0:0:0:
436,212,100516,1,2,0:3:0:0:
436,212,100745,2,0,P|444:164|440:128,1,70,4|2,0:0|0:3,0:0:0:0:
404,36,101203,5,4,3:0:0:0:
304,84,101432,1,4,3:0:0:0:
304,84,102119,1,4,3:0:0:0:
416,28,102348,1,4,3:0:0:0:
416,28,102806,1,2,3:2:0:0:
416,28,102920,1,0,3:0:0:0:
416,28,103035,6,0,P|352:20|312:4,1,83.9999974365235,4|8,3:0|3:2,0:0:0:0:
256,100,103493,2,0,L|256:0,1,83.9999974365235,4|8,3:2|3:2,0:0:0:0:
96,28,103951,2,0,P|160:20|200:4,1,83.9999974365235,4|0,3:0|0:0,0:0:0:0:
256,16,104409,1,0,0:0:0:0:
256,16,104638,1,8,0:0:0:0:
184,96,104867,6,0,L|168:252,1,140,4|8,0:3|0:0,0:0:0:0:
92,296,105554,1,2,0:0:0:0:
184,328,105783,2,0,B|228:320|248:284|248:284|320:324,1,140,4|2,0:2|0:3,0:0:0:0:
384,364,106470,1,2,0:0:0:0:
468,288,106699,6,0,P|444:248|420:232,1,70,0|8,0:0|0:0,0:0:0:0:
480,152,107157,2,0,P|437:133|408:134,1,70,2|2,0:3|0:0,0:0:0:0:
424,36,107615,2,0,P|360:56|284:40,1,140,4|2,0:2|0:3,0:0:0:0:
148,40,108302,1,2,0:2:0:0:
148,40,108417,1,0,0:0:0:0:
148,40,108531,6,0,P|204:76|212:88,1,70,8|2,0:3|0:0,0:0:0:0:
120,128,108989,2,0,L|36:124,1,70,4|2,0:2|0:3,0:0:0:0:
20,220,109447,2,0,L|180:212,1,140,8|2,0:0|0:3,0:0:0:0:
256,208,110134,1,8,0:0:0:0:
396,152,110363,6,0,P|352:140|300:148,1,70,0|2,0:0|0:3,0:0:0:0:
256,208,110821,2,0,L|252:292,1,70,4|2,0:2|0:3,0:0:0:0:
348,308,111279,2,0,L|344:238,1,70,2|8,0:3|0:0,0:0:0:0:
327,140,111737,1,4,0:2:0:0:
376,56,111966,1,2,0:3:0:0:
376,56,112081,1,0,0:0:0:0:
376,56,112195,6,0,B|328:36|284:56|284:56|216:48,1,140,4|8,0:3|0:0,0:0:0:0:
140,40,112882,1,2,0:0:0:0:
44,24,113111,2,0,L|52:184,1,140,4|2,0:2|0:3,0:0:0:0:
56,260,113798,1,2,0:0:0:0:
144,216,114027,6,0,P|160:168|160:148,1,70,0|8,0:0|0:0,0:0:0:0:
56,260,114485,2,0,P|88:296|128:312,1,70,0|2,0:0|0:0,0:0:0:0:
200,280,114943,2,0,P|280:268|360:304,1,140,4|2,0:2|0:3,0:0:0:0:
436,360,115630,1,2,0:2:0:0:
436,360,115745,1,0,0:0:0:0:
436,360,115859,6,0,L|444:276,1,70,8|2,0:3|0:0,0:0:0:0:
456,192,116317,2,0,L|464:108,1,70,4|2,0:2|0:3,0:0:0:0:
356,144,116775,2,0,L|372:4,1,140,8|2,0:0|0:3,0:0:0:0:
256,104,117462,1,6,3:2:0:0:
256,192,117577,12,6,119065,3:2:0:0:
360,112,119523,6,0,L|272:104,1,77.0000023498536,12|2,3:0|0:1,0:0:0:0:
200,196,119981,2,0,L|288:188,1,77.0000023498536,4|2,0:0|0:3,0:0:0:0:
184,104,120440,1,8,0:0:0:0:
112,228,120669,2,0,L|104:284,2,38.5000011749268,2|0|4,3:0|3:0|3:2,0:0:0:0:
96,72,121127,1,2,0:1:0:0:
96,72,121241,1,2,0:1:0:0:
96,72,121356,6,0,P|124:32|164:12,1,77.0000023498536,8|2,3:0|0:1,0:0:0:0:
272,28,121814,2,0,L|372:32,1,77.0000023498536,4|2,0:0|0:3,0:0:0:0:
472,40,122272,1,8,3:2:0:0:
376,116,122501,1,6,3:2:0:0:
376,116,122730,1,6,3:2:0:0:
472,216,122959,1,2,3:1:0:0:
472,216,123073,1,2,3:1:0:0:
472,216,123188,6,0,P|476:264|464:296,1,77.0000023498536,8|0,0:3|0:0,0:0:0:0:
356,340,123646,2,0,L|220:332,1,115.50000352478,4|0,0:0|0:0,0:0:0:0:
188,352,124104,2,0,L|84:360,1,77.0000023498536,2|8,0:1|0:0,0:0:0:0:
168,248,124562,1,4,0:0:0:0:
44,240,124791,1,8,0:0:0:0:
192,220,125020,6,0,L|200:136,2,77.0000023498536,8|0|4,3:0|0:0|0:0,0:0:0:0:
92,144,125707,1,2,0:3:0:0:
180,60,125936,2,0,P|236:64|272:88,1,77.0000023498536,8|2,0:0|3:0,0:0:0:0:
92,144,126394,1,6,3:2:0:0:
20,44,126623,1,0,0:0:0:0:
20,44,126737,1,0,0:0:0:0:
20,44,126852,6,0,L|8:136,1,77.0000023498536,4|2,3:0|0:1,0:0:0:0:
8,172,127195,1,0,0:0:0:0:
8,172,127310,2,0,P|40:216|72:232,1,77.0000023498536,4|2,0:0|0:3,0:0:0:0:
168,280,127768,2,0,L|268:276,1,77.0000023498536,8|2,0:0|0:3,0:0:0:0:
368,292,128226,1,4,0:0:0:0:
344,172,128455,1,2,3:1:0:0:
464,140,128684,6,0,P|472:192|456:236,1,77.0000023498536,8|2,0:3|0:3,0:0:0:0:
368,292,129142,2,0,L|464:296,1,77.0000023498536,4|2,0:0|0:3,0:0:0:0:
344,172,129600,1,8,3:2:0:0:
464,140,129829,1,6,3:2:0:0:
464,140,130058,1,6,3:2:0:0:
340,80,130287,1,2,3:1:0:0:
340,80,130401,1,2,3:1:0:0:
340,80,130516,6,0,P|272:80|248:68,1,77.0000023498536,8|2,0:3|0:1,0:0:0:0:
156,20,130974,1,4,3:2:0:0:
156,20,131203,1,0,0:0:0:0:
44,172,131432,2,0,P|88:152|112:120,1,77.0000023498536,8|2,0:0|0:3,0:0:0:0:
156,20,131890,1,4,3:2:0:0:
106,130,132119,1,0,0:0:0:0:
156,244,132348,5,8,3:0:0:0:
200,144,132577,1,8,3:2:0:0:
240,244,132806,1,8,3:2:0:0:
280,144,133035,1,8,3:2:0:0:
320,244,133264,2,0,P|376:204|380:108,1,154.000004699707,8|6,3:2|3:2,0:0:0:0:
284,52,133951,2,0,L|292:4,2,38.5000011749268,0|0|0,3:0|3:0|0:0,0:0:0:0:
160,168,149752,6,0,L|188:172,5,23.3333333333333,8|0|0|2|0|0,0:0|0:0|0:0|0:2|0:0|0:0,0:0:0:0:
212,152,150210,2,0,L|248:148,5,23.3333333333333,2|0|0|2|0|0,0:0|0:0|0:0|0:2|0:0|0:0,0:0:0:0:
268,160,150669,6,0,L|276:72,1,70,6|2,0:2|3:2,0:0:0:0:
288,44,151012,1,0,0:0:0:0:
288,44,151127,2,0,P|224:40|192:24,1,70,2|2,3:1|3:2,0:0:0:0:
360,104,151585,2,0,P|376:64|404:40,1,70,10|2,3:1|3:2,0:0:0:0:
456,124,152043,2,0,L|448:216,1,70,2|2,3:1|3:2,0:0:0:0:
472,288,152501,5,2,3:1:0:0:
376,292,152730,1,0,3:0:0:0:
308,364,152959,1,8,3:1:0:0:
212,348,153188,1,0,3:0:0:0:
212,348,153302,1,0,3:0:0:0:
212,348,153417,2,0,L|208:268,1,70,2|2,3:2|3:0,0:0:0:0:
200,180,153875,2,0,L|156:176,3,35,8|2|0|0,3:1|3:0|0:0|0:0,0:0:0:0:
116,172,154333,6,0,L|96:324,1,140,6|0,3:2|0:0,0:0:0:0:
20,188,155020,1,2,3:0:0:0:
72,104,155249,2,0,P|112:88|140:92,1,70,10|0,3:1|0:0,0:0:0:0:
220,148,155707,2,0,L|228:96,3,35,8|2|2|2,3:1|3:2|3:2|3:2,0:0:0:0:
232,64,156165,6,0,P|280:64|320:44,1,70,2|2,3:0|3:1,0:0:0:0:
388,104,156623,2,0,P|426:75|447:36,1,70,8|2,3:1|3:1,0:0:0:0:
304,140,157081,2,0,P|288:176|288:220,1,70,2|2,3:0|3:1,0:0:0:0:
384,216,157539,2,0,L|448:212,3,35,8|0|2|0,3:1|3:0|3:1|0:0,0:0:0:0:
468,208,157997,6,0,B|484:264|472:308|472:308|428:296,1,140,6|2,3:2|3:1,0:0:0:0:
324,348,158684,1,2,3:0:0:0:
240,296,158913,2,0,P|232:240|240:208,1,70,8|0,3:1|0:0,0:0:0:0:
300,156,159371,1,2,3:1:0:0:
208,120,159600,1,2,3:2:0:0:
234,227,159829,6,0,P|174:227|146:211,1,70,2|2,3:0|3:1,0:0:0:0:
96,156,160287,1,8,3:1:0:0:
56,248,160516,1,2,3:0:0:0:
56,248,160630,1,2,3:0:0:0:
56,248,160745,2,0,L|48:336,1,70,10|2,3:1|3:0,0:0:0:0:
96,156,161203,2,0,L|88:92,3,35,2|2|2|2,3:2|3:2|3:2|3:2,0:0:0:0:
80,72,161661,6,0,L|220:68,1,140,6|8,3:2|3:1,0:0:0:0:
376,64,162348,1,2,3:0:0:0:
412,156,162577,2,0,L|272:152,1,140,2|10,3:1|3:1,0:0:0:0:
208,228,163264,1,2,3:0:0:0:
257,347,163493,6,0,P|273:311|273:271,1,70,2|2,3:1|3:2,0:0:0:0:
277,231,163836,1,0,3:0:0:0:
277,231,163951,2,0,L|197:227,1,70,10|2,3:1|3:0,0:0:0:0:
136,296,164409,2,0,P|84:264|0:296,1,140,10|2,3:1|3:2,0:0:0:0:
68,364,165096,1,8,3:1:0:0:
68,364,165210,1,0,3:0:0:0:
68,364,165325,6,0,L|88:208,1,140,12|4,0:0|0:2,0:0:0:0:
56,132,166012,1,0,0:0:0:0:
80,36,166241,2,0,P|132:24|160:24,1,70,8|0,0:2|0:0,0:0:0:0:
200,108,166699,2,0,L|280:104,1,70,4|0,0:2|0:0,0:0:0:0:
364,32,167157,6,0,L|288:28,1,70,8|0,0:0|0:0,0:0:0:0:
312,176,167615,2,0,P|340:148|352:100,1,70,4|0,0:2|0:0,0:0:0:0:
448,36,168073,2,0,L|436:128,1,70,8|0,0:2|0:0,0:0:0:0:
464,200,168531,2,0,L|452:292,1,70,4|2,0:2|0:2,0:0:0:0:
452,368,168989,6,0,P|408:336|312:344,1,140,8|4,0:0|0:2,0:0:0:0:
232,368,169676,1,0,0:0:0:0:
248,272,169905,2,0,P|184:268|124:212,1,140,8|4,0:2|0:2,0:0:0:0:
132,124,170592,1,2,0:2:0:0:
224,160,170821,5,8,0:0:0:0:
136,229,171050,1,2,0:2:0:0:
136,229,171165,1,2,0:2:0:0:
136,229,171279,2,0,P|92:217|64:189,1,70,4|8,0:2|0:2,0:0:0:0:
184,297,171737,2,0,P|141:313|102:306,1,70,6|0,0:2|0:0,0:0:0:0:
264,321,172195,2,0,P|238:359|203:377,1,70,8|2,0:2|0:2,0:0:0:0:
232,216,172653,5,12,0:0:0:0:
328,204,172882,1,2,0:2:0:0:
412,256,173111,2,0,L|424:176,1,70,4|2,0:2|0:2,0:0:0:0:
448,92,173569,1,8,0:2:0:0:
376,28,173798,1,2,0:2:0:0:
280,40,174027,2,0,L|192:28,1,70,4|2,0:2|0:2,0:0:0:0:
64,120,174485,6,0,L|152:108,1,70,8|2,0:2|0:2,0:0:0:0:
276,200,174943,2,0,L|188:188,1,70,4|2,0:2|0:2,0:0:0:0:
64,280,175401,2,0,L|152:268,1,70,8|2,0:2|0:2,0:0:0:0:
272,360,175859,2,0,L|184:348,1,70,4|2,0:2|0:2,0:0:0:0:
348,272,176317,6,0,L|400:268,7,35,4|0|0|0|0|0|0|0,0:0|0:0|0:0|0:0|0:0|0:0|0:0|0:0,0:0:0:0:
432,280,177233,2,0,L|472:256,7,35,0|0|0|0|0|0|0|0,0:0|0:0|0:0|0:0|0:0|0:0|0:0|0:0,0:0:0:0:
484,224,178149,6,0,B|512:160|496:108|496:108|460:112|424:84|424:84|432:136|420:168|420:168|376:180|344:168|344:168|320:136|280:136,1,420,8|6,2:3|0:2,0:0:0:0:
264,288,179981,6,0,L|280:196,1,77.0000023498536,12|2,3:0|0:1,0:0:0:0:
176,140,180440,2,0,L|189:215,1,77.0000023498536,4|2,0:0|0:3,0:0:0:0:
240,44,180898,1,8,0:0:0:0:
120,28,181127,2,0,L|60:20,2,38.5000011749268,2|0|4,3:0|3:0|0:0,0:0:0:0:
176,140,181585,1,2,3:1:0:0:
176,140,181699,1,2,3:1:0:0:
176,140,181814,6,0,P|128:156|76:148,1,77.0000023498536,8|2,3:0|0:1,0:0:0:0:
100,280,182272,2,0,P|49:275|5:246,1,77.0000023498536,4|2,0:0|0:3,0:0:0:0:
180,220,182730,1,8,3:2:0:0:
168,352,182959,1,6,3:2:0:0:
168,352,183188,1,6,3:2:0:0:
276,296,183417,5,2,3:1:0:0:
276,296,183531,1,2,3:1:0:0:
276,296,183646,2,0,P|316:304|352:332,1,77.0000023498536,8|0,3:0|0:0,0:0:0:0:
468,344,184104,2,0,P|440:292|440:220,1,115.50000352478,4|0,0:0|0:0,0:0:0:0:
420,184,184562,2,0,P|452:148|460:116,1,77.0000023498536,2|8,0:1|0:0,0:0:0:0:
432,0,185020,1,4,0:0:0:0:
364,104,185249,1,8,0:0:0:0:
296,0,185478,6,0,L|164:8,1,115.50000352478,8|2,3:0|0:1,0:0:0:0:
128,28,185936,2,0,L|36:20,1,77.0000023498536,4|2,0:0|0:3,0:0:0:0:
200,88,186394,2,0,P|204:140|188:176,1,77.0000023498536,8|2,0:0|3:0,0:0:0:0:
128,256,186852,1,6,3:2:0:0:
272,304,187081,1,0,0:0:0:0:
272,304,187195,1,0,0:0:0:0:
272,304,187310,6,0,P|220:308|172:328,1,77.0000023498536,12|2,3:0|0:1,0:0:0:0:
148,336,187653,1,0,0:0:0:0:
148,336,187768,2,0,P|108:336|56:300,1,77.0000023498536,4|2,0:0|0:3,0:0:0:0:
40,208,188226,2,0,L|48:104,1,77.0000023498536,8|2,0:0|0:3,0:0:0:0:
40,8,188684,1,6,3:2:0:0:
152,60,188913,1,2,3:1:0:0:
268,24,189142,6,0,P|288:64|288:104,1,77.0000023498536,8|2,3:0|0:3,0:0:0:0:
292,220,189600,2,0,P|316:182|351:162,1,77.0000023498536,4|2,0:0|0:3,0:0:0:0:
468,176,190058,1,8,3:2:0:0:
380,92,190287,1,6,3:2:0:0:
380,92,190516,1,6,3:2:0:0:
372,244,190745,1,2,3:1:0:0:
372,244,190859,1,2,3:1:0:0:
372,244,190974,6,0,P|368:296|352:320,1,77.0000023498536,8|2,3:0|0:1,0:0:0:0:
240,356,191432,1,4,3:2:0:0:
240,356,191661,1,0,0:0:0:0:
48,320,191890,2,0,P|88:308|136:316,1,77.0000023498536,8|2,0:0|0:3,0:0:0:0:
240,356,192348,1,4,3:2:0:0:
240,356,192577,1,2,3:2:0:0:
256,232,192806,5,8,3:0:0:0:
160,188,193035,1,8,3:2:0:0:
256,144,193264,1,8,3:2:0:0:
356,104,193493,1,8,3:2:0:0:
256,64,193722,2,0,L|96:56,1,154.000004699707,8|4,3:2|3:2,0:0:0:0:
44,148,194409,1,8,3:2:0:0:
44,148,194523,1,0,0:0:0:0:
44,148,194638,5,4,3:0:0:0:
80,232,195554,1,4,3:0:0:0:
116,316,196241,1,8,3:2:0:0:
116,316,196356,1,0,0:0:0:0:
116,316,196470,6,0,L|204:328,1,77.0000023498536,4|2,3:0|3:2,0:0:0:0:
264,224,196928,2,0,L|176:236,1,77.0000023498536,4|2,3:0|3:2,0:0:0:0:
312,304,197386,2,0,P|352:256|328:152,1,154.000004699707,4|8,3:0|0:0,0:0:0:0:
212,20,198302,6,0,L|228:100,1,70,4|0,3:0|0:0,0:0:0:0:
128,84,198760,2,0,L|144:164,1,70,4|0,0:0|0:0,0:0:0:0:
44,148,199218,2,0,L|60:228,1,70,8|0,0:0|0:0,0:0:0:0:
32,324,199676,2,0,L|76:328,3,35,4|2|2|2,3:2|3:2|3:2|3:2,0:0:0:0:
107,352,200134,6,0,P|141:341|175:341,1,70,8|0,0:0|0:0,0:0:0:0:
284,364,200592,2,0,P|318:364|351:353,1,70,4|0,0:0|0:0,0:0:0:0:
452,300,201050,1,8,0:0:0:0:
384,212,201279,1,2,0:0:0:0:
476,148,201508,2,0,L|472:232,1,70,4|2,0:0|0:0,0:0:0:0:
368,288,201966,6,0,P|332:272|308:232,1,70,8|0,0:0|0:0,0:0:0:0:
348,140,202424,2,0,P|308:140|270:113,1,70,4|0,0:0|0:0,0:0:0:0:
268,16,202882,2,0,P|232:32|186:23,1,70,8|0,0:0|0:0,0:0:0:0:
92,32,203340,2,0,L|80:80,3,35,4|2|2|2,3:2|3:2|3:2|3:2,0:0:0:0:
68,112,203798,6,0,L|152:120,1,70,8|0,0:0|0:0,0:0:0:0:
108,228,204256,2,0,L|190:212,1,70,4|0,0:0|0:0,0:0:0:0:
288,196,204714,1,8,0:0:0:0:
244,300,204943,1,2,0:0:0:0:
288,196,205172,2,0,L|296:120,1,70,4|2,0:0|0:0,0:0:0:0:
244,300,205630,6,0,P|292:308|336:296,1,70,8|0,3:0|0:0,0:0:0:0:
176,214,206088,2,0,P|145:251|133:295,1,70,4|0,0:0|0:0,0:0:0:0:
288,196,206546,2,0,P|270:150|238:118,1,70,8|0,0:0|0:0,0:0:0:0:
148,108,207004,2,0,L|104:104,3,35,4|2|2|2,3:2|3:2|3:2|3:2,0:0:0:0:
76,72,207462,6,0,L|164:48,1,70,8|0,0:0|0:0,0:0:0:0:
256,56,207920,2,0,L|344:32,1,70,4|0,0:0|0:0,0:0:0:0:
432,12,208378,1,8,0:0:0:0:
448,108,208607,1,2,0:0:0:0:
372,168,208836,2,0,L|364:256,1,70,4|2,0:0|0:0,0:0:0:0:
440,340,209294,6,0,P|396:324|348:328,1,70,8|0,0:0|0:0,0:0:0:0:
272,276,209752,2,0,P|225:279|183:302,1,70,4|0,0:0|0:0,0:0:0:0:
96,264,210210,2,0,P|54:285|25:324,1,70,8|0,0:0|0:0,0:0:0:0:
40,176,210669,2,0,L|48:140,3,35,4|2|2|2,3:2|3:2|3:2|3:2,0:0:0:0:
60,92,211127,6,0,L|152:92,1,70,8|0,3:0|0:0,0:0:0:0:
172,120,211470,1,2,3:2:0:0:
172,120,211585,2,0,P|216:92|248:96,1,70,4|10,0:0|3:2,0:0:0:0:
336,136,212043,1,10,3:2:0:0:
320,248,212272,1,2,3:2:0:0:
236,172,212501,1,6,3:2:0:0:
