osu file format v14

[General]
AudioFilename: GARNiDELiA - .mp3
AudioLeadIn: 0
PreviewTime: 60450
Countdown: 0
SampleSet: Soft
StackLeniency: 0.3
Mode: 0
LetterboxInBreaks: 0
WidescreenStoryboard: 0

[Editor]
Bookmarks: 450,16938,31595,46251,60908,75564,90220,104877,119533,134190,150679,165335,179991,198312,212969
DistanceSpacing: 1
BeatDivisor: 8
GridSize: 8
TimelineZoom: 1.9

[Metadata]
Title:Gokuraku Jodo
TitleUnicode:極楽浄土
Artist:GARNiDELiA
ArtistUnicode:GARNiDELiA
Creator:Vert
Version:Saika's Another
Source:
Tags:MARiA 極楽浄土 Violet Cry Zweib Mei LunaSaika kanor - Cappuccino - sodarose
BeatmapID:1055190
BeatmapSetID:489039

[Difficulty]
HPDrainRate:6
CircleSize:3.5
OverallDifficulty:8
ApproachRate:9.3
SliderMultiplier:2.4
SliderTickRate:1

[Events]
//Background and Video events
0,0,"BG233.png",0,0
//Break Periods
//Storyboard Layer 0 (Background)
//Storyboard Layer 1 (Fail)
//Storyboard Layer 2 (Pass)
//Storyboard Layer 3 (Foreground)
//Storyboard Sound Samples

[TimingPoints]
440,458.015267175573,4,2,1,50,1,0
1793,-100,4,2,1,70,0,0
15991,-66.6666666666667,4,2,1,70,0,0
16907,-80,4,2,1,75,0,0
29731,-66.6666666666667,4,2,1,75,0,0
31564,-100,4,2,1,65,0,0
46220,-80,4,1,1,65,0,0
60419,-57.1428571428571,4,2,1,75,0,0
60898,-66.6666666666667,4,2,1,80,0,1
67747,-50,4,2,1,80,0,1
68205,-66.6666666666667,4,2,1,80,0,1
75075,-57.1428571428571,4,2,1,80,0,1
75554,-80,4,2,1,75,0,0
88357,-66.6666666666667,4,2,1,75,0,0
88815,-100,4,2,1,60,0,0
90189,-100,4,2,1,55,0,0
96602,-200,4,2,1,55,0,0
97518,-100,4,2,1,55,0,0
101182,-100,4,2,1,65,0,0
103014,-80,4,2,1,65,0,0
103472,-57.1428571428571,4,2,1,65,0,0
104846,-80,4,1,1,65,0,0
119044,-57.1428571428571,4,2,1,75,0,0
119523,-66.6666666666667,4,2,1,80,0,1
126373,-50,4,2,1,80,0,1
126831,-66.6666666666667,4,2,1,80,0,1
134065,-100,4,1,2,55,0,0
135533,-66.6666666666667,4,1,2,55,0,0
135991,-133.333333333333,4,1,2,55,0,0
136678,-80,4,1,2,55,0,0
136907,-100,4,1,2,55,0,0
137823,-133.333333333333,4,1,2,55,0,0
138739,-80,4,1,2,55,0,0
139197,-100,4,1,2,55,0,0
139655,-133.333333333333,4,1,2,55,0,0
140342,-80,4,1,2,55,0,0
140571,-100,4,1,2,55,0,0
141029,-133.333333333333,4,1,2,55,0,0
141716,-80,4,1,2,55,0,0
141945,-100,4,1,2,55,0,0
142403,-133.333333333333,4,1,2,55,0,0
144006,-80,4,1,2,55,0,0
144235,-100,4,1,2,55,0,0
145151,-133.333333333333,4,1,2,55,0,0
146067,-80,4,1,2,55,0,0
146525,-100,4,1,2,55,0,0
146983,-133.333333333333,4,1,2,55,0,0
147670,-80,4,1,2,55,0,0
147899,-100,4,1,2,55,0,0
149731,-80,4,1,2,55,0,0
150648,-100,4,1,2,60,0,0
153396,-80,4,1,2,60,0,0
153625,-100,4,1,2,60,0,0
153968,-133.333333333333,4,1,2,60,0,0
154312,-100,4,1,2,60,0,0
155228,-80,4,1,2,60,0,0
156144,-133.333333333333,4,1,2,50,0,0
156602,-100,4,1,2,55,0,0
157060,-80,4,1,2,60,0,0
157518,-66.6666666666667,4,1,2,65,0,0
157976,-100,4,1,2,70,0,0
159808,-133.333333333333,4,1,2,70,0,0
160724,-80,4,1,2,70,0,0
161639,-133.333333333333,4,1,2,70,0,0
164388,-80,4,1,2,70,0,0
165304,-100,4,3,1,70,0,0
171716,-100,4,3,2,70,0,0
171773,-100,4,3,1,70,0,0
172632,-100,4,3,1,60,0,0
173090,-90.9090909090909,4,3,1,62,0,0
173548,-83.3333333333333,4,3,1,64,0,0
174006,-76.9230769230769,4,3,1,66,0,0
174464,-71.4285714285714,4,3,1,68,0,0
174922,-66.6666666666667,4,3,1,70,0,0
175380,-62.5,4,3,1,72,0,0
175838,-58.8235294117647,4,3,1,74,0,0
176296,-66.6666666666667,4,3,1,80,0,0
178149,-50,4,3,1,80,0,1
178207,-50,4,2,1,40,0,0
179044,-57.1428571428571,4,2,1,80,0,0
179502,-133.333333333333,4,2,1,80,0,0
179981,-66.6666666666667,4,2,1,80,0,1
186831,-50,4,2,1,80,0,1
187289,-66.6666666666667,4,2,1,80,0,1
194409,-66.6666666666667,4,2,1,80,0,0
194638,-66.6666666666667,4,2,1,80,0,1
194867,-66.6666666666667,4,2,1,80,0,0
195554,-66.6666666666667,4,2,1,80,0,1
195783,-66.6666666666667,4,2,1,80,0,0
196470,-66.6666666666667,4,2,1,80,0,1
197157,-66.6666666666667,4,2,1,80,0,0
197386,-66.6666666666667,4,2,1,80,0,1
197844,-66.6666666666667,4,2,1,80,0,0
198302,-80,4,2,1,75,0,1
198417,-80,4,2,1,75,0,0
211106,-66.6666666666667,4,2,1,75,0,0
212480,-80,4,2,1,75,0,0
213338,-80,4,2,1,5,0,0

[Colours]
Combo1 : 255,175,96
Combo2 : 255,128,255
Combo3 : 255,128,128
Combo4 : 128,255,255

[HitObjects]
256,192,440,12,0,1585,0:0:0:0:
153,32,1814,5,2,3:2:0:0:
365,114,2043,1,0,3:0:0:0:
211,363,2272,1,8,3:0:0:0:
211,363,2959,5,2,0:0:0:0:
269,27,3188,1,8,0:0:0:0:
269,27,3875,5,2,0:0:0:0:
377,125,4104,2,0,P|439:127|490:96,1,120,8|2,0:0|0:0,0:0:0:0:
399,292,4562,2,0,P|347:262|288:265,1,120,8|2,0:0|0:0,0:0:0:0:
61,333,5020,2,0,P|141:335|158:242,1,180,8|0,0:0|0:0,0:0:0:0:
143,231,5478,5,10,3:2:0:0:
262,370,5707,1,0,3:0:0:0:
498,303,5936,1,8,3:0:0:0:
498,303,6623,5,2,0:0:0:0:
420,34,6852,1,8,0:0:0:0:
420,34,7539,5,0,0:0:0:0:
288,88,7768,2,0,P|271:141|272:209,1,120,8|2,0:0|0:0,0:0:0:0:
460,159,8226,2,0,P|460:99|443:42,1,120,8|2,0:0|0:0,0:0:0:0:
297,294,8684,2,0,L|481:282,1,180,8|0,0:0|0:0,0:0:0:0:
498,281,9142,5,8,3:2:0:0:
429,45,9371,1,2,3:2:0:0:
369,39,9485,1,0,3:0:0:0:
309,34,9600,6,0,L|299:97,1,60,8|0,3:0|0:0,0:0:0:0:
172,131,9829,2,0,L|162:71,1,60,2|0,0:0|0:0,0:0:0:0:
219,2,10058,1,4,0:0:0:0:
225,206,10287,1,2,0:0:0:0:
225,206,10401,1,0,0:0:0:0:
225,206,10516,6,0,P|187:221|152:220,1,60,8|0,0:0|0:0,0:0:0:0:
21,151,10745,2,0,P|50:154|77:167,1,60,2|0,0:0|0:0,0:0:0:0:
100,308,10974,1,4,0:0:0:0:
306,275,11203,1,2,0:0:0:0:
306,275,11317,1,0,0:0:0:0:
306,275,11432,6,0,L|318:340,1,60,8|0,0:0|0:0,0:0:0:0:
455,368,11661,2,0,L|465:308,1,60,2|0,0:0|0:0,0:0:0:0:
416,77,11890,1,4,0:0:0:0:
384,193,12119,1,2,3:2:0:0:
499,161,12348,5,8,0:0:0:0:
241,101,12577,1,2,0:0:0:0:
241,101,12691,1,0,0:0:0:0:
241,101,12806,1,4,0:0:0:0:
305,335,13035,1,2,0:0:0:0:
298,33,13264,6,0,P|210:15|153:79,1,180,8|0,3:0|0:0,0:0:0:0:
260,215,13722,2,0,B|323:241|384:212|384:212|334:196,1,180,4|0,0:0|0:0,0:0:0:0:
166,171,14180,2,0,B|137:267|196:259|167:351,1,180,8|0,0:0|0:0,0:0:0:0:
24,352,14638,2,0,P|21:274|85:312,1,180,4|0,0:0|0:0,0:0:0:0:
75,325,15096,6,0,P|37:326|9:318,1,60,8|0,0:0|0:0,0:0:0:0:
53,231,15325,1,4,0:0:0:0:
144,259,15440,1,2,0:0:0:0:
144,259,15497,1,2,0:0:0:0:
144,259,15554,2,0,P|164:290|170:319,1,60,8|0,0:0|0:0,0:0:0:0:
53,231,15783,2,0,P|69:197|92:177,1,60,8|0,0:0|0:0,0:0:0:0:
403,58,16012,6,0,B|340:53|340:53|293:72|293:72|221:67|221:67|233:22|288:39,1,270.000010299683,4|0,0:0|0:0,0:0:0:0:
288,39,16470,6,0,B|242:57|242:57|201:43|201:43|160:55|160:55|116:42|116:42|77:60|77:60|31:49,1,270.000010299683,8|0,3:0|0:0,0:0:0:0:
32,49,16928,6,0,P|25:112|129:73,1,225,4|0,3:0|0:0,0:0:0:0:
187,321,17386,2,0,P|116:257|89:348,1,225,4|0,0:0|0:0,0:0:0:0:
226,123,17844,2,0,P|296:186|323:95,1,225,8|0,0:0|0:0,0:0:0:0:
199,236,18302,5,4,3:2:0:0:
187,321,18417,1,2,3:2:0:0:
263,358,18531,1,2,3:2:0:0:
324,296,18646,1,2,3:2:0:0:
282,220,18760,6,0,P|192:212|197:329,1,225,8|0,0:0|0:0,0:0:0:0:
324,296,19218,2,0,P|365:191|283:133,1,225,4|0,0:0|0:0,0:0:0:0:
137,161,19676,6,0,P|126:203|140:243,1,75,8|0,0:0|0:0,0:0:0:0:
230,60,19905,2,0,P|213:19|179:-4,1,75,2|0,0:0|0:0,0:0:0:0:
213,196,20134,2,0,P|250:218|291:218,1,75,4|0,0:0|0:0,0:0:0:0:
147,76,20363,2,0,P|103:79|69:104,1,75,2|0,0:0|0:0,0:0:0:0:
271,134,20592,6,0,B|309:114|316:69|316:69|364:118|449:114,1,225,8|0,0:0|0:0,0:0:0:0:
312,202,21050,2,0,P|255:213|218:75,1,225,4|0,0:0|0:0,0:0:0:0:
395,146,21508,2,0,B|403:220|403:220|378:268|378:268|390:371,1,225,8|0,0:0|0:0,0:0:0:0:
306,374,21966,5,4,3:2:0:0:
249,303,22081,1,2,3:2:0:0:
163,276,22195,1,2,3:2:0:0:
72,292,22310,1,2,3:2:0:0:
9,353,22424,6,0,B|67:380|67:380|237:349,1,225,8|0,0:0|0:0,0:0:0:0:
287,165,22882,2,0,B|229:138|229:138|70:167,1,225,4|0,0:0|0:0,0:0:0:0:
11,265,23340,5,8,0:0:0:0:
0,312,23455,1,0,0:0:0:0:
16,360,23569,2,0,L|94:371,1,75,2|0,0:0|0:0,0:0:0:0:
306,257,23798,5,4,0:0:0:0:
320,208,23913,1,0,0:0:0:0:
299,165,24027,2,0,L|220:174,1,75,2|0,0:0|0:0,0:0:0:0:
264,352,24256,6,0,B|375:369|359:305|495:345,1,225,8|0,3:0|0:0,0:0:0:0:
343,81,24714,2,0,B|232:64|248:128|112:88,1,225,4|0,2:0|0:0,0:0:0:0:
319,5,25172,2,0,P|416:52|385:148,1,225,8|0,0:0|0:0,0:0:0:0:
260,268,25630,5,4,3:2:0:0:
336,220,25745,1,2,3:2:0:0:
378,298,25859,1,2,3:2:0:0:
303,348,25974,1,2,3:2:0:0:
240,284,26088,6,0,P|325:262|389:375,1,225,8|0,0:0|0:0,0:0:0:0:
168,352,26546,2,0,P|63:366|16:272,1,225,4|0,0:0|0:0,0:0:0:0:
86,62,27004,5,8,0:0:0:0:
185,131,27233,1,2,0:0:0:0:
185,131,27348,1,0,0:0:0:0:
185,131,27462,2,0,L|195:225,1,75,4|0,0:0|0:0,0:0:0:0:
320,264,27691,2,0,L|330:170,1,75,2|0,0:0|0:0,0:0:0:0:
282,110,27920,6,0,P|390:129|391:30,1,225,8|0,0:0|0:0,0:0:0:0:
255,0,28378,2,0,P|153:-2|15:31,1,225,4|0,0:0|0:0,0:0:0:0:
0,293,28836,2,0,P|109:318|221:317,1,225,8|0,0:0|0:0,0:0:0:0:
298,200,29294,1,4,3:2:0:0:
282,110,29409,1,2,3:2:0:0:
193,126,29523,1,2,3:2:0:0:
208,215,29638,1,2,3:2:0:0:
267,281,29752,6,0,B|335:297|370:245|370:245|348:285|351:336|393:354|436:328,1,270.000010299683,8|2,3:0|3:2,0:0:0:0:
447,344,30153,1,0,3:0:0:0:
447,344,30210,6,0,L|451:241,1,90.0000034332277,4|0,0:0|0:0,0:0:0:0:
263,191,30440,2,0,L|267:294,1,90.0000034332277,10|0,3:2|0:0,0:0:0:0:
345,87,30669,6,0,P|293:72|252:74,1,90.0000034332277,8|0,3:2|0:0,0:0:0:0:
179,267,30898,2,0,P|231:282|272:280,1,90.0000034332277,2|0,3:2|0:0,0:0:0:0:
498,182,31127,5,6,3:2:0:0:
498,182,31585,6,0,P|443:166|368:166,1,120,8|2,3:0|0:0,0:0:0:0:
380,164,31928,1,0,0:0:0:0:
380,164,32043,1,8,0:0:0:0:
88,248,32272,2,0,P|89:275|95:316,1,60,2|0,3:0|0:0,0:0:0:0:
60,337,32501,6,0,P|119:338|177:354,1,120,8|2,0:0|0:0,0:0:0:0:
177,354,32844,1,0,0:0:0:0:
177,354,32959,1,8,0:0:0:0:
276,195,33188,2,0,P|275:168|269:127,1,60,2|0,3:0|0:0,0:0:0:0:
270,135,33417,6,0,P|205:138|194:199,1,120,8|0,0:0|0:0,0:0:0:0:
288,324,33875,2,0,P|345:307|405:306,1,120,8|2,0:0|3:0,0:0:0:0:
431,374,34218,1,0,0:0:0:0:
413,364,34333,6,0,P|404:333|412:281,1,60,8|0,0:0|0:0,0:0:0:0:
479,176,34562,2,0,P|488:207|480:259,1,60,2|0,3:0|0:0,0:0:0:0:
333,226,34791,2,0,L|414:221,1,60,8|0,0:0|0:0,0:0:0:0:
319,353,35020,2,0,L|259:349,1,60,2|0,3:0|0:0,0:0:0:0:
128,315,35249,6,0,P|71:301|28:339,1,120,8|2,0:0|0:0,0:0:0:0:
31,353,35592,1,0,0:0:0:0:
33,365,35707,2,0,P|89:378|132:340,1,120,8|2,0:0|3:0,0:0:0:0:
134,218,36050,1,0,0:0:0:0:
121,207,36165,6,0,L|42:214,1,60,8|0,0:0|0:0,0:0:0:0:
227,147,36394,2,0,L|287:153,1,60,2|0,0:0|0:0,0:0:0:0:
154,33,36623,1,8,0:0:0:0:
220,299,36852,1,2,3:0:0:0:
402,134,37081,6,0,B|334:130|334:130|285:151|285:151|202:145,1,180,8|0,0:0|0:0,0:0:0:0:
80,82,37539,2,0,P|67:46|71:9,1,60,8|0,0:0|0:0,0:0:0:0:
239,89,37768,2,0,P|237:118|226:146,1,60,2|0,3:0|0:0,0:0:0:0:
103,212,37997,5,8,0:0:0:0:
333,66,38226,1,2,3:0:0:0:
333,66,38340,1,0,0:0:0:0:
333,66,38455,1,8,0:0:0:0:
363,337,38684,2,0,P|328:331|287:331,1,60,2|0,3:0|0:0,0:0:0:0:
272,249,38913,6,0,P|337:249|394:230,1,120,8|2,3:0|0:0,0:0:0:0:
421,146,39256,1,0,0:0:0:0:
421,146,39371,1,8,0:0:0:0:
184,188,39600,2,0,P|169:229|166:256,1,60,2|0,3:0|0:0,0:0:0:0:
195,334,39829,6,0,P|137:316|78:317,1,120,8|2,0:0|0:0,0:0:0:0:
0,356,40172,1,0,0:0:0:0:
0,356,40287,1,8,0:0:0:0:
83,172,40516,2,0,P|77:142|65:114,1,60,2|0,3:0|0:0,0:0:0:0:
65,114,40745,6,0,P|122:127|158:78,1,120,8|2,0:0|0:0,0:0:0:0:
348,19,41203,2,0,P|334:84|341:150,1,120,8|2,0:0|3:0,0:0:0:0:
379,232,41546,1,0,0:0:0:0:
388,218,41661,6,0,P|420:208|461:205,1,60,8|0,0:0|0:0,0:0:0:0:
388,324,41890,2,0,P|358:320|329:310,1,60,2|0,3:0|0:0,0:0:0:0:
282,156,42119,2,0,L|286:222,1,60,8|0,0:0|0:0,0:0:0:0:
212,357,42348,2,0,P|183:366|153:370,1,60,2|0,3:0|0:0,0:0:0:0:
18,340,42577,5,8,3:2:0:0:
97,22,42806,1,2,3:0:0:0:
186,251,43035,2,0,P|247:262|314:295,1,120,4|2,3:0|0:0,0:0:0:0:
355,359,43378,1,0,0:0:0:0:
355,359,43493,5,8,3:2:0:0:
83,269,43722,1,2,3:0:0:0:
294,185,43951,2,0,P|316:126|320:60,1,120,4|2,3:0|0:0,0:0:0:0:
271,0,44294,1,0,0:0:0:0:
271,0,44409,6,0,P|267:82|286:195,1,180,4|0,3:0|0:0,0:0:0:0:
493,267,44867,2,0,P|506:178|503:88,1,180,8|0,0:0|0:0,0:0:0:0:
452,8,45325,1,4,3:0:0:0:
106,86,46241,6,0,P|66:85|26:72,1,75,4|0,0:3|0:0,0:0:0:0:
69,220,46470,2,0,P|104:209|142:209,1,75,2|0,0:0|0:0,0:0:0:0:
224,66,46699,2,0,P|232:101|230:146,1,75,8|0,0:0|0:0,0:0:0:0:
176,315,46928,1,2,0:3:0:0:
340,309,47157,6,0,P|376:319|414:338,1,75,4|0,0:2|0:0,0:0:0:0:
512,178,47386,2,0,P|480:199|441:210,1,75,2|0,0:3|0:0,0:0:0:0:
331,155,47615,2,0,P|323:112|303:66,1,75,2|0,0:3|0:0,0:0:0:0:
83,154,47844,6,0,P|157:137|234:140,1,150,2|0,0:0|0:0,0:0:0:0:
156,353,48302,2,0,P|81:355|8:338,1,150,8|0,0:0|0:0,0:0:0:0:
106,65,48760,1,2,0:0:0:0:
230,139,48989,6,0,P|239:178|239:231,1,75,4|0,0:2|0:0,0:0:0:0:
61,252,49218,2,0,P|62:214|71:178,1,75,2|0,0:3|0:0,0:0:0:0:
193,56,49447,2,0,P|234:57|283:45,1,75,2|0,0:3|0:0,0:0:0:0:
354,218,49676,5,2,0:2:0:0:
316,216,49791,1,0,0:0:0:0:
279,223,49905,1,8,0:3:0:0:
491,359,50134,5,2,0:0:0:0:
407,71,50363,1,4,0:2:0:0:
325,316,50592,1,2,0:3:0:0:
505,181,50821,2,0,P|469:169|412:170,1,75,8|0,0:0|0:0,0:0:0:0:
263,243,51050,2,0,P|298:231|335:228,1,75,2|0,0:0|0:0,0:0:0:0:
452,270,51279,1,2,0:3:0:0:
257,371,51508,6,0,P|182:372|101:342,1,150,8|0,0:0|0:0,0:0:0:0:
10,348,51966,2,0,P|21:306|23:254,1,75,2|0,0:3|0:0,0:0:0:0:
100,114,52195,2,0,P|103:151|113:187,1,75,4|0,0:2|0:0,0:0:0:0:
215,281,52424,2,0,P|178:289|135:287,1,75,2|0,0:3|0:0,0:0:0:0:
203,85,52653,2,0,P|240:84|276:92,1,75,2|0,0:3|0:0,0:0:0:0:
347,194,52882,5,8,0:0:0:0:
153,369,53111,1,4,0:2:0:0:
100,114,53340,1,2,0:3:0:0:
215,281,53569,6,0,P|174:268|135:267,1,75,4|0,0:3|0:0,0:0:0:0:
0,349,53798,2,0,P|37:346|72:334,1,75,2|0,0:0|0:0,0:0:0:0:
225,383,54027,2,0,P|187:380|152:368,1,75,8|0,0:0|0:0,0:0:0:0:
16,248,54256,1,2,0:3:0:0:
100,114,54485,6,0,P|135:102|172:99,1,75,4|0,0:2|0:0,0:0:0:0:
287,152,54714,2,0,P|289:192|279:241,1,75,2|0,0:3|0:0,0:0:0:0:
409,81,54943,2,0,P|403:43|405:6,1,75,2|0,0:3|0:0,0:0:0:0:
510,244,55172,6,0,P|458:201|372:225,1,150,2|0,0:0|0:0,0:0:0:0:
159,181,55630,2,0,P|229:197|287:152,1,150,8|0,0:0|0:0,0:0:0:0:
70,22,56088,1,2,0:3:0:0:
22,247,56317,6,0,P|54:240|109:243,1,75,4|0,0:2|0:0,0:0:0:0:
201,364,56546,2,0,P|205:325|198:276,1,75,2|0,0:3|0:0,0:0:0:0:
319,352,56775,2,0,P|351:359|406:356,1,75,2|0,0:3|0:0,0:0:0:0:
437,152,57004,5,2,0:2:0:0:
400,144,57119,1,0,0:0:0:0:
362,145,57233,1,8,0:3:0:0:
479,36,57462,5,2,0:0:0:0:
236,107,57691,1,4,0:2:0:0:
394,246,57920,1,2,0:3:0:0:
369,71,58149,6,0,P|360:113|364:156,1,75,8|0,0:0|0:0,0:0:0:0:
388,270,58378,2,0,P|433:261|486:262,1,75,2|0,0:0|0:0,0:0:0:0:
267,372,58607,2,0,P|229:370|193:362,1,75,2|0,0:3|0:0,0:0:0:0:
87,140,58836,5,4,0:2:0:0:
256,192,58894,12,8,59981,2:0:0:0:
87,140,60440,6,0,B|69:81|103:41|103:41|153:47|182:102,1,210.000002002716,4|0,0:0|3:0,0:0:0:0:
138,217,60783,1,2,3:2:0:0:
123,231,60898,6,0,P|69:236|25:218,1,90.0000034332277,12|0,0:3|0:0,0:0:0:0:
47,382,61127,2,0,P|89:369|134:375,1,90.0000034332277,2|0,0:1|0:0,0:0:0:0:
234,249,61356,6,0,P|238:197|219:151,1,90.0000034332277,4|0,0:0|0:0,0:0:0:0:
11,90,61585,2,0,P|-2:132|2:177,1,90.0000034332277,2|0,0:3|0:0,0:0:0:0:
205,333,61814,6,0,P|258:333|302:305,1,90.0000034332277,8|0,0:0|0:0,0:0:0:0:
348,52,62043,1,2,3:0:0:0:
270,96,62157,1,0,3:0:0:0:
347,142,62272,1,4,3:2:0:0:
216,18,62501,1,2,3:1:0:0:
176,94,62615,1,2,3:1:0:0:
215,171,62730,6,0,L|324:180,1,90.0000034332277,8|0,0:3|0:0,0:0:0:0:
114,26,62959,2,0,L|24:32,1,90.0000034332277,2|0,0:1|0:0,0:0:0:0:
95,286,63188,6,0,P|91:219|97:149,1,135.000005149841,4|0,0:0|0:0,0:0:0:0:
219,82,63417,2,0,P|221:122|212:188,1,90.0000034332277,2|0,0:3|0:0,0:0:0:0:
9,121,63646,5,8,0:0:0:0:
484,221,63875,1,6,3:2:0:0:
147,361,64104,1,6,3:2:0:0:
229,51,64333,1,2,3:1:0:0:
265,132,64447,1,2,3:1:0:0:
258,220,64562,6,0,P|172:220|66:251,1,180.000006866455,8|0,3:0|0:0,0:0:0:0:
373,355,65020,2,0,P|374:278|405:153,1,180.000006866455,4|2,0:0|0:3,0:0:0:0:
464,120,65363,1,0,0:0:0:0:
488,206,65478,6,0,P|436:196|384:199,1,90.0000034332277,2|0,0:1|0:0,0:0:0:0:
284,364,65707,2,0,P|328:364|372:354,1,90.0000034332277,8|0,0:0|0:0,0:0:0:0:
300,139,65936,6,0,P|291:179|291:227,1,90.0000034332277,4|0,0:0|0:0,0:0:0:0:
373,355,66165,1,10,0:0:0:0:
350,68,66394,6,0,B|295:35|230:60|216:122|216:122|185:81|121:80,1,270.000010299683,8|2,0:3|0:1,0:0:0:0:
15,117,66852,2,0,P|9:172|11:227,1,90.0000034332277,4|0,0:2|0:2,0:2:0:0:
54,346,67081,2,0,P|98:339|148:340,1,90.0000034332277,2|0,0:3|0:0,0:0:0:0:
273,276,67310,2,0,P|317:283|367:282,1,90.0000034332277,8|0,0:0|0:0,0:0:0:0:
421,125,67539,5,2,3:0:0:0:
451,209,67653,1,0,3:0:0:0:
509,140,67768,2,0,P|470:49|351:182,1,360,6|0,3:2|0:0,0:0:0:0:
391,274,68226,6,0,B|289:296|311:235|206:261,1,180.000006866455,12|2,3:0|0:1,0:0:0:0:
138,305,68569,1,0,0:0:0:0:
218,347,68684,2,0,P|222:302|213:250,1,90.0000034332277,4|0,0:0|0:0,0:0:0:0:
28,215,68913,2,0,P|21:259|25:304,1,90.0000034332277,2|0,0:3|0:0,0:0:0:0:
93,132,69142,6,0,P|43:113|4:113,1,90.0000034332277,8|0,0:0|0:0,0:0:0:0:
218,211,69371,2,0,P|262:208|304:191,1,90.0000034332277,2|0,0:3|0:0,0:0:0:0:
199,8,69600,1,4,0:0:0:0:
34,235,69829,1,2,3:1:0:0:
92,302,69943,1,2,3:1:0:0:
124,218,70058,6,0,L|119:122,1,90.0000034332277,8|0,0:3|0:0,0:0:0:0:
68,53,70287,1,2,0:3:0:0:
119,128,70401,1,0,0:0:0:0:
206,152,70516,2,0,P|256:149|313:128,1,90.0000034332277,4|0,0:0|0:0,0:0:0:0:
336,341,70745,2,0,P|292:328|248:326,1,90.0000034332277,2|0,0:3|0:0,0:0:0:0:
12,364,70974,5,8,0:0:0:0:
191,26,71203,1,6,3:2:0:0:
503,247,71432,1,6,3:2:0:0:
205,359,71661,5,2,3:1:0:0:
192,270,71775,1,2,3:1:0:0:
206,181,71890,2,0,P|252:187|296:205,1,90.0000034332277,8|0,0:3|0:0,0:0:0:0:
205,359,72119,2,0,P|163:375|118:380,1,90.0000034332277,2|0,0:1|0:0,0:0:0:0:
379,357,72348,1,4,3:2:0:0:
365,370,72577,6,0,P|365:325|376:279,1,90.0000034332277,2|0,0:3|0:0,0:0:0:0:
499,179,72806,2,0,P|509:222|509:267,1,90.0000034332277,8|0,0:0|0:0,0:0:0:0:
269,209,73035,2,0,P|269:164|280:118,1,90.0000034332277,2|0,0:3|0:0,0:0:0:0:
385,6,73264,1,6,3:2:0:0:
371,24,73493,5,2,3:0:0:0:
323,37,73607,1,2,3:2:0:0:
278,15,73722,6,0,P|287:66|280:128,1,90.0000034332277,8|0,3:0|0:0,0:0:0:0:
150,252,73951,2,0,P|105:253|61:245,1,90.0000034332277,8|0,3:2|0:0,0:0:0:0:
370,198,74180,2,0,P|414:189|458:191,1,90.0000034332277,8|0,3:2|0:0,0:0:0:0:
268,351,74409,2,0,P|259:306|261:261,1,90.0000034332277,8|0,3:2|0:0,0:0:0:0:
365,81,74638,6,0,P|250:88|95:58,1,270.000010299683,10|0,3:2|0:0,0:0:0:0:
30,5,75096,6,0,B|78:79|71:186|45:233|31:237|16:239|4:234|-5:226|-11:215|-12:199|-9:183|0:170,1,315.000003004074,6|0,3:2|0:0,0:0:0:0:
11,163,75554,6,0,P|107:161|131:271,1,225,4|0,3:0|0:0,0:0:0:0:
242,355,76012,2,0,P|338:357|362:247,1,225,4|0,0:0|0:0,0:0:0:0:
225,129,76470,2,0,P|241:231|345:235,1,225,8|0,0:0|0:0,0:0:0:0:
486,82,76928,5,4,3:2:0:0:
397,65,77043,1,2,3:2:0:0:
316,105,77157,1,2,3:2:0:0:
255,37,77272,1,2,3:2:0:0:
170,67,77386,6,0,B|106:88|52:58|52:58|5:75|3:145,1,225,8|0,0:0|0:0,0:0:0:0:
89,231,77844,2,0,B|153:252|207:222|207:222|254:239|256:309,1,225,4|0,0:0|0:0,0:0:0:0:
162,368,78302,6,0,P|124:371|74:361,1,75,8|0,0:0|0:0,0:0:0:0:
2,275,78531,2,0,P|-3:238|0:201,1,75,2|0,0:0|0:0,0:0:0:0:
67,67,78760,2,0,P|105:70|155:60,1,75,4|0,0:0|0:0,0:0:0:0:
254,23,78989,2,0,P|259:59|256:97,1,75,2|0,0:0|0:0,0:0:0:0:
216,275,79218,6,0,B|210:344|261:371|261:371|315:343|308:273,1,225,8|0,0:0|0:0,0:0:0:0:
364,177,79676,2,0,P|261:127|165:171,1,225,4|0,0:0|0:0,0:0:0:0:
170,332,80134,2,0,B|232:327|262:275|262:275|290:326|356:335,1,225,8|0,0:0|0:0,0:0:0:0:
484,237,80592,5,4,3:2:0:0:
508,149,80707,1,2,3:2:0:0:
465,70,80821,1,2,3:2:0:0:
382,33,80936,1,2,3:2:0:0:
296,59,81050,6,0,B|220:53|220:53|155:28|108:79,1,187.5,8|0,0:0|0:0,0:0:0:0:
180,143,81508,2,0,P|89:165|20:66,1,225,4|0,0:0|0:0,0:0:0:0:
0,280,81966,5,8,0:0:0:0:
50,262,82081,1,0,0:0:0:0:
97,265,82195,2,0,P|108:305|103:360,1,75,2|0,0:0|0:0,0:0:0:0:
303,331,82424,5,4,0:0:0:0:
250,333,82539,1,0,0:0:0:0:
207,311,82653,2,0,P|210:269|233:219,1,75,2|0,0:0|0:0,0:0:0:0:
426,140,82882,6,0,P|463:226|475:358,1,225,8|0,3:0|0:0,0:0:0:0:
315,373,83340,2,0,P|234:343|89:344,1,225,4|0,0:0|0:0,0:0:0:0:
3,264,83798,2,0,P|26:166|96:225,1,225,8|0,0:0|0:0,0:0:0:0:
97,343,84256,5,4,3:2:0:0:
165,284,84371,1,2,3:2:0:0:
250,258,84485,1,2,3:2:0:0:
339,270,84600,1,2,3:2:0:0:
421,305,84714,6,0,B|478:300|498:254|498:254|511:340|428:358,1,225,8|0,0:0|0:0,0:0:0:0:
286,339,85172,2,0,L|292:88,1,225,4|0,0:0|0:0,0:0:0:0:
314,32,85630,6,0,P|270:29|229:19,1,75,8|0,0:0|0:0,0:0:0:0:
375,144,85859,2,0,P|419:147|460:157,1,75,2|0,0:0|0:0,0:0:0:0:
210,183,86088,1,4,0:0:0:0:
421,49,86317,1,2,0:0:0:0:
323,288,86546,6,0,P|218:268|97:269,1,225,8|0,0:0|0:0,0:0:0:0:
35,51,87004,2,0,P|147:52|257:31,1,225,4|0,0:0|0:0,0:0:0:0:
288,146,87462,2,0,P|401:157|440:250,1,225,8|0,0:0|0:0,0:0:0:0:
216,327,87920,5,4,3:2:0:0:
243,241,88035,1,2,3:2:0:0:
333,241,88149,1,2,3:2:0:0:
361,327,88264,1,2,3:2:0:0:
288,379,88378,6,0,B|203:381|133:334|133:334|80:329|17:363,1,270.000010299683,8|0,3:0|0:0,0:0:0:0:
15,377,88836,6,0,L|18:318,1,60,2|0,0:0|0:0,0:0:0:0:
146,216,89065,2,0,L|149:275,1,60,2|0,3:2|0:0,0:0:0:0:
123,371,89294,1,0,3:0:0:0:
46,144,89523,1,2,0:0:0:0:
372,209,89752,1,2,3:2:0:0:
248,354,90210,5,8,0:0:0:0:
248,354,90440,2,0,L|123:346,1,120,2|0,0:0|0:0,0:0:0:0:
108,368,90783,2,0,L|116:243,1,120,2|0,0:0|0:0,0:0:0:0:
94,228,91127,2,0,L|219:236,1,120,2|0,0:0|0:0,0:0:0:0:
236,256,91470,2,0,L|244:131,1,120,2|0,0:0|0:0,0:0:0:0:
224,31,91814,1,2,0:0:0:0:
23,82,92043,5,8,0:0:0:0:
23,82,92272,2,0,P|72:104|145:86,1,120,2|0,0:0|0:0,0:0:0:0:
131,182,92615,2,0,P|180:160|253:178,1,120,2|0,0:0|0:0,0:0:0:0:
243,88,92959,2,0,P|300:100|355:77,1,120,2|0,0:0|0:0,0:0:0:0:
370,161,93302,2,0,P|427:148|482:171,1,120,2|0,0:0|0:0,0:0:0:0:
504,267,93646,1,2,0:0:0:0:
415,20,93875,5,8,0:0:0:0:
415,20,94104,2,0,L|416:154,1,120,2|0,0:0|0:0,0:0:0:0:
511,249,94447,2,0,L|510:129,1,120,2|0,0:0|0:0,0:0:0:0:
323,62,94791,2,0,L|324:182,1,120,2|0,0:0|0:0,0:0:0:0:
375,289,95134,2,0,P|321:258|255:273,1,120,2|0,0:0|0:0,0:0:0:0:
251,349,95478,2,0,P|305:380|371:365,1,120,2|8,0:0|0:0,0:0:0:0:
211,131,95936,5,2,0:0:0:0:
58,203,96165,1,0,3:0:0:0:
54,234,96279,1,2,0:0:0:0:
266,266,96508,1,0,0:0:0:0:
262,235,96623,6,0,B|321:231|321:231|363:246|363:246|474:237,1,210,10|0,0:0|0:0,0:0:0:0:
486,228,97539,6,0,P|506:169|471:108,1,120,8|2,3:0|0:0,0:0:0:0:
483,118,97882,1,0,0:0:0:0:
483,118,97997,1,4,0:0:0:0:
314,42,98226,2,0,L|309:110,1,60,2|0,0:3|0:0,0:0:0:0:
328,133,98455,6,0,P|266:119|191:123,1,120,8|2,0:0|0:0,0:0:0:0:
154,249,98798,1,0,0:0:0:0:
165,267,98913,2,0,P|227:281|302:277,1,120,4|2,0:0|0:3,0:0:0:0:
40,203,99371,6,0,P|29:261|34:321,1,120,8|0,0:0|0:0,0:0:0:0:
148,361,99714,1,0,0:0:0:0:
163,355,99829,2,0,P|172:314|173:277,1,60,4|0,0:0|0:0,0:0:0:0:
178,160,100058,2,0,P|148:163|119:170,1,60,2|0,0:3|0:0,0:0:0:0:
250,260,100287,6,0,P|279:267|308:270,1,60,8|0,0:0|0:0,0:0:0:0:
416,222,100516,1,2,0:3:0:0:
416,222,100630,1,0,0:0:0:0:
416,222,100745,2,0,P|425:263|426:300,1,60,4|0,0:0|0:0,0:0:0:0:
512,341,100974,2,0,P|480:369|449:388,1,60,2|0,0:3|0:0,0:0:0:0:
306,365,101203,5,4,3:0:0:0:
253,119,101432,1,4,3:0:0:0:
182,259,101890,5,2,3:2:0:0:
182,259,102004,1,0,3:0:0:0:
182,259,102119,1,4,3:0:0:0:
235,13,102348,1,4,3:0:0:0:
325,177,102806,5,2,3:2:0:0:
253,119,102920,1,0,3:0:0:0:
253,119,102978,1,0,0:0:0:0:
253,119,103035,6,0,L|165:126,1,75,4|0,3:0|0:0,0:0:0:0:
18,199,103264,2,0,L|92:204,1,75,8|0,3:2|0:0,0:0:0:0:
188,316,103493,6,0,L|178:195,1,105.000001001358,4|0,3:2|0:0,0:0:0:0:
70,11,103722,2,0,L|60:132,1,105.000001001358,8|0,3:2|0:0,0:0:0:0:
103,364,103951,5,4,3:0:0:0:
256,192,104008,12,8,104638,0:0:0:0:
385,48,104867,6,0,P|392:89|388:144,1,75,4|0,0:3|0:0,0:0:0:0:
216,89,105096,2,0,P|215:51|222:14,1,75,2|0,0:3|0:0,0:0:0:0:
299,185,105325,2,0,P|257:179|206:181,1,75,8|0,0:0|0:0,0:0:0:0:
61,208,105554,1,2,0:0:0:0:
123,353,105783,6,0,P|165:359|216:357,1,75,4|0,0:2|0:0,0:0:0:0:
367,384,106012,2,0,P|406:355|445:342,1,75,2|0,0:3|0:0,0:0:0:0:
291,273,106241,2,0,P|251:258|219:227,1,75,2|0,0:3|0:0,0:0:0:0:
288,36,106470,6,0,P|301:102|297:193,1,150,2|0,0:0|0:0,0:0:0:0:
216,89,106928,2,0,P|173:75|115:69,1,75,8|0,0:0|0:0,0:0:0:0:
0,97,107157,2,0,P|30:63|77:29,1,75,2|0,0:3|0:0,0:0:0:0:
209,1,107386,1,2,0:0:0:0:
136,192,107615,6,0,L|40:176,1,75,4|0,0:2|0:0,0:0:0:0:
238,263,107844,2,0,L|311:250,1,75,2|0,0:3|0:0,0:0:0:0:
150,364,108073,2,0,P|144:316|147:266,1,75,2|0,0:3|0:0,0:0:0:0:
233,89,108302,5,2,0:2:0:0:
238,126,108417,1,0,0:0:0:0:
238,163,108531,1,8,0:3:0:0:
54,268,108760,5,2,0:0:0:0:
143,138,108989,1,4,0:2:0:0:
212,372,109218,1,2,0:3:0:0:
159,271,109447,6,0,P|187:261|238:257,1,75,8|0,0:0|0:0,0:0:0:0:
73,362,109676,2,0,P|35:359|0:347,1,75,2|0,0:0|0:0,0:0:0:0:
74,186,109905,1,2,0:3:0:0:
217,349,110134,6,0,P|290:369|386:365,1,150,8|0,0:0|0:0,0:0:0:0:
472,372,110592,2,0,P|479:330|476:281,1,75,2|0,0:3|0:0,0:0:0:0:
429,176,110821,2,0,P|470:172|512:157,1,75,4|0,0:2|0:0,0:0:0:0:
373,270,111050,2,0,P|337:258|299:255,1,75,2|0,0:3|0:0,0:0:0:0:
231,163,111279,2,0,P|228:124|236:83,1,75,2|0,0:3|0:0,0:0:0:0:
375,31,111508,5,8,0:0:0:0:
317,352,111737,1,4,0:2:0:0:
5,259,111966,1,2,0:3:0:0:
84,113,112195,6,0,P|124:106|168:106,1,75,4|0,0:3|0:0,0:0:0:0:
209,217,112424,2,0,P|247:230|285:252,1,75,2|0,0:3|0:0,0:0:0:0:
317,352,112653,1,8,0:0:0:0:
317,352,112882,6,0,P|277:359|233:359,1,75,2|0,0:0|0:0,0:0:0:0:
117,294,113111,2,0,P|121:260|121:210,1,75,4|0,0:2|0:0,0:0:0:0:
267,114,113340,2,0,P|267:151|271:188,1,75,2|0,0:3|0:0,0:0:0:0:
387,264,113569,2,0,P|424:263|461:259,1,75,2|0,0:3|0:0,0:0:0:0:
505,279,113798,6,0,P|484:210|488:116,1,150,2|0,0:0|0:0,0:0:0:0:
239,38,114256,2,0,P|260:107|256:201,1,150,8|0,0:0|0:0,0:0:0:0:
125,349,114714,1,2,0:0:0:0:
125,349,114829,1,0,0:0:0:0:
125,349,114943,6,0,L|40:334,1,75,4|0,0:2|0:0,0:0:0:0:
241,291,115172,2,0,L|326:276,1,75,2|0,0:3|0:0,0:0:0:0:
113,226,115401,2,0,L|28:211,1,75,2|0,0:3|0:0,0:0:0:0:
209,68,115630,5,2,0:2:0:0:
215,104,115745,1,0,0:0:0:0:
217,142,115859,1,8,0:3:0:0:
64,9,116088,5,2,0:0:0:0:
330,78,116317,1,4,0:2:0:0:
202,278,116546,1,2,0:3:0:0:
58,133,116775,6,0,P|97:123|137:121,1,75,8|0,0:0|0:0,0:0:0:0:
202,278,117004,2,0,P|164:275|128:265,1,75,2|0,0:0|0:0,0:0:0:0:
2,349,117233,2,0,P|-1:311|3:258,1,75,2|0,0:3|0:0,0:0:0:0:
64,9,117462,5,6,3:2:0:0:
256,192,117520,12,8,118607,2:0:0:0:
457,57,119065,6,0,P|463:145|370:122,1,210.000002002716,6|2,3:2|3:2,0:0:0:0:
364,34,119409,1,0,0:0:0:0:
346,23,119523,6,0,P|292:23|239:39,1,90.0000034332277,12|0,3:0|0:0,0:0:0:0:
198,228,119752,2,0,P|241:237|286:236,1,90.0000034332277,2|0,0:1|0:0,0:0:0:0:
121,79,119981,6,0,L|116:180,1,90.0000034332277,4|0,0:0|0:0,0:0:0:0:
342,112,120210,2,0,L|346:22,1,90.0000034332277,2|0,0:3|0:0,0:0:0:0:
376,242,120440,6,0,P|322:244|260:224,1,90.0000034332277,8|0,0:0|0:0,0:0:0:0:
0,117,120669,1,2,3:0:0:0:
15,27,120783,1,0,3:0:0:0:
83,86,120898,1,4,3:2:0:0:
122,343,121127,1,2,0:1:0:0:
197,293,121241,1,2,0:1:0:0:
280,326,121356,6,0,P|332:329|395:310,1,90.0000034332277,8|0,3:0|0:0,0:0:0:0:
506,354,121585,2,0,P|497:309|501:265,1,90.0000034332277,2|0,0:1|0:0,0:0:0:0:
393,24,121814,2,0,P|406:86|396:177,1,135.000005149841,4|0,0:0|0:0,0:0:0:0:
418,245,122043,2,0,P|373:236|329:240,1,90.0000034332277,2|0,0:3|0:0,0:0:0:0:
498,177,122272,5,8,3:2:0:0:
104,346,122501,1,6,3:2:0:0:
261,21,122730,1,6,3:2:0:0:
390,339,122959,1,2,3:1:0:0:
303,361,123073,1,2,3:1:0:0:
216,334,123188,6,0,P|155:281|98:173,1,180.000006866455,8|0,0:3|0:0,0:0:0:0:
378,35,123646,2,0,P|378:108|339:228,1,180.000006866455,4|2,0:0|0:3,0:0:0:0:
270,254,123989,1,0,0:0:0:0:
194,204,124104,6,0,P|150:195|90:198,1,90.0000034332277,2|0,0:1|0:0,0:0:0:0:
68,25,124333,2,0,P|112:25|156:16,1,90.0000034332277,8|0,0:0|0:0,0:0:0:0:
316,79,124562,2,0,P|324:126|314:180,1,90.0000034332277,4|0,0:0|0:0,0:0:0:0:
234,342,124791,1,8,0:0:0:0:
318,167,125020,6,0,P|386:133|420:279,1,270.000010299683,8|2,3:0|0:1,0:0:0:0:
234,342,125478,2,0,P|187:344|142:360,1,90.0000034332277,4|0,0:0|0:0,0:0:0:0:
0,222,125707,2,0,P|42:236|87:237,1,90.0000034332277,2|0,0:3|0:0,0:0:0:0:
178,81,125936,2,0,P|174:124|176:182,1,90.0000034332277,8|0,0:0|0:0,0:0:0:0:
383,259,126165,5,2,3:0:0:0:
468,228,126279,1,0,0:0:0:0:
398,172,126394,2,0,B|184:141|267:223|41:189,1,360,6|0,3:2|0:0,0:0:0:0:
23,179,126852,6,0,P|24:104|124:99,1,180.000006866455,4|2,3:0|0:1,0:0:0:0:
170,158,127195,1,0,0:0:0:0:
250,116,127310,2,0,P|257:69|251:24,1,90.0000034332277,4|0,0:0|0:0,0:0:0:0:
208,244,127539,2,0,P|258:236|303:238,1,90.0000034332277,2|0,0:3|0:0,0:0:0:0:
109,322,127768,6,0,P|64:322|19:315,1,90.0000034332277,8|0,0:0|0:0,0:0:0:0:
84,116,127997,2,0,P|77:163|83:208,1,90.0000034332277,2|0,0:3|0:0,0:0:0:0:
213,356,128226,1,4,0:0:0:0:
339,132,128455,1,2,3:1:0:0:
308,47,128569,1,2,3:1:0:0:
250,116,128684,6,0,P|244:162|249:225,1,90.0000034332277,8|0,0:3|0:0,0:0:0:0:
411,353,128913,1,2,0:3:0:0:
479,294,129027,1,0,0:0:0:0:
394,263,129142,2,0,P|348:273|291:299,1,90.0000034332277,4|0,0:0|0:0,0:0:0:0:
127,329,129371,2,0,P|168:345|212:355,1,90.0000034332277,2|0,0:3|0:0,0:0:0:0:
479,294,129600,5,8,3:2:0:0:
50,358,129829,1,6,3:2:0:0:
308,47,130058,1,6,3:2:0:0:
362,320,130287,1,2,3:1:0:0:
274,342,130401,1,2,3:1:0:0:
193,302,130516,6,0,P|150:288|76:285,1,90.0000034332277,8|0,0:3|0:0,0:0:0:0:
65,148,130745,2,0,P|109:143|152:129,1,90.0000034332277,2|0,0:1|0:0,0:0:0:0:
233,3,130974,1,4,3:2:0:0:
233,3,131203,6,0,P|229:53|231:116,1,90.0000034332277,2|0,0:3|0:0,0:0:0:0:
426,170,131432,2,0,P|430:120|428:57,1,90.0000034332277,8|0,0:0|0:0,0:0:0:0:
481,307,131661,2,0,P|429:301|388:301,1,90.0000034332277,2|0,0:3|0:0,0:0:0:0:
168,352,131890,1,4,3:2:0:0:
132,368,132119,5,2,3:2:0:0:
88,344,132233,1,0,3:0:0:0:
74,296,132348,6,0,L|79:191,1,90.0000034332277,8|0,3:0|0:0,0:0:0:0:
259,32,132577,2,0,L|263:137,1,90.0000034332277,8|0,3:2|0:0,0:0:0:0:
304,272,132806,2,0,P|251:279|209:267,1,90.0000034332277,8|0,3:2|0:0,0:0:0:0:
32,56,133035,2,0,P|85:49|127:61,1,90.0000034332277,8|0,3:2|0:0,0:0:0:0:
392,27,133264,6,0,P|430:165|416:301,1,270.000010299683,8|0,3:2|0:0,0:0:0:0:
374,369,133722,1,6,3:2:0:0:
17,332,133951,1,0,3:0:0:0:
17,332,134065,1,0,3:0:0:0:
17,332,134409,5,2,3:2:0:0:
98,359,134638,1,2,0:2:0:0:
148,289,134867,1,2,3:2:0:0:
98,220,135096,1,0,0:0:0:0:
17,247,135325,1,0,3:0:0:0:
17,332,135554,6,0,B|86:324|86:324|132:342|132:342|209:334,1,180.000006866455,2|0,3:0|0:0,0:0:0:0:
224,350,135898,1,0,0:0:0:0:
224,336,136012,6,0,B|212:300|227:268|227:268|218:234|218:234|230:195|220:159,1,180.000006866455,6|0,0:2|0:0,0:0:0:0:
193,41,136699,6,0,P|155:31|111:37,1,75,2|0,0:0|0:0,0:0:0:0:
30,91,136928,2,0,L|-19:89,8,30,8|0|0|0|0|0|0|0|0,0:0|0:0|0:0|0:0|0:0|0:0|0:0|0:0|0:0,0:0:0:0:
160,210,137615,1,2,0:2:0:0:
173,210,137691,1,0,0:0:0:0:
186,211,137768,1,0,0:0:0:0:
200,212,137844,6,0,L|409:195,1,180.000006866455,2|2,3:0|0:0,0:0:0:0:
396,197,138531,5,2,3:2:0:0:
401,241,138646,1,0,3:0:0:0:
407,286,138760,2,0,L|402:372,1,75,8|0,0:0|0:0,0:0:0:0:
208,365,138989,6,0,L|205:320,1,37.5,2|0,0:0|0:0,0:0:0:0:
189,363,139104,2,0,L|186:318,1,37.5,2|0,0:2|0:0,0:0:0:0:
170,361,139218,2,0,L|102:354,1,60,2|0,3:0|0:0,0:0:0:0:
24,243,139447,6,0,L|31:185,1,30,2|0,0:0|0:0,0:0:0:0:
54,239,139562,2,0,L|61:181,1,30,2|0,0:2|0:0,0:0:0:0:
83,234,139676,2,0,B|170:223|145:261|272:252,1,180.000006866455,2|0,3:0|0:0,0:0:0:0:
278,237,140363,6,0,L|279:155,1,75,2|0,0:0|0:0,0:0:0:0:
257,51,140592,2,0,L|178:57,1,60,8|0,0:0|0:0,0:0:0:0:
351,91,140821,1,0,3:0:0:0:
301,227,141050,2,0,B|342:223|342:223|376:236|376:236|443:231,1,135.000005149841,2|0,0:0|0:0,0:0:0:0:
482,153,141508,5,2,3:0:0:0:
482,153,141737,2,0,P|487:116|478:72,1,75,2|0,0:0|0:0,0:0:0:0:
407,16,141966,2,0,L|341:14,1,60,2|0,0:2|0:0,0:0:0:0:
277,67,142195,2,0,L|211:65,1,60,0|0,3:0|0:0,0:0:0:0:
146,110,142424,6,0,P|133:64|148:20,1,90.0000034332277,8|0,0:0|0:0,0:0:0:0:
223,230,142882,2,0,L|233:189,1,22.5000008583069,2|0,0:0|0:0,0:0:0:0:
194,212,142997,2,0,L|191:176,1,22.5000008583069,2|0,0:2|0:0,0:0:0:0:
161,205,143111,2,0,L|150:177,1,22.5000008583069,2|0,0:2|0:0,0:0:0:0:
127,207,143226,2,0,L|101:181,1,22.5000008583069,2|0,0:2|0:0,0:0:0:0:
96,219,143340,6,0,P|44:265|93:348,1,180.000006866455,2|0,3:0|0:0,0:0:0:0:
111,362,144027,6,0,P|154:351|200:351,1,75,2|0,0:0|0:0,0:0:0:0:
29,302,144256,2,0,L|-6:299,8,30,8|0|0|0|0|0|0|0|0,0:0|0:0|0:0|0:0|0:0|0:0|0:0|0:0|0:0,0:0:0:0:
198,167,144943,1,2,0:2:0:0:
203,186,145020,1,0,0:0:0:0:
209,205,145096,1,0,0:0:0:0:
215,224,145172,6,0,L|34:204,1,180.000006866455,2|0,3:0|0:0,0:0:0:0:
21,190,145859,5,2,0:2:0:0:
19,145,145974,1,0,0:0:0:0:
17,100,146088,2,0,L|101:88,1,75,8|0,0:0|0:0,0:0:0:0:
299,55,146317,6,0,L|293:17,1,37.5,2|0,0:0|0:0,0:0:0:0:
279,62,146432,2,0,L|273:99,1,37.5,2|0,0:2|0:0,0:0:0:0:
261,55,146546,2,0,P|226:49|182:50,1,60,2|0,3:0|0:0,0:0:0:0:
133,217,146775,6,0,L|138:251,1,30,2|0,0:0|0:0,0:0:0:0:
153,210,146890,2,0,L|157:180,1,30,2|0,0:2|0:0,0:0:0:0:
171,217,147004,2,0,P|240:228|352:215,1,180.000006866455,2|0,3:0|0:0,0:0:0:0:
374,232,147691,6,0,P|371:190|379:143,1,75,2|0,0:0|0:0,0:0:0:0:
432,81,147920,2,0,L|470:79,16,30,8|0|0|0|0|0|0|0|0|0|0|0|0|0|0|0|2,0:0|0:0|0:0|0:0|0:0|0:0|0:0|0:0|0:0|0:0|0:0|0:0|0:0|0:0|0:0|0:0|0:2,0:0:0:0:
344,26,149294,6,0,L|208:18,1,120,2|2,0:0|3:0,0:0:0:0:
140,85,149752,5,8,0:0:0:0:
117,95,149829,1,0,0:0:0:0:
92,100,149905,1,0,0:0:0:0:
67,101,149981,1,2,0:2:0:0:
43,96,150058,1,0,0:0:0:0:
20,86,150134,1,0,0:0:0:0:
0,73,150210,5,2,0:0:0:0:
9,64,150287,1,0,0:0:0:0:
18,56,150363,1,0,0:0:0:0:
29,49,150440,1,2,0:2:0:0:
40,44,150516,1,0,0:0:0:0:
52,39,150592,1,0,0:0:0:0:
64,36,150669,6,0,L|71:168,1,120,6|2,0:2|3:2,0:0:0:0:
84,193,150974,1,0,3:0:0:0:
45,181,151050,1,0,3:0:0:0:
5,182,151127,1,2,3:1:0:0:
68,348,151356,5,2,3:2:0:0:
107,354,151432,1,0,3:0:0:0:
145,343,151508,1,0,3:0:0:0:
175,317,151585,1,10,3:1:0:0:
215,137,151814,5,2,3:2:0:0:
211,163,151890,1,0,3:0:0:0:
211,190,151966,1,0,3:0:0:0:
212,216,152043,1,2,3:1:0:0:
301,348,152272,5,2,3:2:0:0:
313,351,152348,1,0,3:0:0:0:
326,354,152424,1,0,3:0:0:0:
339,357,152501,1,2,3:1:0:0:
442,297,152730,5,0,3:0:0:0:
390,61,152959,1,8,3:1:0:0:
351,189,153188,1,0,3:0:0:0:
351,189,153302,1,0,3:0:0:0:
351,189,153417,6,0,L|452:179,1,75,2|0,3:2|0:0,0:0:0:0:
335,291,153646,2,0,P|274:273|201:272,1,120,2|8,3:0|3:1,0:0:0:0:
197,278,153989,2,0,P|185:320|193:370,1,90.0000034332277,2|0,3:0|0:0,0:0:0:0:
0,114,154333,6,0,B|41:95|77:111|77:111|94:133|94:133|123:112|123:112|146:119|146:119|165:110|165:110|188:117|188:117|201:111|201:111|212:116|212:116|223:111|223:111|275:132|331:112,1,360,6|2,3:2|3:0,0:0:0:0:
512,109,155249,6,0,P|500:17|424:90,1,225,10|0,3:1|0:0,0:0:0:0:
407,168,155707,1,8,3:1:0:0:
410,205,155821,1,2,3:2:0:0:
413,242,155936,1,2,3:2:0:0:
416,280,156050,1,2,3:2:0:0:
419,317,156165,6,0,L|472:326,1,45.0000017166138,2|0,3:0|0:0,0:0:0:0:
323,258,156394,2,0,L|278:265,1,45.0000017166138,2|0,3:1|0:0,0:0:0:0:
176,353,156623,6,0,L|168:271,1,60,8|0,3:1|0:0,0:0:0:0:
30,230,156852,2,0,L|22:312,1,60,2|0,3:1|0:0,0:0:0:0:
76,74,157081,6,0,P|36:71|-14:62,1,75,2|0,3:0|0:0,0:0:0:0:
202,169,157310,2,0,P|236:166|276:159,1,75,2|0,3:1|0:0,0:0:0:0:
444,120,157539,6,0,L|437:235,1,90.0000034332277,8|0,3:1|3:0,0:0:0:0:
309,346,157768,2,0,L|303:256,1,90.0000034332277,2|0,3:1|0:0,0:0:0:0:
229,69,157997,6,0,P|133:51|110:123,1,180,6|2,3:2|0:2,0:0:0:0:
117,134,158455,1,2,3:1:0:0:
343,66,158684,1,2,3:0:0:0:
220,259,158913,2,0,B|298:251|298:251|342:271|342:271|459:257,1,240,8|2,3:1|3:1,0:0:0:0:
447,43,159600,5,2,3:2:0:0:
447,43,159714,1,0,3:0:0:0:
447,43,159829,2,0,L|443:96,1,45.0000017166138,2|0,3:0|0:0,0:0:0:0:
352,202,160058,2,0,L|348:149,1,45.0000017166138,2|0,3:1|0:0,0:0:0:0:
343,66,160287,1,8,3:1:0:0:
487,319,160516,5,2,3:0:0:0:
487,319,160630,1,2,3:0:0:0:
487,319,160745,2,0,P|431:281|341:305,1,150,10|2,3:1|3:0,0:0:0:0:
270,360,161088,5,2,3:2:0:0:
255,361,161203,1,2,3:2:0:0:
240,363,161317,1,2,3:2:0:0:
225,364,161432,1,2,3:2:0:0:
210,366,161546,1,2,3:2:0:0:
195,368,161661,6,0,P|187:332|189:287,1,67.5000025749207,6|0,3:2|0:0,0:0:0:0:
198,282,161890,2,0,L|275:274,1,67.5000025749207,2|0,3:2|0:0,0:0:0:0:
208,176,162119,2,0,L|140:169,1,67.5000025749207,8|0,3:1|0:0,0:0:0:0:
128,152,162348,2,0,P|123:118|135:78,1,67.5000025749207,2|0,3:0|0:0,0:0:0:0:
183,9,162577,5,2,3:1:0:0:
198,4,162806,2,0,L|286:12,1,67.5000025749207,2|0,3:0|0:0,0:0:0:0:
316,102,163035,2,0,L|404:94,1,67.5000025749207,10|0,3:1|0:0,0:0:0:0:
486,59,163264,1,2,3:0:0:0:
412,369,163493,5,2,3:1:0:0:
96,300,163722,1,2,3:2:0:0:
96,300,163836,1,0,3:0:0:0:
96,300,163951,1,10,3:1:0:0:
265,10,164180,1,2,3:0:0:0:
473,194,164409,6,0,P|395:172|243:174,1,225,10|0,3:1|0:0,0:0:0:0:
80,320,164867,5,2,3:2:0:0:
133,336,164981,1,2,3:0:0:0:
189,346,165096,1,8,3:1:0:0:
245,347,165210,1,0,3:0:0:0:
301,341,165325,5,12,0:0:0:0:
265,10,165554,1,0,0:0:0:0:
18,258,165783,5,4,0:2:0:0:
381,232,166012,1,0,0:0:0:0:
114,20,166241,5,8,0:2:0:0:
188,257,166470,1,0,0:0:0:0:
456,163,166699,1,4,0:2:0:0:
128,125,166928,1,0,0:0:0:0:
387,356,167157,5,8,0:0:0:0:
395,44,167386,1,0,0:0:0:0:
176,237,167615,1,4,0:2:0:0:
502,243,167844,1,0,0:0:0:0:
260,22,168073,5,8,0:2:0:0:
249,312,168302,1,0,0:0:0:0:
509,152,168531,1,4,0:2:0:0:
124,80,168760,1,2,0:2:0:0:
124,80,168875,1,2,0:2:0:0:
124,80,168989,5,8,0:0:0:0:
381,128,169218,1,0,0:0:0:0:
63,197,169447,1,4,0:2:0:0:
189,14,169676,1,0,0:0:0:0:
256,304,169905,5,8,0:2:0:0:
411,86,170134,1,0,0:0:0:0:
256,328,170363,1,4,0:2:0:0:
101,86,170592,1,2,0:2:0:0:
103,56,170707,1,2,0:2:0:0:
106,26,170821,5,8,0:0:0:0:
363,159,171050,1,2,0:2:0:0:
365,189,171165,1,2,0:2:0:0:
368,219,171279,5,4,0:2:0:0:
93,358,171508,1,8,0:2:0:0:
21,96,171737,6,0,B|59:81|88:103|88:103|104:87|104:87|124:99|146:102|146:102|171:96|171:96|190:104|190:104|214:94|251:99,1,240,6|8,0:2|0:2,0:0:0:0:
270,143,172310,1,0,0:0:0:0:
280,194,172424,1,2,0:2:0:0:
270,246,172539,1,0,0:0:0:0:
244,291,172653,6,0,P|214:297|168:290,1,60,12|0,0:0|0:0,0:0:0:0:
118,168,172882,2,0,P|148:162|194:169,1,60,2|0,0:2|0:0,0:0:0:0:
101,323,173111,6,0,L|98:244,1,66.0000020141602,4|0,0:2|0:0,0:0:0:0:
320,195,173340,2,0,L|317:274,1,66.0000020141602,2|0,0:2|0:0,0:0:0:0:
259,367,173569,6,0,P|218:360|161:357,1,71.9999978027344,8|0,0:2|0:0,0:0:0:0:
27,266,173798,2,0,P|62:262|98:256,1,71.9999978027344,2|0,0:2|0:0,0:0:0:0:
231,167,174027,6,0,L|235:71,1,77.9999964294435,4|0,0:2|0:0,0:0:0:0:
57,46,174256,2,0,L|53:123,1,77.9999964294435,2|0,0:2|0:0,0:0:0:0:
183,243,174485,6,0,P|226:255|282:243,1,83.9999974365235,8|0,0:2|0:0,0:0:0:0:
317,65,174714,2,0,P|274:53|218:65,1,83.9999974365235,2|0,0:2|0:0,0:0:0:0:
378,233,174943,6,0,B|395:190|395:190|382:146,1,90.0000034332277,4|0,0:2|0:0,0:0:0:0:
129,42,175172,2,0,B|112:85|112:85|125:129,1,90.0000034332277,2|0,0:2|0:0,0:0:0:0:
347,334,175401,6,0,P|394:333|440:320,1,96,8|0,0:2|0:0,0:0:0:0:
183,243,175630,2,0,P|136:230|89:229,1,96,2|0,0:2|0:0,0:0:0:0:
238,122,175859,6,0,P|245:70|242:5,1,102.000001945496,4|0,0:2|0:0,0:0:0:0:
378,233,176088,2,0,P|376:284|383:335,1,102.000001945496,2|0,0:2|0:0,0:0:0:0:
489,250,176317,5,4,0:0:0:0:
461,244,176432,1,0,0:0:0:0:
434,240,176546,1,0,0:0:0:0:
406,236,176661,1,0,0:0:0:0:
378,233,176775,1,0,0:0:0:0:
350,232,176890,1,0,0:0:0:0:
322,232,177004,1,0,0:0:0:0:
294,232,177119,1,0,0:0:0:0:
266,234,177233,1,0,0:0:0:0:
238,238,177348,1,0,0:0:0:0:
210,242,177462,1,0,0:0:0:0:
182,247,177577,1,0,0:0:0:0:
155,254,177691,1,0,0:0:0:0:
128,261,177806,1,0,0:0:0:0:
101,270,177920,1,0,0:0:0:0:
75,280,178035,1,0,0:0:0:0:
48,290,178149,6,0,L|46:249,30,30,8|0|0|0|0|0|0|0|0|0|0|0|0|0|0|0|0|0|0|0|0|0|0|0|0|0|0|0|0|0|0,2:3|2:0|2:0|2:0|2:0|2:0|2:0|2:0|2:0|2:0|2:0|2:0|2:0|2:0|2:0|2:0|2:0|2:0|2:0|2:0|2:0|2:0|2:0|2:0|2:0|2:0|2:0|2:0|2:0|2:0|2:0,2:0:0:0:
46,260,179065,6,0,L|365:290,1,315.000003004074,10|0,0:2|0:0,0:0:0:0:
384,320,179523,6,0,P|373:279|376:226,1,90.0000034332277,6|2,0:2|3:2,0:0:0:0:
420,149,179867,1,2,3:2:0:0:
464,236,179981,6,0,P|418:238|349:223,1,90.0000034332277,12|0,3:0|0:0,0:0:0:0:
311,48,180210,2,0,P|355:41|400:43,1,90.0000034332277,2|0,0:1|0:0,0:0:0:0:
218,87,180440,6,0,P|210:43|223:0,1,90.0000034332277,4|0,0:0|0:0,0:0:0:0:
420,149,180669,2,0,P|427:192|414:235,1,90.0000034332277,2|0,0:3|0:0,0:0:0:0:
321,360,180898,6,0,P|277:348|215:345,1,90.0000034332277,8|0,0:0|0:0,0:0:0:0:
88,272,181127,1,2,3:0:0:0:
0,295,181241,1,0,3:0:0:0:
64,358,181356,1,4,0:0:0:0:
233,345,181585,1,2,3:1:0:0:
256,258,181699,1,2,3:1:0:0:
249,167,181814,6,0,P|200:159|149:163,1,90.0000034332277,8|0,3:0|0:0,0:0:0:0:
383,81,182043,2,0,P|375:130|379:181,1,90.0000034332277,2|0,0:1|0:0,0:0:0:0:
466,360,182272,2,0,P|475:299|465:212,1,135.000005149841,4|0,0:0|0:0,0:0:0:0:
377,170,182501,2,0,P|330:168|277:182,1,90.0000034332277,2|0,0:3|0:0,0:0:0:0:
143,342,182730,5,8,3:2:0:0:
468,226,182959,1,6,3:2:0:0:
64,97,183188,1,6,3:2:0:0:
283,363,183417,1,2,3:1:0:0:
302,275,183531,1,2,3:1:0:0:
278,187,183646,6,0,P|279:248|337:364,1,180.000006866455,8|0,3:0|0:0,0:0:0:0:
507,107,184104,2,0,P|419:103|314:67,1,180.000006866455,4|2,0:0|0:3,0:0:0:0:
270,10,184447,1,0,0:0:0:0:
184,39,184562,6,0,P|170:84|177:148,1,90.0000034332277,2|0,0:1|0:0,0:0:0:0:
106,218,184791,2,0,L|10:213,1,90.0000034332277,8|0,0:0|0:0,0:0:0:0:
251,356,185020,2,2,P|265:311|258:247,1,90.0000034332277,4|2,0:0|0:0,0:0:0:0:
184,39,185249,1,8,0:0:0:0:
448,148,185478,6,0,B|393:173|316:151|316:151|247:129|176:154,1,270.000010299683,8|2,3:0|0:1,0:0:0:0:
106,218,185936,6,0,P|104:271|109:327,1,90.0000034332277,4|0,0:0|0:0,0:0:0:0:
363,250,186165,2,0,P|365:197|360:141,1,90.0000034332277,2|0,0:3|0:0,0:0:0:0:
184,39,186394,2,0,P|182:83|184:128,1,90.0000034332277,8|0,0:0|0:0,0:0:0:0:
297,316,186623,1,2,3:0:0:0:
363,250,186737,1,0,0:0:0:0:
276,228,186852,6,0,P|165:316|299:312,1,360,6|0,3:2|0:0,0:0:0:0:
306,295,187310,6,0,P|316:220|313:102,1,180.000006866455,12|2,3:0|0:1,0:0:0:0:
231,148,187653,1,0,0:0:0:0:
200,63,187768,2,0,P|152:52|93:56,1,90.0000034332277,4|0,0:0|0:0,0:0:0:0:
314,115,187997,2,0,P|324:71|324:26,1,90.0000034332277,2|0,0:3|0:0,0:0:0:0:
487,197,188226,6,0,P|449:188|392:187,1,90.0000034332277,8|0,0:0|0:0,0:0:0:0:
192,317,188455,2,0,P|229:325|287:327,1,90.0000034332277,2|0,0:3|0:0,0:0:0:0:
314,115,188684,1,6,3:2:0:0:
78,8,188913,5,2,3:1:0:0:
14,71,189027,1,2,3:1:0:0:
100,95,189142,2,0,L|210:91,1,90.0000034332277,8|0,3:0|0:0,0:0:0:0:
99,219,189371,2,0,L|9:215,1,90.0000034332277,2|0,0:3|0:0,0:0:0:0:
205,74,189600,6,0,P|263:78|306:91,1,90.0000034332277,4|0,0:0|0:0,0:0:0:0:
233,340,189829,2,0,P|222:296|220:251,1,90.0000034332277,2|0,0:3|0:0,0:0:0:0:
369,18,190058,5,8,3:2:0:0:
477,340,190287,1,6,3:2:0:0:
146,296,190516,1,6,3:2:0:0:
196,60,190745,1,2,3:1:0:0:
279,26,190859,1,2,3:1:0:0:
369,18,190974,6,0,P|420:24|460:40,1,90.0000034332277,8|0,3:0|0:0,0:0:0:0:
351,181,191203,2,0,P|308:196|264:200,1,90.0000034332277,2|0,0:1|0:0,0:0:0:0:
22,94,191432,1,4,3:2:0:0:
22,94,191661,6,0,P|20:148|30:209,1,90.0000034332277,2|0,0:3|0:0,0:0:0:0:
129,354,191890,2,0,P|157:319|177:279,1,90.0000034332277,8|0,0:0|0:0,0:0:0:0:
269,134,192119,2,0,P|216:135|177:144,1,90.0000034332277,2|0,0:3|0:0,0:0:0:0:
41,313,192348,1,4,3:2:0:0:
53,336,192577,5,2,3:2:0:0:
99,355,192691,1,0,3:0:0:0:
144,336,192806,6,0,P|188:325|249:325,1,90.0000034332277,8|0,3:0|0:0,0:0:0:0:
375,267,193035,2,0,P|363:315|363:365,1,90.0000034332277,8|0,3:2|0:0,0:0:0:0:
181,222,193264,2,0,P|169:174|169:124,1,90.0000034332277,8|0,3:2|0:0,0:0:0:0:
427,87,193493,2,0,P|383:98|322:98,1,90.0000034332277,8|0,3:2|0:0,0:0:0:0:
69,39,193722,6,0,P|67:136|196:94,1,270.000010299683,8|0,3:2|0:0,0:0:0:0:
158,24,194180,1,4,3:2:0:0:
138,364,194409,5,8,3:2:0:0:
448,261,194638,2,0,L|263:257,1,180.000006866455,4|2,3:0|0:0,0:0:0:0:
248,257,195325,5,8,3:2:0:0:
69,39,195554,2,0,L|254:35,1,180.000006866455,4|2,3:0|0:0,0:0:0:0:
268,34,196241,1,8,3:2:0:0:
360,0,196470,6,0,P|365:40|343:101,1,90.0000034332277,4|0,3:0|0:0,0:0:0:0:
37,197,196699,2,0,P|69:173|133:162,1,90.0000034332277,2|0,3:2|0:0,0:0:0:0:
369,378,196928,2,0,P|332:362|290:312,1,90.0000034332277,4|0,3:0|0:0,0:0:0:0:
192,0,197157,2,0,P|216:33|227:96,1,90.0000034332277,2|0,3:2|0:0,0:0:0:0:
160,304,197386,5,4,3:0:0:0:
160,304,197844,1,8,0:0:0:0:
467,221,198302,6,0,B|387:216|387:216|333:237|333:237|235:227,1,225,4|0,3:0|0:0,0:0:0:0:
220,56,198760,2,0,P|299:20|305:131,1,225,4|0,0:0|0:0,0:0:0:0:
232,380,199218,2,0,P|211:285|217:155,1,225,8|0,0:0|0:0,0:0:0:0:
423,48,199676,5,4,3:2:0:0:
449,134,199791,1,2,3:2:0:0:
455,223,199905,1,2,3:2:0:0:
448,313,200020,1,2,3:2:0:0:
387,379,200134,6,0,P|293:348|157:349,1,225,8|0,0:0|0:0,0:0:0:0:
49,182,200592,2,0,B|167:204|147:152|272:172,1,225,4|0,0:0|0:0,0:0:0:0:
355,121,201050,6,0,P|366:162|360:216,1,75,8|0,0:0|0:0,0:0:0:0:
197,132,201279,2,0,P|196:94|207:58,1,75,2|0,0:0|0:0,0:0:0:0:
266,269,201508,1,4,0:0:0:0:
219,44,201737,1,2,0:0:0:0:
133,325,201966,6,0,P|62:346|46:221,1,225,8|0,0:0|0:0,0:0:0:0:
292,126,202424,2,0,P|295:226|194:222,1,225,4|0,0:0|0:0,0:0:0:0:
219,44,202882,2,0,P|317:30|448:31,1,225,8|0,0:0|0:0,0:0:0:0:
460,251,203340,5,4,3:2:0:0:
378,277,203455,1,2,3:2:0:0:
328,208,203569,1,2,3:2:0:0:
376,136,203684,1,2,3:2:0:0:
460,165,203798,6,0,P|493:215|474:385,1,225,8|0,0:0|0:0,0:0:0:0:
233,366,204256,2,0,P|200:316|219:146,1,225,4|0,0:0|0:0,0:0:0:0:
406,44,204714,5,8,0:0:0:0:
362,65,204829,1,0,0:0:0:0:
314,78,204943,2,0,P|268:77|222:60,1,75,2|0,0:0|0:0,0:0:0:0:
42,176,205172,5,4,0:0:0:0:
88,160,205287,1,0,0:0:0:0:
135,159,205401,2,0,P|177:175|215:207,1,75,2|0,0:0|0:0,0:0:0:0:
313,372,205630,6,0,B|295:329|312:283|312:283|298:239|298:239|315:194|298:151,1,225,8|0,3:0|0:0,0:0:0:0:
129,11,206088,2,0,P|112:83|229:83,1,225,4|0,0:0|0:0,0:0:0:0:
376,104,206546,2,0,P|471:80|474:178,1,225,8|0,0:0|0:0,0:0:0:0:
375,293,207004,5,4,3:2:0:0:
285,288,207119,1,2,3:2:0:0:
195,283,207233,1,2,3:2:0:0:
105,278,207348,1,2,3:2:0:0:
15,273,207462,6,0,L|1:39,1,225,8|0,0:0|0:0,0:0:0:0:
295,131,207920,2,0,L|280:365,1,225,4|0,0:0|0:0,0:0:0:0:
105,278,208378,6,0,L|127:188,1,75,8|0,0:0|0:0,0:0:0:0:
297,116,208607,2,0,L|319:206,1,75,2|0,0:0|0:0,0:0:0:0:
322,340,208836,2,0,P|266:332|225:330,1,75,4|0,0:0|0:0,0:0:0:0:
395,222,209065,2,0,P|452:231|492:232,1,75,2|0,0:0|0:0,0:0:0:0:
351,57,209294,6,0,P|265:41|236:167,1,225,8|0,0:0|0:0,0:0:0:0:
282,249,209752,2,0,B|151:274|189:207|51:241,1,225,4|0,0:0|0:0,0:0:0:0:
189,348,210210,2,0,P|300:347|419:291,1,225,8|0,0:0|0:0,0:0:0:0:
442,87,210669,5,4,3:2:0:0:
362,45,210783,1,2,3:2:0:0:
302,112,210898,1,2,3:2:0:0:
222,71,211012,1,2,3:2:0:0:
171,146,211127,6,0,P|50:146|85:26,1,270.000010299683,8|2,3:0|3:2,0:0:0:0:
116,94,211527,1,0,3:0:0:0:
111,98,211585,6,0,L|115:208,1,90.0000034332277,4|0,0:0|0:0,0:0:0:0:
120,338,211814,2,0,P|167:341|213:357,1,90.0000034332277,10|0,3:2|0:0,0:0:0:0:
123,205,212043,2,0,P|76:202|30:186,1,90.0000034332277,10|0,3:2|0:0,0:0:0:0:
329,67,212272,2,0,P|340:114|337:171,1,90.0000034332277,2|0,3:2|0:0,0:0:0:0:
301,356,212501,5,6,3:2:0:0:
256,192,212558,12,0,213417,0:0:0:0:
