osu file format v14

[General]
AudioFilename: GARNiDELiA - .mp3
AudioLeadIn: 0
PreviewTime: 60450
Countdown: 0
SampleSet: Soft
StackLeniency: 0.7
Mode: 0
LetterboxInBreaks: 0
WidescreenStoryboard: 0

[Editor]
Bookmarks: 45335,154343,179533,197396
DistanceSpacing: 1
BeatDivisor: 4
GridSize: 4
TimelineZoom: 2.1

[Metadata]
Title:Gokuraku Jodo
TitleUnicode:極楽浄土
Artist:GARNiDELiA
ArtistUnicode:GARNiDELiA
Creator:Vert
Version:Extra
Source:
Tags:MARiA 極楽浄土 Violet Cry Zweib Mei LunaSaika kanor - Cappuccino - sodarose
BeatmapID:1042458
BeatmapSetID:489039

[Difficulty]
HPDrainRate:6.5
CircleSize:3.5
OverallDifficulty:8.5
ApproachRate:9.5
SliderMultiplier:2.8
SliderTickRate:1

[Events]
//Background and Video events
0,0,"bg233.png",0,0
//Break Periods
2,90410,96098
2,136022,149227
//Storyboard Layer 0 (Background)
//Storyboard Layer 1 (Fail)
//Storyboard Layer 2 (Pass)
//Storyboard Layer 3 (Foreground)
//Storyboard Sound Samples

[TimingPoints]
440,458.015267175573,4,2,1,50,1,0
5020,-200,4,2,1,70,0,0
9142,-133.333333333333,4,2,1,70,0,0
16012,-100,4,2,1,70,0,0
16470,-66.6666666666667,4,2,1,70,0,0
16907,-66.6666666666667,4,2,1,75,0,0
16928,-133.333333333333,4,2,1,75,0,0
29752,-66.6666666666667,4,2,1,75,0,0
31564,-66.6666666666667,4,2,1,65,0,0
31584,-100,4,2,1,65,0,0
46220,-100,4,1,1,65,0,0
60419,-100,4,2,1,75,0,0
60440,-50,4,2,1,75,0,1
60898,-80,4,2,1,80,0,1
67768,-50,4,2,1,80,0,1
68226,-80,4,2,1,80,0,1
74638,-133.333333333333,4,2,1,80,0,1
75096,-50,4,2,1,80,0,1
75554,-133.333333333333,4,2,1,75,0,0
88378,-66.6666666666667,4,2,1,75,0,0
88815,-66.6666666666667,4,2,1,60,0,0
88836,-133.333333333333,4,2,1,60,0,0
90189,-133.333333333333,4,2,1,55,0,0
96623,-200,4,2,1,55,0,0
97539,-100,4,2,1,55,0,0
101182,-100,4,2,1,65,0,0
101203,-80,4,2,1,65,0,0
104180,-133.333333333333,4,2,1,65,0,0
104846,-133.333333333333,4,1,1,65,0,0
104867,-100,4,1,1,65,0,0
119044,-100,4,2,1,75,0,0
119065,-50,4,2,1,75,0,1
119523,-80,4,2,1,80,0,1
126394,-50,4,2,1,80,0,1
126852,-80,4,2,1,80,0,1
133264,-133.333333333333,4,2,1,80,0,1
133722,-50,4,2,1,80,0,1
134065,-133.333333333333,4,1,2,55,0,0
150648,-133.333333333333,4,1,2,60,0,0
156144,-133.333333333333,4,1,2,50,0,0
156602,-133.333333333333,4,1,2,55,0,0
157060,-133.333333333333,4,1,2,60,0,0
157518,-133.333333333333,4,1,2,65,0,0
157976,-133.333333333333,4,1,2,70,0,0
157997,-200,4,1,2,70,0,0
162119,-133.333333333333,4,1,2,70,0,0
164638,-200,4,1,2,70,0,0
165304,-200,4,3,1,70,0,0
171716,-200,4,3,2,70,0,0
171773,-200,4,3,1,70,0,0
171966,-100,4,3,1,70,0,0
172632,-100,4,3,1,60,0,0
173090,-100,4,3,1,62,0,0
173548,-100,4,3,1,64,0,0
174006,-100,4,3,1,66,0,0
174464,-100,4,3,1,68,0,0
174922,-100,4,3,1,70,0,0
175380,-100,4,3,1,72,0,0
175838,-100,4,3,1,74,0,0
176296,-100,4,3,1,80,0,0
178207,-100,4,2,1,40,0,0
179044,-100,4,2,1,80,0,0
179065,-200,4,2,1,80,0,0
179523,-50,4,2,1,80,0,1
179981,-80,4,2,1,80,0,1
186852,-50,4,2,1,80,0,1
187081,-80,4,2,1,80,0,1
193722,-133.333333333333,4,2,1,80,0,1
194409,-80,4,2,1,80,0,1
197386,-133.333333333333,4,2,1,80,0,1
197844,-50,4,2,1,80,0,1
198302,-133.333333333333,4,2,1,75,0,0
211127,-66.6666666666667,4,2,1,75,0,0
212043,-133.333333333333,4,2,1,75,0,0

[Colours]
Combo1 : 255,128,255
Combo2 : 128,255,128
Combo3 : 255,255,128
Combo4 : 128,128,255

[HitObjects]
256,192,440,12,0,1700,0:0:0:0:
188,81,1815,5,2,3:2:0:0:
209,155,2044,1,0,3:0:0:0:
231,229,2273,1,8,3:0:0:0:
72,360,2960,5,2,0:0:0:0:
88,284,3189,1,8,0:0:0:0:
288,96,3876,5,2,0:0:0:0:
393,173,4105,1,8,0:0:0:0:
353,49,4333,1,2,0:0:0:0:
313,173,4563,1,8,0:0:0:0:
418,96,4792,1,2,0:0:0:0:
268,84,5021,2,0,L|176:92,1,70,8|0,0:0|0:0,0:0:0:0:
444,280,5479,5,10,3:2:0:0:
468,206,5708,1,0,3:0:0:0:
492,133,5937,1,8,3:0:0:0:
296,276,6624,1,2,0:0:0:0:
316,352,6853,1,8,0:0:0:0:
152,128,7540,5,0,0:0:0:0:
39,193,7769,1,8,0:0:0:0:
91,73,7998,1,2,0:0:0:0:
119,201,8226,1,8,0:0:0:0:
22,113,8456,1,2,0:0:0:0:
176,128,8685,2,0,L|260:120,1,70,8|0,0:0|0:0,0:0:0:0:
264,128,9028,1,0,0:0:0:0:
280,136,9143,5,8,3:2:0:0:
268,236,9372,1,2,3:2:0:0:
256,336,9601,1,8,3:0:0:0:
44,268,9830,2,0,L|108:272,1,52.5000020027161,2|0,0:0|0:0,0:0:0:0:
184,276,10059,1,4,0:0:0:0:
360,76,10288,5,2,0:0:0:0:
372,176,10517,1,8,0:0:0:0:
136,156,10746,2,0,L|196:148,1,52.5000020027161,2|0,0:0|0:0,0:0:0:0:
280,136,10975,1,4,0:0:0:0:
452,116,11204,5,2,0:0:0:0:
384,268,11433,1,8,0:0:0:0:
280,136,11662,1,2,0:0:0:0:
468,216,11891,5,4,0:0:0:0:
304,316,12119,1,2,3:2:0:0:
372,176,12348,1,8,0:0:0:0:
396,360,12577,1,2,0:0:0:0:
296,228,12806,5,4,0:0:0:0:
472,308,13036,1,2,0:0:0:0:
140,344,13265,5,8,3:0:0:0:
248,20,13722,1,4,0:0:0:0:
228,376,14181,1,8,0:0:0:0:
152,36,14639,1,4,0:0:0:0:
452,160,15097,5,8,0:0:0:0:
360,176,15326,2,0,L|276:188,1,52.5000020027161,4|2,0:0|0:0,0:0:0:0:
268,192,15498,1,2,0:0:0:0:
268,192,15555,1,8,0:0:0:0:
140,312,15784,1,8,0:0:0:0:
124,136,16013,2,0,B|160:128|192:148|192:148|212:116|260:104,1,140,4|0,0:0|0:0,0:0:0:0:
144,220,16356,1,0,0:0:0:0:
144,220,16471,6,0,P|60:192|196:84,1,315.000012016297,8|0,3:0|0:0,0:0:0:0:
124,136,16929,6,0,L|116:308,1,157.500006008148,4|0,3:0|0:0,0:0:0:0:
224,168,17387,2,0,L|216:340,1,157.500006008148,4|0,0:0|0:0,0:0:0:0:
320,192,17844,1,8,0:0:0:0:
318,218,17960,1,0,0:0:0:0:
317,244,18074,2,0,L|311:327,1,52.5000020027161,0|0,0:0|0:0,0:0:0:0:
396,232,18303,5,4,3:2:0:0:
249,148,18418,1,2,3:2:0:0:
365,116,18532,1,2,3:2:0:0:
281,263,18647,1,2,3:2:0:0:
448,292,18761,6,0,P|476:220|396:152,1,157.500006008148,8|0,0:0|0:0,0:0:0:0:
216,119,19219,2,0,P|266:176|342:168,1,157.500006008148,4|0,0:0|0:0,0:0:0:0:
392,44,19676,6,0,P|378:73|376:93,1,52.5000020027161,8|0,0:0|0:0,0:0:0:0:
372,244,19905,2,0,L|364:328,1,52.5000020027161,2|0,0:0|0:0,0:0:0:0:
460,92,20134,2,0,L|512:80,1,52.5000020027161,4|0,0:0|0:0,0:0:0:0:
296,100,20363,2,0,L|236:64,1,52.5000020027161,2|0,0:0|0:0,0:0:0:0:
476,248,20593,5,8,0:0:0:0:
272,384,20822,1,0,0:0:0:0:
344,320,20936,1,0,0:0:0:0:
272,256,21050,2,0,L|272:192,1,52.5000020027161,4|0,0:0|0:0,0:0:0:0:
144,156,21280,1,0,0:0:0:0:
44,348,21509,2,0,L|100:340,1,52.5000020027161,8|0,0:0|0:0,0:0:0:0:
200,320,21738,1,0,0:0:0:0:
44,172,21967,5,4,3:2:0:0:
110,247,22082,1,2,3:2:0:0:
213,230,22196,1,2,3:2:0:0:
244,140,22311,1,2,3:2:0:0:
60,15,22425,6,0,L|41:199,1,157.500006008148,8|0,0:0|0:0,0:0:0:0:
153,313,22883,2,0,L|141:117,1,157.500006008148,4|0,0:0|0:0,0:0:0:0:
6,255,23340,6,0,L|0:304,1,26.2500010013581,8|0,0:0|0:0,0:0:0:0:
32,257,23455,2,0,L|24:304,1,26.2500010013581
59,259,23570,2,0,L|123:243,1,52.5000020027161,2|0,0:0|0:0,0:0:0:0:
315,241,23798,2,0,L|320:284,1,26.2500010013581,4|0,0:0|0:0,0:0:0:0:
289,241,23913,2,0,L|296:288,1,26.2500010013581
263,242,24028,2,0,L|199:226,1,52.5000020027161,2|0,0:0|0:0,0:0:0:0:
143,155,24257,5,8,3:0:0:0:
300,8,24485,1,0,0:0:0:0:
268,84,24600,1,0,0:0:0:0:
320,152,24714,2,0,L|396:160,1,52.5000020027161,4|0,2:0|0:0,0:0:0:0:
164,32,24944,1,0,0:0:0:0:
352,76,25172,2,0,L|440:88,1,52.5000020027161,8|0,0:0|0:0,0:0:0:0:
143,155,25402,1,0,0:0:0:0:
384,240,25631,5,4,3:2:0:0:
451,123,25746,1,2,3:2:0:0:
359,148,25860,1,2,3:2:0:0:
474,214,25975,1,2,3:2:0:0:
320,364,26089,6,0,B|292:256|292:256|312:176,1,157.500006008148,8|0,0:0|0:0,0:0:0:0:
208,32,26547,2,0,B|236:140|236:140|216:220,1,157.500006008148,4|0,0:0|0:0,0:0:0:0:
24,292,27004,6,0,L|84:284,1,52.5000020027161,8|0,0:0|0:0,0:0:0:0:
152,144,27233,2,0,L|76:136,1,52.5000020027161,2|0,0:0|0:0,0:0:0:0:
192,336,27462,2,0,L|200:264,1,52.5000020027161,4|0,0:0|0:0,0:0:0:0:
8,136,27691,2,0,L|0:200,1,52.5000020027161,2|0,0:0|0:0,0:0:0:0:
104,308,27921,6,0,L|96:376,1,52.5000020027161,8|0,0:0|0:0,0:0:0:0:
328,268,28150,1,0,0:0:0:0:
328,268,28379,2,0,L|336:364,1,52.5000020027161,4|0,0:0|0:0,0:0:0:0:
152,144,28608,1,0,0:0:0:0:
152,144,28837,2,0,L|144:220,1,52.5000020027161,8|0,0:0|0:0,0:0:0:0:
264,56,29066,1,0,0:0:0:0:
264,56,29295,5,4,3:2:0:0:
272,156,29410,1,2,3:2:0:0:
363,191,29524,1,2,3:2:0:0:
448,128,29639,1,2,3:2:0:0:
264,56,29753,6,0,P|292:176|400:176,1,210.000008010865,8|0,3:0|0:0,0:0:0:0:
416,172,30097,1,2,3:2:0:0:
448,128,30211,1,4,0:0:0:0:
152,144,30440,1,10,3:2:0:0:
352,96,30669,1,8,3:2:0:0:
196,268,30898,1,2,3:2:0:0:
408,381,31127,2,0,L|416:169,1,210.000008010865,6|0,3:2|0:0,0:0:0:0:
200,40,31585,5,8,3:0:0:0:
200,40,31815,2,0,L|196:136,1,70,2|0,0:0|0:0,0:0:0:0:
24,280,32044,1,8,0:0:0:0:
24,280,32273,2,0,L|140:276,1,70,2|0,3:0|0:0,0:0:0:0:
292,364,32501,5,8,0:0:0:0:
208,156,32731,1,2,0:0:0:0:
192,240,32845,1,0,0:0:0:0:
128,184,32960,2,0,L|312:188,1,140,8|0,0:0|0:0,0:0:0:0:
352,168,33302,1,0,0:0:0:0:
396,96,33418,5,8,0:0:0:0:
464,264,33646,2,0,L|472:360,1,70,0|0,0:0|0:0,0:0:0:0:
316,96,33875,1,8,0:0:0:0:
264,332,34104,2,0,L|268:263,1,70,2|0,3:0|0:0,0:0:0:0:
396,96,34333,1,8,0:0:0:0:
228,176,34562,5,2,3:0:0:0:
152,144,34676,1,0,0:0:0:0:
96,208,34791,2,0,L|100:24,1,140,8|2,0:0|3:0,0:0:0:0:
324,144,35134,1,0,0:0:0:0:
296,224,35249,2,0,L|293:368,1,140,8|2,0:0|0:0,0:0:0:0:
396,96,35592,1,0,0:0:0:0:
448,164,35708,2,0,L|448:252,1,70,8|0,0:0|0:0,0:0:0:0:
293,363,35937,5,2,3:0:0:0:
204,152,36165,2,0,P|248:112|296:112,1,70,8|0,0:0|0:0,0:0:0:0:
80,308,36394,2,0,P|20:296|0:264,1,70,2|0,0:0|0:0,0:0:0:0:
284,192,36623,2,0,P|320:252|316:280,1,70,8|0,0:0|0:0,0:0:0:0:
72,224,36852,2,0,P|48:156|60:128,1,70,2|0,3:0|0:0,0:0:0:0:
264,316,37082,1,8,0:0:0:0:
264,316,37311,6,0,L|352:312,1,70,0|0,0:0|0:0,0:0:0:0:
112,228,37540,1,8,0:0:0:0:
112,228,37769,2,0,L|24:236,1,70,2|0,3:0|0:0,0:0:0:0:
320,136,37998,1,8,0:0:0:0:
320,136,38227,2,0,L|440:140,1,70,2|0,3:0|0:0,0:0:0:0:
188,80,38456,2,0,L|-4:88,1,140,8|0,0:0|0:0,0:0:0:0:
228,164,38798,1,0,0:0:0:0:
224,248,38913,5,8,3:0:0:0:
72,312,39142,2,0,L|84:420,1,70,2|0,0:0|0:0,0:0:0:0:
264,324,39372,1,8,0:0:0:0:
104,220,39601,2,0,P|96:168|98:90,1,70,2|0,3:0|0:0,0:0:0:0:
336,248,39830,5,8,0:0:0:0:
364,96,40059,2,0,P|414:81|488:88,1,70,2|0,0:0|0:0,0:0:0:0:
228,136,40287,2,0,P|200:104|180:56,1,70,8|0,0:0|0:0,0:0:0:0:
308,248,40516,1,2,3:0:0:0:
264,324,40631,2,0,P|232:344|176:348,1,70,0|8,0:0|0:0,0:0:0:0:
0,308,40859,1,0,0:0:0:0:
56,240,40975,2,0,P|108:240|148:252,1,70,2|0,0:0|0:0,0:0:0:0:
236,176,41204,6,0,P|272:92|228:4,1,140,8|2,0:0|3:0,0:0:0:0:
180,12,41547,1,0,0:0:0:0:
92,52,41662,1,8,0:0:0:0:
92,52,41891,2,0,L|100:136,1,70,2|0,3:0|0:0,0:0:0:0:
69,259,42120,1,8,0:0:0:0:
69,259,42349,6,0,L|-19:255,1,70,2|0,3:0|0:0,0:0:0:0:
252,284,42578,2,0,L|340:276,1,70,8|0,3:2|0:0,0:0:0:0:
36,360,42807,2,0,L|212:376,1,140,2|0,3:0|0:0,0:0:0:0:
456,368,43265,6,0,L|444:277,1,70,2|0,0:0|0:0,0:0:0:0:
368,172,43494,2,0,L|376:84,1,70,8|0,3:2|0:0,0:0:0:0:
512,204,43723,2,0,L|500:28,1,140,2|0,3:0|0:0,0:0:0:0:
184,40,44181,5,2,0:0:0:0:
220,140,44295,1,0,0:0:0:0:
152,220,44410,2,0,P|100:240|-1:246,1,140,4|0,3:0|0:0,0:0:0:0:
256,236,44753,1,0,0:0:0:0:
292,328,44868,2,0,P|344:348|445:354,1,140,8|0,0:0|0:0,0:0:0:0:
288,56,45325,1,4,3:0:0:0:
152,220,45554,6,0,L|27:206,1,70,0|0,0:0|0:0,0:0:0:0:
292,328,45783,2,0,L|392:316,1,70,0|0,0:0|0:0,0:0:0:0:
291,125,46012,2,0,L|287:45,1,70,0|0,0:0|0:0,0:0:0:0:
456,280,46241,6,0,L|450:360,1,70,4|0,0:3|0:0,0:0:0:0:
222,338,46470,2,0,L|300:326,1,70,2|0,0:0|0:0,0:0:0:0:
456,176,46699,1,8,0:0:0:0:
287,55,46928,2,0,L|292:136,1,70,2|0,0:3|0:0,0:0:0:0:
128,260,47157,6,0,P|170:178|131:105,1,140,4|2,0:2|0:3,0:0:0:0:
69,178,47501,1,0,0:0:0:0:
132,40,47615,2,0,L|222:51,1,70,2|0,0:3|0:0,0:0:0:0:
332,212,47844,2,0,L|236:216,1,70,2|0,0:0|0:0,0:0:0:0:
92,356,48073,5,0,0:0:0:0:
0,170,48302,2,0,L|96:180,1,70,8|0,0:0|0:0,0:0:0:0:
222,338,48531,1,0,0:0:0:0:
296,92,48760,6,0,P|330:51|365:35,1,70,2|0,0:0|0:0,0:0:0:0:
136,195,48989,2,0,P|84:185|52:163,1,70,4|0,0:2|0:0,0:0:0:0:
304,280,49218,2,0,P|321:330|318:368,1,70,2|0,0:3|0:0,0:0:0:0:
248,188,49447,1,2,0:3:0:0:
480,128,49677,1,2,0:2:0:0:
420,212,49791,1,0,0:0:0:0:
476,304,49905,6,0,L|468:376,1,70,8|0,0:3|0:0,0:0:0:0:
248,188,50134,2,0,P|288:172|352:184,1,70,2|0,0:0|0:0,0:0:0:0:
88,328,50363,2,0,P|36:312|8:260,1,70,4|0,0:2|0:0,0:0:0:0:
304,280,50592,2,0,P|344:320|352:356,1,70,2|0,0:3|0:0,0:0:0:0:
100,224,50821,6,0,P|92:180|112:120,1,70,8|0,0:0|0:0,0:0:0:0:
304,280,51050,1,2,0:0:0:0:
256,368,51165,2,0,P|212:372|160:352,1,70,0|2,0:0|0:3,0:0:0:0:
188,180,51394,1,0,0:0:0:0:
260,112,51507,2,0,P|344:80|396:112,1,140,8|0,0:0|0:0,0:0:0:0:
396,228,51852,5,0,0:0:0:0:
484,116,51966,2,0,L|496:208,1,70,2|0,0:3|0:0,0:0:0:0:
297,349,52195,2,0,L|305:261,1,70,4|0,0:2|0:0,0:0:0:0:
304,111,52424,2,0,L|400:115,1,70,2|0,0:3|0:0,0:0:0:0:
464,320,52653,2,0,L|360:324,1,70,2|0,0:3|0:0,0:0:0:0:
224,168,52882,6,0,P|208:128|212:68,1,70,8|0,0:0|0:0,0:0:0:0:
152,328,53111,2,0,P|125:361|71:388,1,70,4|0,0:2|0:0,0:0:0:0:
327,305,53340,2,0,P|369:311|419:344,1,70,2|0,0:3|0:0,0:0:0:0:
460,132,53569,6,0,L|356:156,1,70,4|0,0:3|0:0,0:0:0:0:
180,16,53798,2,0,L|268:24,1,70,2|0,0:0|0:0,0:0:0:0:
92,240,54027,1,8,0:0:0:0:
327,305,54256,2,0,L|332:386,1,70,2|0,0:3|0:0,0:0:0:0:
171,293,54485,6,0,P|115:332|48:324,1,140,4|2,0:2|0:3,0:0:0:0:
92,240,54829,1,0,0:0:0:0:
260,176,54943,2,0,L|252:260,1,70,2|0,0:3|0:0,0:0:0:0:
424,360,55172,2,0,L|421:290,1,70,2|0,0:0|0:0,0:0:0:0:
460,132,55401,5,0,0:0:0:0:
316,0,55630,2,0,L|308:134,1,70,8|0,0:0|0:0,0:0:0:0:
253,245,55859,1,0,0:0:0:0:
76,76,56088,6,0,L|55:-11,1,70,2|0,0:3|0:0,0:0:0:0:
99,265,56317,2,0,L|33:326,1,70,4|0,0:2|0:0,0:0:0:0:
249,151,56546,2,0,L|334:176,1,70,2|0,0:3|0:0,0:0:0:0:
144,164,56775,1,2,0:3:0:0:
108,384,57005,1,2,0:2:0:0:
208,328,57119,1,0,0:0:0:0:
316,368,57233,6,0,L|404:384,1,70,8|0,0:3|0:0,0:0:0:0:
404,160,57462,2,0,L|416:68,1,70,2|0,0:0|0:0,0:0:0:0:
144,164,57691,2,0,L|148:244,1,70,4|0,0:2|0:0,0:0:0:0:
324,96,57920,2,0,L|336:12,1,70,2|0,0:3|0:0,0:0:0:0:
52,212,58149,6,0,L|60:312,1,70,8|0,0:0|0:0,0:0:0:0:
272,248,58378,1,2,0:0:0:0:
376,260,58493,2,0,P|360:312|312:336,1,70,0|2,0:0|0:3,0:0:0:0:
192,320,58722,5,0,0:0:0:0:
249,151,58836,1,4,0:2:0:0:
256,192,59065,12,8,59981,2:0:0:0:
249,151,60440,6,0,B|240:312,1,140,4|0,0:0|0:0,0:0:0:0:
140,172,60669,1,0,3:0:0:0:
176,76,60783,1,2,3:2:0:0:
346,197,60898,6,0,L|444:208,1,87.5,12|0,0:3|0:0,0:0:0:0:
136,272,61127,2,0,L|44:280,1,87.5,2|0,0:1|0:0,0:0:0:0:
336,292,61356,6,0,L|438:303,1,87.5,4|0,0:0|0:0,0:0:0:0:
140,172,61585,2,0,L|37:181,1,87.5,2|0,0:3|0:0,0:0:0:0:
238,325,61814,6,0,L|250:129,1,175,8|2,0:0|3:0,0:0:0:0:
444,16,62157,1,0,3:0:0:0:
472,112,62272,1,4,3:2:0:0:
96,368,62501,1,2,3:1:0:0:
136,272,62615,1,2,3:1:0:0:
32,232,62730,6,0,L|44:112,1,87.5,8|0,0:3|0:0,0:0:0:0:
256,116,62959,1,2,0:1:0:0:
144,60,63073,1,0,0:0:0:0:
344,64,63188,6,0,P|356:128|332:188,1,87.5,4|0,0:0|0:0,0:0:0:0:
136,272,63417,2,0,P|124:208|148:148,1,87.5,2|0,0:3|0:0,0:0:0:0:
256,20,63646,5,8,0:0:0:0:
392,384,63875,1,6,3:2:0:0:
0,328,64104,1,6,3:2:0:0:
256,20,64333,1,2,3:1:0:0:
344,64,64447,1,2,3:1:0:0:
429,21,64562,6,0,P|339:29|227:13,1,175,8|0,3:0|0:0,0:0:0:0:
36,132,64905,1,0,0:0:0:0:
136,192,65020,2,0,P|208:184|360:216,1,175,4|2,0:0|0:3,0:0:0:0:
512,264,65363,1,0,0:0:0:0:
424,336,65478,6,0,P|372:344|320:324,1,87.5,2|0,0:1|0:0,0:0:0:0:
104,280,65707,2,0,P|148:288|192:270,1,87.5,8|0,0:0|0:0,0:0:0:0:
396,164,65936,6,0,L|387:252,1,87.5,4|0,0:0|0:0,0:0:0:0:
136,192,66165,2,0,L|132:80,1,87.5,10|0,0:0|0:0,0:0:0:0:
440,84,66394,6,0,P|372:72|308:168,1,175,8|0,0:3|0:0,0:0:0:0:
236,360,66737,1,2,0:1:0:0:
104,280,66852,2,0,P|52:268|-6:276,1,87.5,4|0,0:2|0:2,0:0:0:0:
341,361,67081,2,0,P|389:353|433:329,1,87.5,2|0,0:3|0:0,0:0:0:0:
216,176,67310,2,0,P|204:223|210:270,1,87.5,8|0,0:0|0:0,0:0:0:0:
464,136,67539,5,2,3:0:0:0:
360,164,67653,1,0,3:0:0:0:
272,104,67768,2,0,P|204:84|128:168,1,140,6|0,3:2|0:0,0:0:0:0:
124,356,67997,1,0,0:0:0:0:
172,264,68111,1,0,0:0:0:0:
88,192,68226,6,0,P|56:144|52:100,1,87.5,12|0,3:0|0:0,0:0:0:0:
188,40,68455,1,2,0:1:0:0:
272,104,68569,1,0,0:0:0:0:
360,164,68684,2,0,L|464:156,1,87.5,4|0,0:0|0:0,0:0:0:0:
320,356,68913,2,0,L|228:349,1,87.5,2|0,0:3|0:0,0:0:0:0:
368,60,69142,6,0,L|512:48,1,87.5,8|0,0:0|0:0,0:0:0:0:
300,260,69371,2,0,L|204:252,1,87.5,2|0,0:3|0:0,0:0:0:0:
104,32,69600,1,4,0:0:0:0:
0,300,69829,1,2,3:1:0:0:
108,308,69943,1,2,3:1:0:0:
60,212,70058,6,0,L|56:124,1,87.5,8|0,0:3|0:0,0:0:0:0:
196,72,70287,1,2,0:3:0:0:
288,120,70401,1,0,0:0:0:0:
388,76,70516,2,0,P|400:120|364:196,1,87.5,4|0,0:0|0:0,0:0:0:0:
216,337,70745,2,0,P|204:293|240:217,1,87.5,2|0,0:3|0:0,0:0:0:0:
476,348,70974,5,8,0:0:0:0:
304,24,71203,1,6,3:2:0:0:
108,308,71432,1,6,3:2:0:0:
476,348,71661,5,2,3:1:0:0:
500,244,71775,1,2,3:1:0:0:
368,336,71890,2,0,P|320:332|278:312,1,87.5,8|0,0:3|0:0,0:0:0:0:
104,176,72119,2,0,P|146:160|188:156,1,87.5,2|0,0:1|0:0,0:0:0:0:
44,384,72348,1,4,3:2:0:0:
44,384,72577,6,0,L|32:280,1,87.5,2|0,0:3|0:0,0:0:0:0:
288,120,72806,2,0,L|280:220,1,87.5,8|0,0:0|0:0,0:0:0:0:
28,104,73035,1,2,0:3:0:0:
55,1,73149,1,0,0:0:0:0:
128,76,73264,1,6,3:2:0:0:
128,76,73493,5,2,3:0:0:0:
104,176,73607,1,0,0:0:0:0:
160,264,73722,2,0,P|112:280|47:266,1,87.5,8|0,3:0|0:0,0:0:0:0:
384,172,73951,2,0,P|433:182|482:226,1,87.5,8|0,3:2|0:0,0:0:0:0:
104,176,74180,2,0,P|88:128|102:62,1,87.5,8|0,3:2|0:0,0:0:0:0:
392,268,74409,2,0,P|381:317|337:366,1,87.5,8|0,3:2|0:0,0:0:0:0:
200,120,74638,6,0,P|284:112|328:24,1,157.500006008148,10|0,3:2|0:0,0:0:0:0:
236,32,75096,2,0,B|232:68|232:68|244:92|244:92|236:116|236:116|272:248|240:348|240:348|220:272|240:208,1,420,6|0,3:2|0:0,0:0:0:0:
231,252,75554,6,0,L|403:260,1,157.500006008148,4|0,3:0|0:0,0:0:0:0:
488,148,76012,2,0,L|316:140,1,157.500006008148,4|0,0:0|0:0,0:0:0:0:
236,32,76469,1,8,0:0:0:0:
262,34,76585,1,0,0:0:0:0:
288,35,76699,2,0,L|371:41,1,52.5000020027161,0|0,0:0|0:0,0:0:0:0:
440,8,76928,5,4,3:2:0:0:
492,100,77043,1,2,3:2:0:0:
444,192,77157,1,2,3:2:0:0:
340,204,77272,1,2,3:2:0:0:
268,128,77386,6,0,P|249:203|144:216,1,157.500006008148,8|0,0:0|0:0,0:0:0:0:
135,13,77844,2,0,P|124:88|180:140,1,157.500006008148,4|0,0:0|0:0,0:0:0:0:
256,40,78302,2,0,P|230:44|208:58,1,52.5000020027161,8|0,0:0|0:0,0:0:0:0:
52,128,78531,2,0,P|20:124|-16:104,1,52.5000020027161,2|0,0:0|0:0,0:0:0:0:
179,228,78760,2,0,P|199:252|203:288,1,52.5000020027161,4|0,0:0|0:0,0:0:0:0:
48,360,78989,2,0,P|28:336|24:300,1,52.5000020027161,2|0,0:0|0:0,0:0:0:0:
152,140,79218,5,8,0:0:0:0:
140,384,79447,1,0,0:0:0:0:
116,296,79561,1,0,0:0:0:0:
204,320,79676,2,0,L|288:328,1,52.5000020027161,4|0,0:0|0:0,0:0:0:0:
400,360,79905,1,0,0:0:0:0:
510,254,80134,2,0,L|454:257,1,52.5000020027161,8|0,0:0|0:0,0:0:0:0:
284,248,80363,1,0,0:0:0:0:
400,88,80592,5,4,3:2:0:0:
475,154,80707,1,2,3:2:0:0:
458,257,80821,1,2,3:2:0:0:
368,288,80936,1,2,3:2:0:0:
284,248,81050,6,0,P|220:224|144:280,1,157.500006008148,8|0,0:0|0:0,0:0:0:0:
0,232,81508,2,0,P|67:220|105:134,1,157.500006008148,4|0,0:0|0:0,0:0:0:0:
12,40,81966,6,0,L|52:44,1,26.2500010013581,8|0,0:0|0:0,0:0:0:0:
10,68,82081,2,0,L|50:72,1,26.2500010013581
8,96,82195,2,0,L|24:160,1,52.5000020027161,2|0,0:0|0:0,0:0:0:0:
12,336,82424,2,0,L|55:333,1,26.2500010013581,4|0,0:0|0:0,0:0:0:0:
11,309,82539,2,0,L|59:301,1,26.2500010013581
12,282,82653,2,0,L|-4:218,1,52.5000020027161,2|0,0:0|0:0,0:0:0:0:
120,316,82882,5,8,3:0:0:0:
276,268,83110,1,0,0:0:0:0:
312,348,83225,1,0,0:0:0:0:
368,280,83340,2,0,L|444:272,1,52.5000020027161,4|0,0:0|0:0,0:0:0:0:
126,224,83569,1,0,0:0:0:0:
336,192,83798,2,0,L|408:184,1,52.5000020027161,8|0,0:0|0:0,0:0:0:0:
132,136,84027,1,0,0:0:0:0:
260,8,84256,5,4,3:2:0:0:
246,98,84371,1,2,3:2:0:0:
234,190,84485,1,2,3:2:0:0:
222,282,84600,1,2,3:2:0:0:
212,372,84714,6,0,B|388:360,1,157.500006008148,8|0,0:0|0:0,0:0:0:0:
222,282,85172,2,0,B|56:272,1,157.500006008148,4|0,0:0|0:0,0:0:0:0:
193,101,85630,2,0,L|249:97,1,52.5000020027161,8|0,0:0|0:0,0:0:0:0:
64,176,85859,2,0,L|-12:168,1,52.5000020027161,2|0,0:0|0:0,0:0:0:0:
100,24,86088,2,0,L|94:76,1,52.5000020027161,4|0,0:0|0:0,0:0:0:0:
168,264,86317,2,0,L|164:208,1,52.5000020027161,2|0,0:0|0:0,0:0:0:0:
28,340,86546,6,0,L|112:348,1,52.5000020027161,8|0,0:0|0:0,0:0:0:0:
328,268,86775,1,0,0:0:0:0:
328,268,87004,2,0,L|248:272,1,52.5000020027161,4|0,0:0|0:0,0:0:0:0:
72,128,87233,1,0,0:0:0:0:
72,128,87462,2,0,L|160:136,1,52.5000020027161,8|0,0:0|0:0,0:0:0:0:
268,36,87691,1,0,0:0:0:0:
268,36,87920,5,4,3:2:0:0:
276,136,88035,1,2,3:2:0:0:
367,171,88149,1,2,3:2:0:0:
452,108,88264,1,2,3:2:0:0:
440,16,88378,6,0,L|428:368,1,315.000012016297,8|0,3:0|0:0,0:0:0:0:
377,222,88836,2,0,L|367:171,1,52.5000020027161,2|0,0:0|0:0,0:0:0:0:
340,48,89065,1,2,3:2:0:0:
264,156,89294,1,0,3:0:0:0:
452,108,89523,1,2,0:0:0:0:
212,84,89752,2,0,P|176:148|268:244,1,210.000008010865,2|8,3:2|0:0,0:0:0:0:
124,88,96623,6,0,P|108:144|196:84,1,245,10|0,0:0|0:0,0:0:0:0:
188,16,97538,5,8,3:0:0:0:
392,80,97767,2,0,L|492:76,1,70,0|0,0:0|0:0,0:0:0:0:
288,232,97997,1,4,0:0:0:0:
476,344,98226,2,0,L|470:214,1,70,2|0,0:3|0:0,0:0:0:0:
340,156,98455,5,8,0:0:0:0:
292,324,98684,1,2,0:0:0:0:
208,284,98798,2,0,P|193:234|216:164,1,70,0|4,0:0|0:0,0:0:0:0:
392,80,99027,1,0,0:0:0:0:
436,160,99142,2,0,P|420:212|376:244,1,70,2|0,0:3|0:0,0:0:0:0:
504,368,99371,2,0,P|466:328|461:274,1,70,8|0,0:0|0:0,0:0:0:0:
292,324,99600,2,0,P|345:311|394:333,1,70,0|0,0:0|0:0,0:0:0:0:
200,384,99829,6,0,L|209:244,1,140,4|2,0:0|0:3,0:0:0:0:
168,156,100172,1,0,0:0:0:0:
80,188,100287,1,8,0:0:0:0:
80,188,100516,2,0,L|8:180,1,70,2|0,0:3|0:0,0:0:0:0:
260,124,100745,1,4,0:0:0:0:
260,124,100974,5,2,0:3:0:0:
356,92,101203,2,0,L|340:204,1,87.5,4|0,3:0|0:0,0:0:0:0:
448,64,101432,2,0,L|460:308,1,175,4|0,3:0|0:0,0:0:0:0:
149,273,101890,5,2,3:2:0:0:
241,317,102119,2,0,L|237:217,1,87.5,4|0,3:0|0:0,0:0:0:0:
333,353,102348,2,0,L|345:153,1,175,4|0,3:0|0:0,0:0:0:0:
196,16,102806,5,2,3:2:0:0:
236,108,102920,1,0,3:0:0:0:
136,88,103035,2,0,L|40:96,1,87.5,4|0,3:0|0:0,0:0:0:0:
296,28,103264,2,0,L|400:36,1,87.5,8|0,3:2|0:0,0:0:0:0:
168,176,103493,2,0,L|80:184,1,87.5,4|0,3:2|0:0,0:0:0:0:
328,124,103722,2,0,L|428:132,1,87.5,8|0,3:2|0:0,0:0:0:0:
268,196,103951,1,4,3:0:0:0:
456,316,104180,6,0,L|468:232,1,52.5000020027161,0|0,0:0|0:0,0:0:0:0:
319,72,104409,2,0,L|328:124,1,52.5000020027161,0|0,0:0|0:0,0:0:0:0:
204,268,104638,2,0,L|151:275,1,52.5000020027161,8|0,0:0|0:0,0:0:0:0:
72,64,104867,6,0,L|200:80,1,70,4|0,0:3|0:0,0:0:0:0:
308,224,105096,2,0,L|389:212,1,70,2|0,0:3|0:0,0:0:0:0:
444,24,105324,1,8,0:0:0:0:
232,36,105554,2,0,L|237:117,1,70,2|0,0:0|0:0,0:0:0:0:
204,268,105782,6,0,P|122:226|49:265,1,140,4|2,0:2|0:3,0:0:0:0:
122,327,106126,1,0,0:0:0:0:
314,293,106241,2,0,L|306:205,1,70,2|0,0:3|0:0,0:0:0:0:
141,72,106470,2,0,L|129:164,1,70,2|0,0:0|0:0,0:0:0:0:
122,327,106698,5,0,0:0:0:0:
280,136,106928,2,0,L|376:146,1,70,8|0,0:0|0:0,0:0:0:0:
493,309,107157,2,0,L|424:316,1,70,2|0,0:3|0:0,0:0:0:0:
220,356,107386,2,0,L|208:260,1,70,2|0,0:0|0:0,0:0:0:0:
444,120,107615,2,0,L|436:208,1,70,4|0,0:2|0:0,0:0:0:0:
320,324,107844,1,2,0:3:0:0:
124,220,108073,2,0,L|36:228,1,70,2|0,0:3|0:0,0:0:0:0:
211,52,108302,1,2,0:2:0:0:
167,136,108416,1,0,0:0:0:0:
219,216,108531,6,0,L|211:288,1,70,8|0,0:3|0:0,0:0:0:0:
416,352,108760,2,0,L|516:340,1,70,2|0,0:0|0:0,0:0:0:0:
332,140,108989,2,0,L|248:132,1,70,4|0,0:2|0:0,0:0:0:0:
404,212,109218,2,0,P|424:184|432:148,1,70
158,66,109447,6,0,L|170:170,1,70,8|0,0:0|0:0,0:0:0:0:
304,284,109675,1,2,0:0:0:0:
264,364,109790,2,0,P|216:380|144:356,1,70,0|2,0:0|0:3,0:0:0:0:
28,284,110020,1,0,0:0:0:0:
92,216,110134,2,0,P|124:300|92:352,1,140
0,196,110477,5,0,0:0:0:0:
116,68,110592,2,0,L|20:76,1,70,2|0,0:3|0:0,0:0:0:0:
180,208,110821,2,0,L|264:212,1,70,4|0,0:2|0:0,0:0:0:0:
88,372,111050,2,0,L|90:302,1,70,2|0,0:3|0:0,0:0:0:0:
304,128,111279,1,2,0:3:0:0:
352,212,111394,1,0,0:0:0:0:
296,288,111508,6,0,P|300:322|314:354,1,70,8|0,0:0|0:0,0:0:0:0:
304,128,111737,2,0,P|332:107|353:79,1,70,4|0,0:2|0:0,0:0:0:0:
180,208,111966,2,0,P|147:194|113:190,1,70,2|0,0:3|0:0,0:0:0:0:
88,372,112195,6,0,L|208:364,1,70,4|0,0:3|0:0,0:0:0:0:
456,292,112424,2,0,L|336:296,1,70,2|0,0:3|0:0,0:0:0:0:
208,120,112652,1,8,0:0:0:0:
400,88,112882,2,0,L|405:169,1,70,2|0,0:0|0:0,0:0:0:0:
155,199,113110,6,0,P|116:143|124:76,1,140,4|2,0:2|0:3,0:0:0:0:
208,120,113454,1,0,0:0:0:0:
184,288,113569,2,0,L|80:284,1,70,2|0,0:3|0:0,0:0:0:0:
364,180,113798,2,0,L|474:183,1,70,2|0,0:0|0:0,0:0:0:0:
260,40,114026,5,0,0:0:0:0:
320,268,114256,2,0,L|436:272,1,70,8|0,0:0|0:0,0:0:0:0:
208,120,114484,1,0,0:0:0:0:
76,256,114714,6,0,L|88:361,1,70,2|0,0:0|0:0,0:0:0:0:
80,104,114943,2,0,L|-40:116,1,70,4|0,0:2|0:0,0:0:0:0:
232,204,115172,2,0,L|336:208,1,70,2|0,0:3|0:0,0:0:0:0:
140,180,115400,1,2,0:3:0:0:
332,308,115630,1,2,0:2:0:0:
396,240,115744,1,0,0:0:0:0:
380,144,115859,6,0,L|392:60,1,70,8|0,0:3|0:0,0:0:0:0:
240,292,116088,2,0,L|230:361,1,70,2|0,0:0|0:0,0:0:0:0:
292,108,116317,2,0,L|304:36,1,70,4|0,0:2|0:0,0:0:0:0:
331,307,116546,2,0,L|322:377,1,70
120,268,116775,6,0,L|50:263,1,70,8|0,0:0|0:0,0:0:0:0:
196,108,117003,1,2,0:0:0:0:
240,188,117118,2,0,P|271:201|308:200,1,70,0|2,0:0|0:3,0:0:0:0:
380,88,117347,5,0,0:0:0:0:
244,28,117462,1,6,3:2:0:0:
256,192,117690,12,8,118606,2:0:0:0:
340,184,119065,6,0,B|481:199,1,140,6|0,3:2|0:0,0:0:0:0:
360,88,119294,1,2,3:2:0:0:
268,120,119408,1,0,0:0:0:0:
196,188,119523,6,0,P|173:154|175:81,1,87.5,12|0,3:0|0:0,0:0:0:0:
288,284,119752,2,0,P|290:324|252:386,1,87.5,2|0,0:1|0:0,0:0:0:0:
268,120,119981,2,0,P|305:105|376:123,1,87.5,4|0,0:0|0:0,0:0:0:0:
200,312,120210,2,0,P|162:326|91:308,1,87.5,2|0,0:3|0:0,0:0:0:0:
320,196,120440,6,0,P|384:256|352:348,1,175,8|2,0:0|3:0,0:0:0:0:
280,376,120782,1,0,3:0:0:0:
288,284,120897,1,4,3:2:0:0:
44,152,121126,1,2,0:1:0:0:
56,244,121240,1,2,0:1:0:0:
20,332,121355,6,0,L|132:324,1,87.5,8|0,3:0|0:0,0:0:0:0:
236,112,121584,1,2,0:1:0:0:
136,80,121698,1,0,0:0:0:0:
316,64,121813,6,0,P|328:128|304:188,1,87.5,4|0,0:0|0:0,0:0:0:0:
168,260,122042,2,0,P|156:196|180:136,1,87.5,2|0,0:3|0:0,0:0:0:0:
216,20,122271,5,8,3:2:0:0:
452,276,122500,1,6,3:2:0:0:
20,332,122729,1,6,3:2:0:0:
216,20,122958,1,2,3:1:0:0:
236,112,123072,1,2,3:1:0:0:
316,64,123187,6,0,P|406:56|344:136,1,175,8|0,0:3|0:0,0:0:0:0:
168,260,123530,1,0,0:0:0:0:
100,328,123645,2,0,P|28:352|16:268,1,175,4|2,0:0|0:3,0:0:0:0:
140,156,123988,1,0,0:0:0:0:
252,216,124103,6,0,P|260:268|240:320,1,87.5,2|0,0:1|0:0,0:0:0:0:
60,200,124332,2,0,P|49:157|57:115,1,87.5,8|0,0:0|0:0,0:0:0:0:
216,20,124561,6,0,L|207:108,1,87.5,4|0,0:0|0:0,0:0:0:0:
368,184,124790,2,0,L|372:296,1,87.5,8|0,0:0|0:0,0:0:0:0:
283,173,125019,6,0,P|332:105|416:112,1,175,8|0,3:0|0:0,0:0:0:0:
496,300,125362,1,0,0:0:0:0:
408,360,125477,2,0,P|364:361|322:349,1,87.5,4|0,0:0|0:0,0:0:0:0:
180,296,125706,2,0,P|132:304|88:328,1,87.5,2|0,0:3|0:0,0:0:0:0:
275,258,125935,2,0,P|287:211|281:164,1,87.5,8|0,0:0|0:0,0:0:0:0:
72,68,126164,5,2,3:0:0:0:
136,148,126278,1,0,0:0:0:0:
224,104,126394,2,0,P|292:84|376:160,1,140,6|0,3:2|0:0,0:0:0:0:
512,152,126622,1,0,0:0:0:0:
416,216,126736,1,0,0:0:0:0:
466,304,126852,6,0,P|418:320|382:314,1,87.5,4|0,3:0|0:0,0:0:0:0:
283,172,127081,1,2,0:1:0:0:
192,352,127194,1,0,0:0:0:0:
120,272,127310,2,0,L|112:168,1,87.5,4|0,0:0|0:0,0:0:0:0:
328,0,127539,2,0,L|321:92,1,87.5,2|0,0:3|0:0,0:0:0:0:
20,268,127768,6,0,L|8:124,1,87.5,8|0,0:0|0:0,0:0:0:0:
231,16,127997,2,0,L|223:112,1,87.5,2|0,0:3|0:0,0:0:0:0:
296,344,128225,1,4,0:0:0:0:
508,240,128454,1,2,3:1:0:0:
464,140,128568,1,2,3:1:0:0:
376,192,128683,6,0,P|332:204|232:160,1,87.5,8|0,0:3|0:0,0:0:0:0:
200,120,128912,1,2,0:3:0:0:
16,224,129026,1,0,0:0:0:0:
132,216,129142,2,0,P|164:248|176:356,1,87.5,4|0,0:0|0:0,0:0:0:0:
328,116,129371,2,0,P|339:71|427:7,1,87.5,2|0,0:3|0:0,0:0:0:0:
412,344,129599,5,8,3:2:0:0:
16,224,129828,1,6,3:2:0:0:
268,0,130058,1,6,3:2:0:0:
412,344,130286,5,2,3:1:0:0:
468,260,130400,1,2,3:1:0:0:
320,304,130516,2,0,P|272:324|233:325,1,87.5,8|0,0:3|0:0,0:0:0:0:
416,64,130745,2,0,P|460:68|506:88,1,87.5,2|0,0:1|0:0,0:0:0:0:
184,96,130974,1,4,3:2:0:0:
184,96,131202,6,0,L|196:200,1,87.5,2|0,0:3|0:0,0:0:0:0:
0,384,131431,2,0,L|8:284,1,87.5,8|0,0:0|0:0,0:0:0:0:
240,360,131660,1,2,0:3:0:0:
268,260,131774,1,0,0:0:0:0:
164,288,131890,1,4,3:2:0:0:
164,288,132119,5,2,3:2:0:0:
240,360,132232,1,0,0:0:0:0:
344,328,132347,2,0,L|456:336,1,87.5,8|0,3:0|0:0,0:0:0:0:
184,96,132576,2,0,L|48:108,1,87.5,8|0,3:2|0:0,0:0:0:0:
404,236,132805,2,0,L|512:244,1,87.5,8|0,3:2|0:0,0:0:0:0:
132,192,133035,2,0,L|36:200,1,87.5,8|0,3:2|0:0,0:0:0:0:
360,156,133264,6,0,P|300:136|352:172,1,157.500006008148,8|0,3:2|0:0,0:0:0:0:
438,115,133722,2,0,P|265:58|256:240,1,420,6|0,3:2|3:0,0:0:0:0:
88,96,149752,6,0,L|96:160,2,35.0000013351441,8|0|0,0:0|0:0|0:0,0:0:0:0:
128,208,149981,2,0,L|120:268,2,35.0000013351441,2|0|0,0:2|0:0|0:0,0:0:0:0:
48,344,150210,5,2,0:0:0:0:
79,329,150286,1,0,0:0:0:0:
114,329,150362,1,0,0:0:0:0:
192,292,150440,1,2,0:2:0:0:
222,309,150516,1,0,0:0:0:0:
256,312,150592,1,0,0:0:0:0:
324,256,150669,6,0,P|348:312|324:372,1,105.000004005432,6|2,0:2|3:2,0:0:0:0:
264,188,150974,1,0,0:0:0:0:
264,188,151050,1,0,0:0:0:0:
264,188,151127,6,0,P|304:168|392:192,1,105.000004005432,2|2,3:1|3:2,0:0:0:0:
512,232,151432,1,0,0:0:0:0:
512,232,151508,1,0,0:0:0:0:
512,232,151585,6,0,P|456:252|384:216,1,105.000004005432,10|2,3:1|3:2,0:0:0:0:
464,52,151890,1,0,0:0:0:0:
464,52,151966,1,0,0:0:0:0:
464,52,152043,6,0,L|456:160,1,105.000004005432,2|2,3:1|3:2,0:0:0:0:
304,120,152348,1,0,0:0:0:0:
304,120,152424,1,0,0:0:0:0:
304,120,152501,6,0,L|296:0,1,105.000004005432,2|0,3:1|3:0,0:0:0:0:
88,88,152959,1,8,3:1:0:0:
248,212,153188,1,0,3:0:0:0:
248,212,153302,1,0,3:0:0:0:
248,212,153417,2,0,L|364:220,1,105.000004005432,2|2,3:2|3:0,0:0:0:0:
400,320,153760,1,0,0:0:0:0:
381,295,153875,1,8,3:1:0:0:
372,264,153989,1,2,3:0:0:0:
380,232,154104,1,0,0:0:0:0:
404,208,154218,1,0,0:0:0:0:
480,160,154333,6,0,L|472:68,1,52.5000020027161,6|0,3:2|0:0,0:0:0:0:
364,24,154562,1,0,0:0:0:0:
348,56,154676,1,0,0:0:0:0:
320,80,154791,1,0,0:0:0:0:
284,88,154905,1,0,0:0:0:0:
204,52,155020,6,0,L|196:128,1,52.5000020027161,2|0,3:0|0:0,0:0:0:0:
68,176,155249,2,0,L|128:172,1,52.5000020027161,10|0,3:1|0:0,0:0:0:0:
108,20,155478,2,0,L|100:104,1,52.5000020027161,0|0,0:0|0:0,0:0:0:0:
40,272,155707,1,8,3:1:0:0:
40,272,155821,1,2,3:2:0:0:
40,272,155936,2,0,L|104:268,1,52.5000020027161,2|2,3:2|3:2,0:0:0:0:
160,344,156166,5,2,3:0:0:0:
160,344,156280,1,0,0:0:0:0:
260,352,156395,1,2,3:1:0:0:
260,352,156509,1,0,0:0:0:0:
340,284,156624,1,8,3:1:0:0:
340,284,156737,1,0,0:0:0:0:
340,180,156853,1,2,3:1:0:0:
340,180,156967,1,0,0:0:0:0:
280,72,157082,5,2,3:0:0:0:
256,80,157196,1,0,0:0:0:0:
256,232,157310,1,2,3:1:0:0:
232,224,157424,1,0,0:0:0:0:
92,272,157539,1,8,3:1:0:0:
96,252,157653,1,0,3:0:0:0:
0,136,157768,1,2,3:1:0:0:
24,132,157882,1,0,0:0:0:0:
116,24,157997,6,0,L|144:184,1,140,6|2,3:2|3:1,0:0:0:0:
16,356,158684,1,2,3:0:0:0:
16,356,158913,2,0,L|40:208,1,140,8|2,3:1|3:1,0:0:0:0:
116,24,159600,1,2,3:2:0:0:
288,104,159829,5,2,3:0:0:0:
140,161,160058,1,2,3:1:0:0:
260,252,160287,1,8,3:1:0:0:
160,368,160516,1,2,3:0:0:0:
160,368,160630,1,2,3:0:0:0:
160,368,160745,2,0,L|172:268,1,70,10|2,3:1|3:0,0:0:0:0:
260,252,161203,5,2,3:2:0:0:
348,296,161317,1,2,3:2:0:0:
440,256,161432,1,2,3:2:0:0:
444,164,161546,1,2,3:2:0:0:
372,104,161661,5,6,3:2:0:0:
380,80,161775,1,0,0:0:0:0:
388,52,161890,1,2,3:2:0:0:
248,16,162119,6,0,L|256:84,1,52.5000020027161,8|0,3:1|0:0,0:0:0:0:
160,288,162348,2,0,L|150:212,1,52.5000020027161,2|0,3:0|0:0,0:0:0:0:
156,56,162577,2,0,L|165:121,1,52.5000020027161,2|0,3:1|0:0,0:0:0:0:
256,312,162806,2,0,L|248:236,1,52.5000020027161,2|0,3:0|0:0,0:0:0:0:
64,92,163035,2,0,L|74:164,1,52.5000020027161,10|0,3:1|0:0,0:0:0:0:
352,328,163264,2,0,L|344:256,1,52.5000020027161,2|0,3:0|0:0,0:0:0:0:
344,24,163493,5,2,3:1:0:0:
204,192,163722,1,2,3:2:0:0:
232,184,163836,1,0,3:0:0:0:
260,176,163951,1,10,3:1:0:0:
472,136,164180,1,2,3:0:0:0:
352,328,164409,1,10,3:1:0:0:
436,288,164638,6,0,P|444:344|436:372,1,70,0|2,0:0|3:2,0:0:0:0:
360,240,164981,1,2,3:0:0:0:
360,240,165096,1,8,3:1:0:0:
360,240,165210,1,0,3:0:0:0:
360,240,165325,6,0,L|376:96,1,140,12|4,0:0|0:2,0:0:0:0:
160,8,166012,1,0,0:0:0:0:
121,98,166241,2,0,L|132:192,1,70,8|0,0:2|0:0,0:0:0:0:
216,356,166699,1,4,0:2:0:0:
48,352,166928,2,0,L|45:317,1,35,0|0,0:0|0:0,0:0:0:0:
68,284,167157,6,0,L|164:292,1,70,8|0,0:0|0:0,0:0:0:0:
316,352,167615,1,4,0:2:0:0:
260,172,167844,1,0,0:0:0:0:
216,356,168073,1,8,0:2:0:0:
392,280,168302,1,0,0:0:0:0:
236,180,168531,1,4,0:2:0:0:
456,124,168761,1,2,0:2:0:0:
456,124,168875,1,2,0:2:0:0:
456,124,168989,6,0,L|448:196,1,70,8|0,0:0|0:0,0:0:0:0:
236,264,169447,2,0,P|184:248|156:196,1,70,4|0,0:2|0:0,0:0:0:0:
360,40,169905,6,0,P|368:84|348:144,1,70,8|0,0:2|0:0,0:0:0:0:
328,188,170249,1,0,0:0:0:0:
308,172,170363,2,0,L|238:175,1,70,4|2,0:2|0:2,0:0:0:0:
156,136,170707,1,2,0:2:0:0:
136,152,170821,2,0,L|52:148,1,70,8|2,0:0|0:2,0:0:0:0:
0,220,171165,1,2,0:2:0:0:
16,240,171279,1,4,0:2:0:0:
100,64,171508,1,8,0:2:0:0:
116,292,171737,1,6,0:2:0:0:
376,208,171966,6,0,P|341:212|309:226,1,70,0|0,0:0|0:0,0:0:0:0:
164,124,172195,2,0,P|184:152|212:173,1,70,8|0,0:2|0:0,0:0:0:0:
192,348,172424,2,0,P|205:315|209:281,1,70,2|0,0:2|0:0,0:0:0:0:
472,172,172653,6,0,L|468:252,1,70,12|0,0:0|0:0,0:0:0:0:
252,88,172882,2,0,L|244:-16,1,70,2|0,0:2|0:0,0:0:0:0:
116,292,173111,1,4,0:2:0:0:
84,64,173340,2,0,L|165:59,1,70,2|0,0:2|0:0,0:0:0:0:
60,212,173569,6,0,P|21:268|29:335,1,140,8|2,0:2|0:2,0:0:0:0:
116,292,173913,1,0,0:0:0:0:
244,348,174027,2,0,L|328:356,1,70,4|0,0:2|0:0,0:0:0:0:
472,208,174256,2,0,L|368:212,1,70,2|0,0:2|0:0,0:0:0:0:
232,104,174485,5,8,0:2:0:0:
436,48,174714,2,0,L|428:182,1,70,2|0,0:2|0:0,0:0:0:0:
292,228,174943,1,4,0:2:0:0:
137,86,175172,6,0,L|148:156,1,70,2|0,0:2|0:0,0:0:0:0:
293,321,175401,2,0,L|228:296,1,70,8|0,0:2|0:0,0:0:0:0:
8,330,175630,2,0,L|64:288,1,70,2|0,0:2|0:0,0:0:0:0:
148,248,175859,1,4,0:2:0:0:
48,48,176089,1,2,0:2:0:0:
128,0,176203,1,0,0:0:0:0:
216,40,176317,6,0,L|332:24,1,70,4|0,0:0|0:0,0:0:0:0:
504,136,176546,2,0,L|396:120,1,70,0|0,0:0|0:0,0:0:0:0:
188,136,176775,2,0,L|284:124,1,70,0|0,0:0|0:0,0:0:0:0:
484,48,177004,2,0,L|348:28,1,70
348,164,177233,5,0,0:0:0:0:
286,210,177347,1,0,0:0:0:0:
273,286,177462,1,0,0:0:0:0:
310,354,177576,1,0,0:0:0:0:
382,381,177691,1,0,0:0:0:0:
455,356,177805,1,0,0:0:0:0:
494,290,177920,1,0,0:0:0:0:
482,215,178034,1,0,0:0:0:0:
424,163,178149,6,0,L|364:168,15,35,8|0|0|0|0|0|0|0|0|0|0|0|0|0|0|0,2:3|2:0|2:0|2:0|2:0|2:0|2:0|2:0|2:0|2:0|2:0|2:0|2:0|2:0|2:0|0:0,0:0:0:0:
482,215,179065,6,0,P|496:292|476:328,1,105,10|0,0:2|0:0,0:0:0:0:
408,268,179523,6,0,B|223:277,1,140,6|0,0:2|0:0,0:0:0:0:
68,160,179752,1,2,3:2:0:0:
176,120,179866,1,2,3:2:0:0:
292,80,179981,6,0,L|280:204,1,87.5,12|0,3:0|0:0,0:0:0:0:
80,360,180210,2,0,L|76:272,1,87.5,2|0,0:1|0:0,0:0:0:0:
392,132,180439,6,0,L|384:232,1,87.5,4|0,0:0|0:0,0:0:0:0:
184,316,180668,2,0,L|181:213,1,87.5,2|0,0:3|0:0,0:0:0:0:
0,64,180897,6,0,P|44:8|156:84,1,175,8|2,0:0|3:0,0:0:0:0:
64,184,181240,1,0,3:0:0:0:
80,88,181355,1,4,0:0:0:0:
256,384,181584,1,2,3:1:0:0:
248,288,181698,1,2,3:1:0:0:
328,212,181813,6,0,L|348:92,1,87.5,8|0,3:0|0:0,0:0:0:0:
220,160,182042,1,2,0:1:0:0:
172,68,182156,1,0,0:0:0:0:
157,251,182271,6,0,P|151:294|164:336,1,87.5,4|0,0:0|0:0,0:0:0:0:
432,268,182500,2,0,P|436:224|424:182,1,87.5,2|0,0:3|0:0,0:0:0:0:
296,32,182729,5,8,3:2:0:0:
24,272,182958,1,6,3:2:0:0:
392,368,183187,1,6,3:2:0:0:
296,32,183416,1,2,3:1:0:0:
204,64,183530,1,2,3:1:0:0:
108,28,183645,6,0,L|120:232,1,175,8|0,3:0|0:0,0:0:0:0:
308,328,183988,1,0,0:0:0:0:
208,364,184103,2,0,L|220:172,1,175,4|2,0:0|0:3,0:0:0:0:
392,60,184446,1,0,0:0:0:0:
452,152,184561,6,0,L|464:304,1,87.5,2|0,0:1|0:0,0:0:0:0:
296,8,184790,2,0,L|284:112,1,87.5,8|0,0:0|0:0,0:0:0:0:
344,344,185019,6,0,L|336:240,1,87.5,4|2,0:0|0:0,0:0:0:0:
120,216,185248,2,0,L|136:96,1,87.5,8|0,0:0|0:0,0:0:0:0:
200,336,185477,6,0,B|160:308|160:308|-4:324,1,175,8|0,3:0|0:0,0:0:0:0:
248,240,185820,1,0,0:0:0:0:
356,296,185935,2,0,L|448:292,1,87.5,4|0,0:0|0:0,0:0:0:0:
196,168,186164,2,0,P|240:152|288:160,1,87.5,2|0,0:3|0:0,0:0:0:0:
0,28,186393,2,0,P|42:33|83:17,1,87.5,8|0,0:0|0:0,0:0:0:0:
376,16,186622,5,2,3:0:0:0:
420,112,186736,1,0,0:0:0:0:
376,208,186852,2,0,L|396:372,1,140,6|0,3:2|0:0,0:0:0:0:
100,340,187080,1,0,0:0:0:0:
128,244,187194,1,0,0:0:0:0:
208,304,187309,6,0,P|260:316|312:296,1,87.5,12|0,3:0|0:0,0:0:0:0:
252,212,187538,1,0,0:0:0:0:
28,268,187652,1,0,0:0:0:0:
56,164,187767,2,0,L|48:24,1,87.5,4|0,0:0|0:0,0:0:0:0:
360,140,187996,2,0,L|348:256,1,87.5,2|0,0:3|0:0,0:0:0:0:
156,120,188225,6,0,L|148:12,1,87.5,8|0,0:0|0:0,0:0:0:0:
456,200,188454,2,0,L|444:304,1,87.5,2|0,0:3|0:0,0:0:0:0:
100,340,188683,1,6,3:2:0:0:
100,340,188912,1,2,3:1:0:0:
16,280,189026,1,2,3:1:0:0:
116,236,189141,6,0,L|236:244,1,87.5,8|0,3:0|0:0,0:0:0:0:
296,296,189370,1,2,0:3:0:0:
380,76,189484,1,0,0:0:0:0:
288,35,189599,2,0,P|280:78|292:120,1,87.5,4|0,0:0|0:0,0:0:0:0:
396,336,189828,2,0,P|404:293|392:251,1,87.5,2|0,0:3|0:0,0:0:0:0:
168,128,190057,5,8,3:2:0:0:
512,0,190286,1,6,3:2:0:0:
396,336,190515,1,6,3:2:0:0:
168,128,190745,5,2,3:1:0:0:
112,32,190858,1,2,3:1:0:0:
100,208,190973,2,0,P|48:212|0:184,1,87.5,8|0,3:0|0:0,0:0:0:0:
236,48,191202,2,0,P|278:32|328:36,1,87.5,2|0,0:1|0:0,0:0:0:0:
212,308,191431,1,4,3:2:0:0:
212,308,191660,6,0,L|200:204,1,87.5,2|0,0:3|0:0,0:0:0:0:
496,176,191889,2,0,L|488:276,1,87.5,8|0,0:0|0:0,0:0:0:0:
292,124,192118,1,2,0:3:0:0:
392,152,192232,1,0,0:0:0:0:
320,224,192348,1,4,3:2:0:0:
320,224,192576,5,2,3:2:0:0:
220,200,192690,1,0,0:0:0:0:
144,272,192805,2,0,P|100:284|35:270,1,87.5,8|0,3:0|0:0,0:0:0:0:
312,121,193035,2,0,P|361:131|409:175,1,87.5,8|0,3:2|0:0,0:0:0:0:
96,192,193263,2,0,P|80:144|94:78,1,87.5,8|0,3:2|0:0,0:0:0:0:
320,224,193493,2,0,P|309:273|265:322,1,87.5,8|0,3:2|0:0,0:0:0:0:
232,64,193722,6,0,P|268:32|368:40,1,105.000004005432,8|0,3:2|0:0,0:0:0:0:
420,76,194065,1,0,0:0:0:0:
508,24,194180,1,4,3:2:0:0:
508,24,194409,5,8,3:2:0:0:
420,76,194523,1,0,0:0:0:0:
472,160,194638,2,0,L|480:264,1,87.5,4|0,3:0|0:0,0:0:0:0:
492,384,194867,1,2,0:0:0:0:
492,384,195096,1,0,0:0:0:0:
280,384,195325,6,0,L|292:268,1,87.5,8|0,3:2|0:0,0:0:0:0:
88,124,195554,2,0,L|96:228,1,87.5,4|0,3:0|0:0,0:0:0:0:
112,352,195783,1,2,0:0:0:0:
112,352,196012,1,0,0:0:0:0:
112,352,196241,5,8,3:2:0:0:
176,272,196355,1,0,0:0:0:0:
94,211,196470,2,0,L|-16:220,1,87.5,4|0,3:0|0:0,0:0:0:0:
312,76,196699,2,0,L|432:92,1,87.5,2|0,3:2|0:0,0:0:0:0:
128,104,196928,2,0,L|16:112,1,87.5,4|0,3:0|0:0,0:0:0:0:
344,176,197157,2,0,L|456:192,1,87.5,2|0,3:2|0:0,0:0:0:0:
240,368,197386,6,0,B|248:352|248:352|236:328|236:328|248:304|248:304|236:280|236:280|248:256|248:256|236:224,1,157.500006008148,4|0,3:0|0:0,0:0:0:0:
44,296,197844,2,0,B|104:316|104:316|240:252|392:316|392:316|448:296,1,420,8|0,0:0|0:0,0:0:0:0:
448,295,198302,6,0,L|424:120,1,157.500006008148,4|0,3:0|0:0,0:0:0:0:
344,84,198760,2,0,P|326:140|380:227,1,157.500006008148,4|0,0:0|0:0,0:0:0:0:
508,196,199218,2,0,P|525:139|471:52,1,157.500006008148,8|0,0:0|0:0,0:0:0:0:
426,138,199676,5,4,3:2:0:0:
336,176,199791,1,2,3:2:0:0:
256,124,199905,1,2,3:2:0:0:
172,168,200020,1,2,3:2:0:0:
76,136,200134,6,0,L|88:300,1,157.500006008148,8|0,0:0|0:0,0:0:0:0:
244,372,200592,2,0,L|254:215,1,157.500006008148,4|0,0:0|0:0,0:0:0:0:
376,8,201050,2,0,P|400:-1|426:0,1,52.5000020027161,8|0,0:0|0:0,0:0:0:0:
216,44,201279,2,0,P|185:33|153:7,1,52.5000020027161,2|0,0:0|0:0,0:0:0:0:
324,164,201508,2,0,P|339:191|336:227,1,52.5000020027161,4|0,0:0|0:0,0:0:0:0:
200,340,201737,2,0,P|184:312|187:276,1,52.5000020027161,2|0,0:0|0:0,0:0:0:0:
420,288,201966,5,8,0:0:0:0:
304,76,202195,1,0,0:0:0:0:
324,164,202309,1,0,0:0:0:0:
232,140,202424,2,0,L|148:132,1,52.5000020027161,4|0,0:0|0:0,0:0:0:0:
40,100,202653,1,0,0:0:0:0:
4,244,202882,2,0,L|60:241,1,52.5000020027161,8|0,0:0|0:0,0:0:0:0:
200,228,203111,1,0,0:0:0:0:
264,372,203340,5,4,3:2:0:0:
276,280,203455,1,2,3:2:0:0:
288,192,203569,1,2,3:2:0:0:
300,100,203684,1,2,3:2:0:0:
244,24,203798,6,0,P|180:0|104:56,1,157.500006008148,8|0,0:0|0:0,0:0:0:0:
264,116,204256,2,0,P|299:104|336:0,1,157.500006008148,4|0,0:0|0:0,0:0:0:0:
184,88,204714,6,0,L|180:132,1,26.2500010013581,8|0,0:0|0:0,0:0:0:0:
180,128,204829,2,0,L|184:168,1,26.2500010013581
184,172,204943,2,0,L|120:160,1,52.5000020027161,2|0,0:0|0:0,0:0:0:0:
8,296,205172,2,0,L|12:252,1,26.2500010013581,4|0,0:0|0:0,0:0:0:0:
12,256,205287,2,0,L|8:216,1,26.2500010013581
5,211,205401,2,0,L|104:228,1,52.5000020027161,2|0,0:0|0:0,0:0:0:0:
160,356,205630,5,8,3:0:0:0:
384,140,205858,1,0,0:0:0:0:
304,176,205973,1,0,0:0:0:0:
316,84,206088,2,0,L|308:8,1,52.5000020027161,4|0,0:0|0:0,0:0:0:0:
264,336,206317,1,0,0:0:0:0:
228,116,206546,2,0,L|220:44,1,52.5000020027161,8|0,0:0|0:0,0:0:0:0:
364,312,206775,1,0,0:0:0:0:
76,288,207004,5,4,3:2:0:0:
3,229,207119,1,2,3:2:0:0:
16,138,207233,1,2,3:2:0:0:
101,105,207348,1,2,3:2:0:0:
168,260,207462,6,0,P|163:329|88:384,1,157.500006008148,8|0,0:0|0:0,0:0:0:0:
92,196,207920,2,0,P|152:164|248:204,1,157.500006008148,4|0,0:0|0:0,0:0:0:0:
444,204,208378,2,0,L|500:200,1,52.5000020027161,8|0,0:0|0:0,0:0:0:0:
315,279,208607,2,0,L|239:271,1,52.5000020027161,2|0,0:0|0:0,0:0:0:0:
351,127,208836,2,0,L|345:179,1,52.5000020027161,4|0,0:0|0:0,0:0:0:0:
419,367,209065,2,0,L|415:311,1,52.5000020027161,2|0,0:0|0:0,0:0:0:0:
172,240,209294,6,0,L|164:324,1,52.5000020027161,8|0,0:0|0:0,0:0:0:0:
48,92,209523,1,0,0:0:0:0:
48,92,209752,2,0,L|44:12,1,52.5000020027161,4|0,0:0|0:0,0:0:0:0:
64,280,209981,1,0,0:0:0:0:
64,280,210210,2,0,L|56:368,1,52.5000020027161,8|0,0:0|0:0,0:0:0:0:
144,64,210439,1,0,0:0:0:0:
144,64,210668,5,4,3:2:0:0:
292,160,210783,1,2,3:2:0:0:
112,168,210898,1,2,3:2:0:0:
252,60,211012,1,2,3:2:0:0:
204,232,211127,2,0,P|196:288|256:348,1,105.000004005432,8|0,3:0|0:0,0:0:0:0:
316,360,211356,1,0,0:0:0:0:
396,300,211470,1,2,3:2:0:0:
496,328,211585,5,4,0:0:0:0:
288,268,211814,1,10,3:2:0:0:
504,192,212043,2,0,L|493:87,1,105.000004005432,10|2,3:2|3:2,0:0:0:0:
216,20,212501,1,6,3:2:0:0:
