osu file format v14

[General]
AudioFilename: GARNiDELiA - .mp3
AudioLeadIn: 0
PreviewTime: 60450
Countdown: 0
SampleSet: Soft
StackLeniency: 0.6
Mode: 0
LetterboxInBreaks: 0
WidescreenStoryboard: 1

[Editor]
Bookmarks: 75565,90221,96634,134191,150679,165336
DistanceSpacing: 1
BeatDivisor: 4
GridSize: 8
TimelineZoom: 1.6

[Metadata]
Title:Gokuraku Jodo
TitleUnicode:極楽浄土
Artist:GARNiDELiA
ArtistUnicode:GARNiDELiA
Creator:Vert
Version:kanor's Easy
Source:
Tags:MARiA 極楽浄土 Violet Cry Zweib Mei LunaSaika kanor - Cappuccino - sodarose
BeatmapID:1055189
BeatmapSetID:489039

[Difficulty]
HPDrainRate:2
CircleSize:3
OverallDifficulty:2
ApproachRate:3
SliderMultiplier:0.899999904632569
SliderTickRate:1

[Events]
//Background and Video events
0,0,"bg233.png",0,0
//Break Periods
2,2472,8160
2,75754,81442
2,90220,96099
//Storyboard Layer 0 (Background)
//Storyboard Layer 1 (Fail)
//Storyboard Layer 2 (Pass)
//Storyboard Layer 3 (Foreground)
//Storyboard Sound Samples

[TimingPoints]
440,458.015267175573,4,2,1,50,1,0
9600,-100,4,2,1,35,0,0
16928,-100,4,2,1,50,0,0
31585,-100,4,2,1,35,0,0
46241,-100,4,1,1,45,0,0
60898,-100,4,2,1,50,0,0
97539,-100,4,2,1,35,0,0
104867,-100,4,1,1,45,0,0
119523,-100,4,2,1,50,0,0
136012,-100,4,2,1,35,0,0
179981,-100,4,2,1,50,0,0

[Colours]
Combo1 : 255,128,255
Combo2 : 128,255,128
Combo3 : 255,255,128
Combo4 : 128,128,255

[HitObjects]
256,192,440,12,8,2272,3:0:0:0:
88,64,9600,6,0,P|64:112|72:160,1,89.9999904632569,8|4,3:0|0:0,0:0:0:0:
154,126,10516,2,0,P|170:176|210:205,1,89.9999904632569,8|4,0:0|0:0,0:0:0:0:
240,120,11432,2,0,P|288:144|336:136,1,89.9999904632569,8|4,0:0|0:0,0:0:0:0:
303,53,12348,2,0,P|353:36|382:-3,1,89.9999904632569,8|4,0:0|0:0,0:0:0:0:
463,31,13264,6,0,P|452:83|472:127,1,89.9999904632569,8|4,3:0|0:0,0:0:0:0:
399,179,14180,2,0,P|358:143|310:138,1,89.9999904632569,8|4,0:0|0:0,0:0:0:0:
318,226,15096,2,0,P|358:261|406:266,2,89.9999904632569,8|8|4,0:0|0:0|0:0,0:0:0:0:
246,172,16470,1,8,3:0:0:0:
231,260,16928,6,0,P|234:313|264:350,2,89.9999904632569,4|4|8,3:0|0:0|0:0,0:0:0:0:
246,172,18302,1,4,3:2:0:0:
263,83,18760,2,0,P|214:67|171:81,1,89.9999904632569,8|4,0:0|0:0,0:0:0:0:
88,76,19676,2,0,P|98:126|132:156,1,89.9999904632569,8|4,0:0|0:0,0:0:0:0:
170,230,20592,6,0,P|208:195|217:151,2,89.9999904632569,8|4|8,0:0|0:0|0:0,0:0:0:0:
84,259,21966,1,4,3:2:0:0:
155,315,22424,2,0,P|203:327|261:311,1,89.9999904632569,8|4,0:0|0:0,0:0:0:0:
330,338,23340,2,0,L|350:229,1,89.9999904632569,8|4,0:0|0:0,0:0:0:0:
404,181,24256,6,0,P|441:205|506:182,2,89.9999904632569,8|4|8,3:0|2:0|0:0,0:0:0:0:
375,95,25630,1,4,3:2:0:0:
430,24,26088,2,0,P|378:5|323:24,1,89.9999904632569,8|4,0:0|0:0,0:0:0:0:
256,28,27004,2,0,L|228:135,1,89.9999904632569,8|4,0:0|0:0,0:0:0:0:
185,191,27920,6,0,P|122:181|76:226,2,89.9999904632569,8|4|8,0:0|0:0|0:0,0:0:0:0:
228,271,29294,1,4,3:2:0:0:
274,347,29752,2,0,B|341:323|386:363|386:363|466:311|397:204,1,269.999971389771,8|6,3:0|3:2,0:0:0:0:
388,143,31585,6,0,P|424:167|476:156,1,89.9999904632569,8|8,3:0|0:0,0:0:0:0:
442,75,32501,2,0,P|406:51|353:61,1,89.9999904632569,8|8,0:0|0:0,0:0:0:0:
301,123,33417,2,0,P|304:174|359:218,2,89.9999904632569,8|8|8,0:0|0:0|0:0,0:0:0:0:
361,56,34791,1,8,0:0:0:0:
271,43,35249,6,0,P|220:33|168:51,1,89.9999904632569,8|8,0:0|0:0,0:0:0:0:
210,128,36165,2,0,P|166:156|142:206,1,89.9999904632569,8|8,0:0|0:0,0:0:0:0:
65,226,37081,2,0,P|55:182|65:138,2,89.9999904632569,8|8|8,0:0|0:0|0:0,0:0:0:0:
141,273,38455,1,8,0:0:0:0:
222,311,38913,6,0,P|267:327|331:312,1,89.9999904632569,8|8,3:0|0:0,0:0:0:0:
276,238,39829,2,0,P|319:217|353:161,1,89.9999904632569,8|8,0:0|0:0,0:0:0:0:
362,96,40745,2,0,P|405:116|438:170,2,89.9999904632569,8|8|8,0:0|0:0|0:0,0:0:0:0:
273,82,42119,1,8,0:0:0:0:
187,111,42577,6,0,L|176:205,1,89.9999904632569,8|4,3:2|3:0,0:0:0:0:
95,161,43493,2,0,L|83:250,1,89.9999904632569,8|4,3:2|3:0,0:0:0:0:
117,333,44409,2,0,P|65:342|24:324,2,89.9999904632569,4|8|8,3:0|0:0|0:0,0:0:0:0:
201,301,45783,1,0,0:0:0:0:
289,315,46241,6,0,L|303:213,1,89.9999904632569,4|8,0:3|0:0,0:0:0:0:
381,267,47157,2,0,L|397:158,1,89.9999904632569,4|2,0:2|0:3,0:0:0:0:
354,96,48073,2,0,P|398:88|448:103,2,89.9999904632569,0|0|4,0:0|0:0|0:2,0:0:0:0:
271,60,49447,1,2,0:3:0:0:
192,105,49905,6,0,P|139:119|89:103,1,89.9999904632569,8|4,0:3|0:2,0:0:0:0:
29,159,50821,2,0,P|67:197|78:249,1,89.9999904632569,8|2,0:0|0:3,0:0:0:0:
157,273,51737,2,0,P|171:220|210:184,2,89.9999904632569,0|4|2,0:0|0:2|0:3,0:0:0:0:
168,362,53111,1,4,0:2:0:0:
246,318,53569,6,0,P|293:290|346:302,1,89.9999904632569,4|8,0:3|0:0,0:0:0:0:
326,203,54485,2,0,P|378:217|408:262,1,89.9999904632569,4|2,0:2|0:3,0:0:0:0:
466,181,55401,2,0,P|493:228|481:281,2,89.9999904632569,0|0|4,0:0|0:0|0:2,0:0:0:0:
412,108,56775,1,2,0:3:0:0:
340,53,57233,6,0,P|294:38|234:61,1,89.9999904632569,8|4,0:3|0:2,0:0:0:0:
294,127,58149,2,0,L|291:233,1,89.9999904632569,8|2,0:0|0:3,0:0:0:0:
271,257,58836,2,0,B|220:270|202:305|202:305|146:237|77:300|77:300|17:201,1,314.999966621399,4|4,0:2|0:0,0:0:0:0:
47,139,60898,6,0,P|44:92|64:47,1,89.9999904632569,12|4,0:3|0:0,0:0:0:0:
132,106,61814,2,0,P|163:70|209:52,1,89.9999904632569,8|4,0:0|3:2,0:0:0:0:
220,142,62730,2,0,P|267:139|312:159,2,89.9999904632569,8|4|8,0:3|0:0|0:0,0:0:0:0:
147,194,64104,1,6,3:2:0:0:
230,227,64562,6,0,P|246:268|242:313,1,89.9999904632569,8|4,3:0|0:0,0:0:0:0:
157,284,65478,2,0,P|112:277|76:251,1,89.9999904632569,2|4,0:1|0:0,0:0:0:0:
147,194,66394,2,0,P|174:159|215:139,2,89.9999904632569,8|4|8,0:3|0:2|0:0,0:0:0:0:
156,283,67768,1,6,3:2:0:0:
221,344,68226,6,0,P|272:357|330:336,1,89.9999904632569,12|4,3:0|0:0,0:0:0:0:
268,268,69142,2,0,P|313:241|339:185,1,89.9999904632569,8|4,0:0|0:0,0:0:0:0:
247,183,70058,2,0,P|260:132|239:73,2,89.9999904632569,8|4|8,0:3|0:0|0:0,0:0:0:0:
172,132,71432,1,6,3:2:0:0:
179,42,71890,6,0,P|225:10|289:27,1,89.9999904632569,8|4,0:3|3:2,0:0:0:0:
252,96,72806,2,0,P|296:92|330:64,1,89.9999904632569,8|6,0:0|3:2,0:0:0:0:
419,53,73722,2,0,P|430:97|408:174,2,89.9999904632569,8|8|10,3:0|3:2|3:2,0:0:0:0:
330,63,75096,1,6,3:2:0:0:
306,149,75554,5,4,3:0:0:0:
133,209,82882,6,0,P|88:202|46:216,2,89.9999904632569,8|4|8,3:0|0:0|0:0,0:0:0:0:
210,254,84256,1,4,3:2:0:0:
225,165,84714,2,0,P|208:123|175:93,1,89.9999904632569,8|4,0:0|0:0,0:0:0:0:
224,17,85630,2,0,P|284:34|332:10,1,89.9999904632569,8|4,0:0|0:0,0:0:0:0:
397,43,86546,6,0,P|441:37|483:51,2,89.9999904632569,8|4|8,0:0|0:0|0:0,0:0:0:0:
337,110,87920,1,4,3:2:0:0:
402,172,88378,2,0,B|411:224|411:224|400:253|400:253|411:283|411:283|399:315|399:315|401:363|391:388|442:390|484:382|437:321,1,269.999971389771,8|2,3:0|3:2,0:0:0:0:
147,60,97539,6,0,P|193:53|241:67,1,89.9999904632569,8|4,3:0|0:0,0:0:0:0:
315,23,98455,2,0,P|322:69|308:117,1,89.9999904632569,8|4,0:0|0:0,0:0:0:0:
354,189,99371,2,0,P|308:196|260:182,2,89.9999904632569,8|4|8,0:0|0:0|0:0,0:0:0:0:
434,149,100745,1,4,0:0:0:0:
439,238,101203,6,0,P|422:281|385:315,1,89.9999904632569,4|0,3:0|0:0,0:0:0:0:
304,334,102119,2,0,P|257:341|210:327,1,89.9999904632569,4|0,3:0|0:0,0:0:0:0:
131,301,103035,2,0,P|101:264|90:216,1,89.9999904632569,4|4,3:0|3:2,0:0:0:0:
85,133,103951,1,4,3:0:0:0:
114,48,104409,1,0,0:0:0:0:
176,112,104867,6,0,P|235:112|286:67,1,89.9999904632569,4|8,0:3|0:0,0:0:0:0:
300,178,105783,2,0,P|341:136|345:68,1,89.9999904632569,4|2,0:2|0:3,0:0:0:0:
434,138,106699,2,0,P|434:79|389:28,2,89.9999904632569,0|2|4,0:0|0:3|0:2,0:0:0:0:
410,224,108073,1,2,0:3:0:0:
389,311,108531,6,0,L|270:332,1,89.9999904632569,8|4,0:3|0:2,0:0:0:0:
237,262,109447,2,0,L|122:248,1,89.9999904632569,8|2,0:0|0:3,0:0:0:0:
66,212,110363,2,0,P|53:253|96:318,2,89.9999904632569,0|4|2,0:0|0:2|0:3,0:0:0:0:
114,136,111737,1,4,0:2:0:0:
197,101,112195,6,0,P|256:101|307:146,1,89.9999904632569,4|8,0:3|0:0,0:0:0:0:
319,33,113111,2,0,P|360:74|364:142,1,89.9999904632569,4|2,0:2|0:3,0:0:0:0:
453,71,114027,2,0,P|453:130|408:181,2,89.9999904632569,0|0|4,0:0|0:0|0:2,0:0:0:0:
369,103,115401,1,2,0:3:0:0:
287,141,115859,6,0,L|300:247,1,89.9999904632569,8|4,0:3|0:2,0:0:0:0:
209,215,116775,2,0,L|196:321,1,89.9999904632569,8|2,0:0|0:3,0:0:0:0:
228,337,117462,2,0,B|295:333|295:333|360:288|360:288|420:377|511:323,1,314.999966621399,6|6,3:2|3:2,0:0:0:0:
454,252,119523,6,0,L|462:143,1,89.9999904632569,12|4,3:0|0:0,0:0:0:0:
379,123,120440,2,0,L|371:232,1,89.9999904632569,8|4,0:0|3:2,0:0:0:0:
288,180,121356,2,0,L|296:71,2,89.9999904632569,8|4|8,3:0|0:0|3:2,0:0:0:0:
244,258,122730,1,6,3:2:0:0:
157,281,123188,6,0,P|100:278|59:236,1,89.9999904632569,8|4,0:3|0:0,0:0:0:0:
138,196,124104,2,0,P|169:148|225:127,1,89.9999904632569,2|4,0:1|0:0,0:0:0:0:
226,217,125020,2,0,P|251:267|242:326,2,89.9999904632569,8|4|8,3:0|0:0|0:0,0:0:0:0:
138,196,126394,1,6,3:2:0:0:
51,171,126852,6,0,L|60:68,1,89.9999904632569,4|4,3:0|0:0,0:0:0:0:
145,57,127768,2,0,L|136:160,1,89.9999904632569,8|4,0:0|0:0,0:0:0:0:
224,123,128684,2,0,L|233:20,2,89.9999904632569,8|4|8,0:3|0:0|3:2,0:0:0:0:
274,197,130058,1,6,3:2:0:0:
363,201,130516,6,0,P|408:183|438:113,1,89.9999904632569,8|4,0:3|3:2,0:0:0:0:
504,97,131432,2,0,P|465:67|390:76,1,89.9999904632569,8|4,0:0|3:2,0:0:0:0:
342,29,132348,2,0,P|335:76|380:137,2,89.9999904632569,8|8|8,3:0|3:2|3:2,0:0:0:0:
252,42,133722,1,6,3:2:0:0:
188,251,136012,6,0,P|104:269|51:203,1,179.999980926514,6|8,0:2|0:0,0:0:0:0:
196,97,137844,2,0,P|279:78|333:145,1,179.999980926514,2|8,3:0|0:0,0:0:0:0:
401,311,139676,6,0,P|317:329|263:262,1,179.999980926514,2|8,3:0|0:0,0:0:0:0:
262,172,141050,1,2,0:0:0:0:
342,130,141508,2,0,P|353:182|322:242,1,89.9999904632569,2|2,3:0|0:2,0:0:0:0:
263,262,142424,1,8,0:0:0:0:
183,219,142882,1,2,0:0:0:0:
100,255,143340,6,0,P|100:308|213:323,1,179.999980926514,2|8,3:0|0:0,0:0:0:0:
235,153,145172,2,0,P|313:174|337:97,1,179.999980926514,2|8,3:0|0:0,0:0:0:0:
417,256,147004,6,0,P|494:280|473:358,1,179.999980926514,2|8,3:0|0:0,0:0:0:0:
383,341,148378,1,0,0:0:0:0:
295,360,148836,2,0,P|254:330|240:267,1,89.9999904632569,2|2,0:2|0:0,0:0:0:0:
207,210,149752,1,8,0:0:0:0:
177,124,150210,1,2,0:0:0:0:
265,140,150669,6,0,B|306:112|306:112|372:113,2,89.9999904632569,6|2|10,0:2|3:1|3:1,0:0:0:0:
207,210,152043,1,2,3:1:0:0:
174,126,152501,2,0,B|183:77|183:77|230:31,2,89.9999904632569,2|8|2,3:1|3:1|3:2,0:0:0:0:
207,210,153875,1,8,3:1:0:0:
117,198,154333,6,0,B|88:157|88:157|89:91,2,89.9999904632569,6|0|10,3:2|0:0|3:1,0:0:0:0:
207,210,155707,1,8,3:1:0:0:
152,281,156165,2,0,B|192:309|192:309|259:308,1,89.9999904632569,2|8,3:0|3:1,0:0:0:0:
309,260,157081,2,0,B|349:259|349:259|390:287,1,89.9999904632569,2|8,3:0|3:1,0:0:0:0:
428,204,157997,6,0,P|480:214|526:191,2,89.9999904632569,6|2|8,3:2|3:1|3:1,0:0:0:0:
344,170,159371,1,2,3:1:0:0:
418,118,159829,2,0,P|461:88|478:39,2,89.9999904632569,2|8|10,3:0|3:1|3:1,0:0:0:0:
344,170,161203,1,2,3:2:0:0:
265,213,161661,6,0,P|255:161|278:115,2,89.9999904632569,6|8|2,3:2|3:1|3:1,0:0:0:0:
336,266,163035,1,10,3:1:0:0:
255,305,163493,2,0,P|204:287|176:244,2,89.9999904632569,2|10|10,3:1|3:1|3:1,0:0:0:0:
336,266,164867,1,2,3:2:0:0:
415,224,165325,6,0,P|442:181|440:116,1,89.9999904632569,12|4,0:0|0:2,0:0:0:0:
357,156,166241,2,0,P|345:106|298:61,1,89.9999904632569,8|4,0:2|0:2,0:0:0:0:
265,147,167157,2,0,P|222:120|157:122,1,89.9999904632569,8|4,0:0|0:2,0:0:0:0:
192,205,168073,2,0,P|142:216|97:263,1,89.9999904632569,8|4,0:2|0:2,0:0:0:0:
185,293,168989,6,0,L|297:290,2,89.9999904632569,8|4|8,0:0|0:2|0:2,0:0:0:0:
112,240,170363,1,4,0:2:0:0:
98,328,170821,2,0,L|-4:326,2,89.9999904632569,8|4|6,0:0|0:2|0:2,0:0:0:0:
185,293,172195,1,8,0:2:0:0:
263,336,172653,6,0,P|301:355|365:361,1,89.9999904632569,12|4,0:0|0:2,0:0:0:0:
338,272,173569,2,0,P|378:258|427:217,1,89.9999904632569,8|4,0:2|0:2,0:0:0:0:
340,181,174485,2,0,P|359:142|365:79,1,89.9999904632569,8|4,0:2|0:2,0:0:0:0:
277,113,175401,2,0,P|263:72|222:23,1,89.9999904632569,8|4,0:2|0:2,0:0:0:0:
256,192,176317,12,8,178149,2:3:0:0:
465,139,179981,6,0,P|468:92|448:47,1,89.9999904632569,12|4,3:0|0:0,0:0:0:0:
380,106,180897,2,0,P|349:70|303:52,1,89.9999904632569,8|4,0:0|0:0,0:0:0:0:
292,142,181813,2,0,P|245:139|200:159,2,89.9999904632569,8|4|8,3:0|0:0|3:2,0:0:0:0:
365,194,183187,1,6,3:2:0:0:
282,227,183645,6,0,P|266:268|270:313,1,89.9999904632569,8|4,3:0|0:0,0:0:0:0:
355,284,184561,2,0,P|400:277|436:251,1,89.9999904632569,2|4,0:1|0:0,0:0:0:0:
365,194,185477,2,0,P|338:159|297:139,2,89.9999904632569,8|4|8,3:0|0:0|0:0,0:0:0:0:
356,283,186851,1,6,3:2:0:0:
291,344,187309,6,0,P|240:357|182:336,1,89.9999904632569,12|4,3:0|0:0,0:0:0:0:
244,268,188225,2,0,P|199:241|173:185,1,89.9999904632569,8|6,0:0|3:2,0:0:0:0:
265,183,189141,2,0,P|252:132|273:73,2,89.9999904632569,8|4|8,3:0|0:0|3:2,0:0:0:0:
339,130,190515,1,6,3:2:0:0:
333,42,190973,6,0,P|287:10|223:27,1,89.9999904632569,8|4,3:0|3:2,0:0:0:0:
260,96,191889,2,0,P|216:92|182:64,1,89.9999904632569,8|4,0:0|3:2,0:0:0:0:
93,53,192805,2,0,P|82:97|104:174,2,89.9999904632569,8|8|8,3:0|3:2|3:2,0:0:0:0:
182,63,194179,1,4,3:2:0:0:
246,126,194638,6,0,P|254:175|235:231,1,89.9999904632569,4|0,3:0|0:0,0:0:0:0:
167,260,195554,2,0,P|157:216|165:172,1,89.9999904632569,4|0,3:0|0:0,0:0:0:0:
256,192,196470,12,4,198302,3:0:0:0:
