osu file format v14

[General]
AudioFilename: GARNiDELiA - .mp3
AudioLeadIn: 0
PreviewTime: 60450
Countdown: 0
SampleSet: Soft
StackLeniency: 0.2
Mode: 0
LetterboxInBreaks: 0
WidescreenStoryboard: 1

[Editor]
Bookmarks: 46251,75565,90221,96634,104877,119533,134191,150679,165336,179991
DistanceSpacing: 2.5
BeatDivisor: 4
GridSize: 8
TimelineZoom: 2.2

[Metadata]
Title:Gokuraku Jodo
TitleUnicode:極楽浄土
Artist:GARNiDELiA
ArtistUnicode:GARNiDELiA
Creator:Vert
Version:Zweib's Expert
Source:
Tags:MARiA 極楽浄土 Violet Cry Zweib Mei LunaSaika kanor - Cappuccino - sodarose
BeatmapID:1043223
BeatmapSetID:489039

[Difficulty]
HPDrainRate:6
CircleSize:3.2
OverallDifficulty:9
ApproachRate:9.6
SliderMultiplier:2.39999990463257
SliderTickRate:1

[Events]
//Background and Video events
0,0,"bg233.png",0,0
//Break Periods
2,90221,96114
//Storyboard Layer 0 (Background)
//Storyboard Layer 1 (Fail)
//Storyboard Layer 2 (Pass)
//Storyboard Layer 3 (Foreground)
//Storyboard Sound Samples

[TimingPoints]
440,458.015267175573,4,2,1,50,1,0
1356,-166.666666666667,4,2,1,50,0,0
1793,-166.666666666667,4,2,1,70,0,0
9600,-133.333333333333,4,2,1,70,0,0
16470,-66.6666666666667,4,2,1,70,0,0
16928,-55.5555555555556,4,2,1,75,0,1
26088,-66.6666666666667,4,2,1,75,0,1
29752,-66.6666666666667,4,2,1,75,0,0
31564,-66.6666666666667,4,2,1,65,0,0
46220,-66.6666666666667,4,1,1,65,0,0
60419,-66.6666666666667,4,2,1,75,0,0
60898,-66.6666666666667,4,2,1,80,0,0
75554,-66.6666666666667,4,2,1,75,0,1
85859,-55.5555555555556,4,2,1,75,0,1
88378,-66.6666666666667,4,2,1,75,0,0
88815,-66.6666666666667,4,2,1,60,0,0
90189,-66.6666666666667,4,2,1,55,0,0
96623,-100,4,2,1,55,0,0
97540,-133.333333333333,4,2,1,55,0,0
101182,-133.333333333333,4,2,1,65,0,0
101203,-55.5555555555556,4,2,1,65,0,0
104846,-55.5555555555556,4,1,1,65,0,0
104867,-66.6666666666667,4,1,1,65,0,0
119044,-66.6666666666667,4,2,1,75,0,0
119523,-66.6666666666667,4,2,1,80,0,0
134124,-166.666666666667,4,2,1,80,0,0
134180,-166.666666666667,4,1,2,55,0,0
150648,-166.666666666667,4,1,2,60,0,0
156144,-166.666666666667,4,1,2,50,0,0
156602,-166.666666666667,4,1,2,55,0,0
157060,-166.666666666667,4,1,2,60,0,0
157518,-166.666666666667,4,1,2,65,0,0
157976,-166.666666666667,4,1,2,70,0,0
165304,-166.666666666667,4,3,1,70,0,0
171716,-166.666666666667,4,3,2,70,0,0
171773,-166.666666666667,4,3,1,70,0,0
172632,-166.666666666667,4,3,1,60,0,0
172653,-111.111111111111,4,3,1,60,0,0
173090,-111.111111111111,4,3,1,62,0,0
173548,-111.111111111111,4,3,1,64,0,0
174006,-111.111111111111,4,3,1,66,0,0
174464,-111.111111111111,4,3,1,68,0,0
174485,-83.3333333333333,4,3,1,68,0,0
174922,-83.3333333333333,4,3,1,70,0,0
175380,-83.3333333333333,4,3,1,72,0,0
175838,-83.3333333333333,4,3,1,74,0,0
176296,-83.3333333333333,4,3,1,80,0,0
176317,-66.6666666666667,4,3,1,80,0,0
178207,-66.6666666666667,4,2,1,40,0,0
179044,-66.6666666666667,4,2,1,80,0,0
179066,-83.3333333333333,4,2,1,80,0,0
179524,-55.5555555555556,4,2,1,80,0,0
179982,-66.6666666666667,4,2,1,80,0,0
198302,-66.6666666666667,4,2,1,75,0,1
211127,-66.6666666666667,4,2,1,75,0,0
213338,-66.6666666666667,4,2,1,5,0,0

[Colours]
Combo1 : 255,128,255
Combo2 : 128,255,128
Combo3 : 255,255,128
Combo4 : 128,128,255

[HitObjects]
40,278,1814,5,2,3:2:0:0:
40,278,2043,1,0,3:0:0:0:
134,320,2272,6,0,P|197:297|280:294,1,143.999989883423,8|0,3:0|0:0,0:0:0:0:
465,275,2959,1,2,0:0:0:0:
358,238,3188,2,0,P|278:238|187:206,1,143.999989883423,8|0,0:0|0:0,0:0:0:0:
48,196,3875,1,2,0:0:0:0:
160,126,4104,6,0,P|164:84|178:35,1,71.9999949417116,8|2,0:0|0:0,0:0:0:0:
194,88,4562,2,0,P|229:53|274:35,1,71.9999949417116,8|2,0:0|0:0,0:0:0:0:
249,83,5020,2,0,P|337:76|382:127,1,143.999989883423,8|10,0:0|3:2,0:0:0:0:
418,240,5707,5,0,3:0:0:0:
288,292,5936,2,0,L|301:354,4,35.9999974708558,8|0|0|0|0,3:0|0:0|0:0|0:0|0:0,0:0:0:0:
53,206,6623,5,2,0:0:0:0:
188,152,6852,2,0,L|195:94,4,35.9999974708558,8|0|0|0|0,0:0|0:0|0:0|0:0|0:0,0:0:0:0:
334,101,7539,1,0,0:0:0:0:
417,226,7768,6,0,L|509:202,1,71.9999949417116,8|2,0:0|0:0,0:0:0:0:
417,226,8226,2,0,L|481:269,1,71.9999949417116,8|2,0:0|0:0,0:0:0:0:
417,226,8684,2,0,L|438:358,1,107.999992412567,8|0,0:0|0:0,0:0:0:0:
255,383,9142,2,0,L|259:302,1,71.9999949417116,8|2,3:2|3:2,0:0:0:0:
96,272,9601,5,8,3:0:0:0:
150,149,9830,2,0,L|45:122,1,89.9999998569489,2|0,0:0|0:0,0:0:0:0:
416,272,10287,1,2,0:0:0:0:
362,149,10516,2,0,L|449:126,1,89.9999998569489,8|2,0:0|0:0,0:0:0:0:
256,224,10975,1,4,0:0:0:0:
301,353,11204,2,0,L|211:353,1,89.9999998569489,2|0,0:0|0:0,0:0:0:0:
303,70,11662,5,2,0:0:0:0:
146,211,11890,1,4,0:0:0:0:
208,53,12119,1,2,3:2:0:0:
312,236,12348,1,8,0:0:0:0:
139,121,12577,1,2,0:0:0:0:
344,149,12806,1,4,0:0:0:0:
220,261,13035,1,2,0:0:0:0:
32,224,13265,5,8,3:0:0:0:
480,160,13722,1,4,0:0:0:0:
32,224,14181,6,0,P|112:224|176:208,1,134.999999785423,8|0,0:0|0:0,0:0:0:0:
480,160,14638,2,0,P|400:160|336:176,1,134.999999785423,4|0,0:0|0:0,0:0:0:0:
241,90,15097,5,8,0:0:0:0:
280,265,15326,2,0,L|288:330,1,44.9999999284745,4|2,0:0|0:0,0:0:0:0:
295,351,15498,1,2,0:0:0:0:
295,351,15555,1,8,0:0:0:0:
179,384,15784,1,8,0:0:0:0:
436,345,16013,2,0,P|471:289|427:250,1,134.999999785423,4|0,0:0|0:0,0:0:0:0:
467,167,16470,6,0,P|395:242|221:233,1,269.999999570847,8|0,3:0|0:0,0:0:0:0:
44,151,16928,6,0,P|150:246|28:251,1,323.999977237702,4|0,3:0|0:0,0:0:0:0:
107,139,17386,6,0,P|97:281|18:188,1,323.999977237702,4|0,0:0|0:0,0:0:0:0:
154,181,17844,6,0,P|35:260|60:141,1,323.999977237702,8|0,0:0|0:0,0:0:0:0:
144,64,18303,5,4,3:2:0:0:
255,259,18418,1,2,3:2:0:0:
88,209,18532,1,2,3:2:0:0:
284,113,18647,1,2,3:2:0:0:
431,173,18760,6,0,P|521:63|401:75,1,323.999977237702,8|0,0:0|0:0,0:0:0:0:
463,112,19218,6,0,P|382:-7|360:112,1,323.999977237702,4|0,0:0|0:0,0:0:0:0:
411,59,19675,6,0,P|276:80|286:138,3,215.999984825135,8|2|4|2,0:0|0:0|0:0|0:0,0:0:0:0:
154,353,20592,6,0,P|26:327|125:242,1,323.999977237702,8|0,0:0|0:0,0:0:0:0:
99,383,21050,6,0,P|39:266|168:290,1,323.999977237702,4|0,0:0|0:0,0:0:0:0:
40,354,21508,6,0,P|95:236|154:352,1,323.999977237702,8|0,0:0|0:0,0:0:0:0:
159,155,21967,5,4,3:2:0:0:
341,283,22082,1,2,3:2:0:0:
211,318,22196,1,2,3:2:0:0:
293,114,22311,1,2,3:2:0:0:
404,349,22424,6,0,P|532:323|433:238,1,323.999977237702,8|0,0:0|0:0,0:0:0:0:
462,306,22882,6,0,P|470:175|362:249,1,323.999977237702,4|0,0:0|0:0,0:0:0:0:
433,237,23341,6,0,P|365:183|238:205,1,215.999984825135,8|0,0:0|0:0,0:0:0:0:
149,282,23684,6,0,L|120:236,1,53.9999962062837
93,263,23798,2,0,L|80:188,1,53.9999962062837,4|0,0:0|0:0,0:0:0:0:
52,229,23913,2,0,L|64:159,1,53.9999962062837
32,174,24027,2,0,L|48:64,1,107.999992412567,2|0,0:0|0:0,0:0:0:0:
316,1,24257,6,0,B|312:84|256:156|256:156|177:99|146:26,1,323.999977237702,8|0,3:0|0:0,0:0:0:0:
419,338,24714,2,0,B|348:293|314:208|314:208|403:168|481:178,1,323.999977237702,4|0,2:0|0:0,0:0:0:0:
73,260,25172,2,0,B|147:221|237:233|237:233|227:330|180:394,1,323.999977237702,8|0,0:0|0:0,0:0:0:0:
143,115,25630,5,4,3:2:0:0:
314,67,25745,1,2,3:2:0:0:
211,197,25859,1,2,3:2:0:0:
212,31,25974,1,2,3:2:0:0:
313,164,26088,5,8,0:0:0:0:
512,11,26317,1,0,0:0:0:0:
341,267,26546,5,4,0:0:0:0:
13,221,26775,1,0,0:0:0:0:
313,368,27004,5,8,0:0:0:0:
421,205,27233,2,0,P|402:154|385:122,1,89.9999998569489,2|0,0:0|0:0,0:0:0:0:
134,239,27462,2,0,P|109:286|98:337,1,89.9999998569489,4|0,0:0|0:0,0:0:0:0:
226,139,27691,2,0,P|219:96|217:49,1,89.9999998569489,2|0,0:0|0:0,0:0:0:0:
104,31,27920,5,8,0:0:0:0:
263,338,28149,1,0,0:0:0:0:
309,0,28378,1,4,0:0:0:0:
166,379,28607,1,0,0:0:0:0:
217,50,28836,1,8,0:0:0:0:
377,353,29065,1,0,0:0:0:0:
155,128,29294,5,4,3:2:0:0:
333,261,29409,1,2,3:2:0:0:
183,285,29523,1,2,3:2:0:0:
300,106,29638,1,2,3:2:0:0:
408,202,29752,6,0,P|523:193|481:84,1,269.999999570847,8|2,3:0|3:2,0:0:0:0:
393,24,30153,1,0,3:0:0:0:
393,24,30210,1,4,0:0:0:0:
151,35,30440,1,10,3:2:0:0:
312,168,30669,6,0,P|357:178|422:185,1,89.9999998569489,8|0,3:2|0:0,0:0:0:0:
110,238,30898,2,0,P|71:231|5:229,1,89.9999998569489,2|0,3:2|0:0,0:0:0:0:
201,147,31127,2,0,L|193:338,1,179.999999713898,6|0,3:2|0:0,0:0:0:0:
449,384,31585,5,8,3:0:0:0:
449,384,31814,2,0,L|455:266,1,89.9999998569489,2|0,0:0|0:0,0:0:0:0:
512,79,32043,5,8,0:0:0:0:
512,79,32273,2,0,L|420:90,1,89.9999998569489,2|0,3:0|0:0,0:0:0:0:
146,29,32502,5,8,0:0:0:0:
146,29,32731,2,0,L|163:126,1,89.9999998569489,2|0,0:0|0:0,0:0:0:0:
82,350,32960,5,8,0:0:0:0:
82,350,33189,2,0,L|203:337,1,89.9999998569489,2|0,3:0|0:0,0:0:0:0:
341,149,33418,5,8,0:0:0:0:
341,149,33647,2,0,L|233:137,1,89.9999998569489,0|0,0:0|0:0,0:0:0:0:
495,281,33876,2,0,L|505:166,1,89.9999998569489,8|0,0:0|0:0,0:0:0:0:
330,267,34105,1,2,3:0:0:0:
324,311,34219,1,0,0:0:0:0:
318,355,34334,5,8,0:0:0:0:
29,237,34563,2,0,L|145:229,1,89.9999976158143,2|0,3:0|0:0,0:0:0:0:
203,342,34791,5,8,0:0:0:0:
503,192,35021,2,0,L|405:179,1,89.9999998569489,2|0,3:0|0:0,0:0:0:0:
330,267,35250,5,8,0:0:0:0:
100,117,35479,2,0,L|10:107,1,89.9999998569489,2|0,0:0|0:0,0:0:0:0:
222,246,35708,5,8,0:0:0:0:
415,67,35936,2,0,L|503:53,1,89.9999998569489,2|0,3:0|0:0,0:0:0:0:
289,167,36165,5,8,0:0:0:0:
468,206,36394,2,0,L|454:327,1,89.9999998569489
332,296,36624,2,0,L|346:384,1,89.9999976158143,8|0,0:0|0:0,0:0:0:0:
187,322,36852,2,0,P|139:319|87:284,1,89.9999998569489
102,43,37081,5,8,0:0:0:0:
301,191,37310,2,0,P|322:234|317:295,1,89.9999998569489,0|0,0:0|0:0,0:0:0:0:
34,365,37540,5,8,0:0:0:0:
135,153,37768,2,0,P|161:112|217:86,1,89.9999998569489,2|0,3:0|0:0,0:0:0:0:
323,277,37997,2,0,P|374:308|420:309,1,89.9999998569489,8|0,0:0|0:0,0:0:0:0:
437,0,38226,2,0,P|446:47|420:110,1,89.9999998569489,2|0,3:0|0:0,0:0:0:0:
318,159,38455,5,8,0:0:0:0:
149,243,38684,2,0,L|57:197,1,89.9999976158143
318,179,38914,5,8,3:0:0:0:
114,243,39143,2,0,L|51:176,1,89.9999998569489,2|0,0:0|0:0,0:0:0:0:
311,198,39372,5,8,0:0:0:0:
77,230,39600,2,0,L|20:127,1,89.9999998569489
299,212,39829,5,8,0:0:0:0:
43,202,40058,2,0,L|27:78,1,89.9999998569489,2|0,0:0|0:0,0:0:0:0:
255,117,40287,2,0,P|372:139|396:194,1,179.999999713898,8|0,0:0|0:0,0:0:0:0:
176,258,40630,2,0,P|169:299|152:358,1,89.9999998569489,0|8,0:0|0:0,0:0:0:0:
273,329,40859,5,0,0:0:0:0:
397,370,40974,2,0,P|384:312|373:263,1,89.9999998569489,2|0,0:0|0:0,0:0:0:0:
438,75,41203,2,0,P|511:147|498:230,1,179.999999713898,8|2,0:0|3:0,0:0:0:0:
299,213,41546,1,0,0:0:0:0:
396,185,41661,1,8,0:0:0:0:
69,89,41890,2,0,L|89:192,1,89.9999998569489
107,302,42119,1,8,0:0:0:0:
107,302,42348,2,0,L|3:298,1,89.9999998569489
217,164,42577,6,0,L|317:172,1,89.9999998569489,8|0,3:2|0:0,0:0:0:0:
387,156,42807,1,2,3:0:0:0:
423,83,42921,1,0,0:0:0:0:
419,1,43036,1,4,3:0:0:0:
500,199,43264,6,0,P|499:240|506:310,1,89.9999998569489,2|0,0:0|0:0,0:0:0:0:
440,348,43493,1,8,3:2:0:0:
362,369,43607,1,0,0:0:0:0:
284,342,43722,1,2,3:0:0:0:
273,347,43836,1,0,0:0:0:0:
263,352,43951,5,8,0:0:0:0:
112,112,44181,1,2,0:0:0:0:
128,256,44295,1,0,0:0:0:0:
33,190,44410,6,0,P|110:203|224:171,1,179.999999713898,4|0,3:0|0:0,0:0:0:0:
400,112,44753,1,0,0:0:0:0:
479,190,44867,2,0,P|402:203|288:171,1,179.999999713898,8|0,0:0|0:0,0:0:0:0:
256,80,45210,1,0,0:0:0:0:
384,256,45325,1,4,3:0:0:0:
113,162,45555,6,0,L|-22:143,1,89.9999976158143,0|0,0:0|0:0,0:0:0:0:
267,97,45784,2,0,L|335:-3,1,89.9999976158143,0|0,0:0|0:0,0:0:0:0:
248,268,46013,2,0,L|272:370,1,89.9999976158143,0|0,0:0|0:0,0:0:0:0:
210,184,46242,6,0,P|259:174|309:163,1,89.9999976158143,4|0,0:3|0:0,0:0:0:0:
512,112,46471,2,0,P|470:183|483:291,1,179.999995231629,2|0,0:0|0:0,0:0:0:0:
371,69,46815,1,0,0:0:0:0:
361,253,46929,2,0,L|347:353,1,89.9999976158143,2|0,0:3|0:0,0:0:0:0:
154,104,47158,6,0,P|216:172|303:161,1,179.999999713898,4|0,0:2|0:0,0:0:0:0:
256,67,47502,1,0,0:0:0:0:
398,209,47616,2,0,P|390:164|387:119,1,89.9999976158143,2|0,0:3|0:0,0:0:0:0:
173,191,47845,2,0,P|174:230|163:303,1,89.9999998569489,2|0,0:0|0:0,0:0:0:0:
79,360,48074,5,0,0:0:0:0:
512,346,48303,2,0,P|496:299|486:251,1,89.9999998569489,8|0,0:0|0:0,0:0:0:0:
506,42,48532,2,0,P|492:78|483:135,1,89.9999998569489,0|0,0:0|0:0,0:0:0:0:
124,112,48761,6,0,P|72:102|36:82,1,89.9999976158143,2|0,0:0|0:0,0:0:0:0:
275,48,48990,2,0,P|319:28|383:16,1,89.9999976158143,4|0,0:2|0:0,0:0:0:0:
228,194,49219,2,0,P|240:294|219:408,1,179.999995231629,2|0,0:3|0:0,0:0:0:0:
188,56,49562,1,0,0:0:0:0:
313,171,49676,1,0,0:0:0:0:
144,229,49791,1,0,0:0:0:0:
95,133,49906,6,0,P|50:118|-13:75,1,89.9999976158143,8|0,0:3|0:0,0:0:0:0:
241,259,50135,2,0,P|244:302|243:365,1,89.9999976158143,2|0,0:0|0:0,0:0:0:0:
290,73,50364,2,0,P|311:41|347:-4,1,89.9999976158143,4|0,0:2|0:0,0:0:0:0:
490,218,50592,2,0,P|423:203|381:204,1,89.9999998569489,2|0,0:3|0:0,0:0:0:0:
154,329,50822,6,0,P|109:330|45:310,1,89.9999998569489,8|0,0:0|0:0,0:0:0:0:
256,192,51051,1,2,0:0:0:0:
309,287,51166,2,0,P|331:335|330:396,2,89.9999998569489,0|0|0,0:0|0:0|0:0,0:0:0:0:
401,202,51508,2,0,P|377:103|448:69,1,179.999999713898,8|0,0:0|0:0,0:0:0:0:
158,70,51853,5,0,0:0:0:0:
82,154,51967,2,0,P|49:110|47:36,1,89.9999998569489,2|0,0:3|0:0,0:0:0:0:
132,285,52196,2,0,P|125:320|89:379,1,89.9999998569489,4|0,0:2|0:0,0:0:0:0:
256,120,52424,1,2,0:3:0:0:
328,192,52540,1,0,0:0:0:0:
256,264,52654,1,2,0:3:0:0:
184,192,52769,1,0,0:0:0:0:
194,27,52883,6,0,L|210:115,1,89.9999976158143,8|0,0:0|0:0,0:0:0:0:
91,254,53111,2,0,L|179:238,1,89.9999976158143,4|0,0:2|0:0,0:0:0:0:
318,357,53340,2,0,L|302:269,1,89.9999976158143,2|0,0:3|0:0,0:0:0:0:
421,130,53569,2,0,L|333:146,1,89.9999976158143,4|0,0:3|0:0,0:0:0:0:
421,130,53799,6,0,P|491:216|462:308,1,179.999999713898,2|0,0:0|0:0,0:0:0:0:
217,379,54143,1,0,0:0:0:0:
111,346,54257,2,0,P|62:346|-1:328,1,89.9999998569489,2|0,0:3|0:0,0:0:0:0:
213,196,54486,6,0,P|340:179|387:210,1,179.999999713898,4|0,0:2|0:0,0:0:0:0:
284,296,54830,1,0,0:0:0:0:
109,243,54944,2,0,P|89:211|80:134,1,89.9999998569489,2|0,0:3|0:0,0:0:0:0:
213,24,55173,2,0,P|213:68|193:108,1,89.9999998569489,2|0,0:0|0:0,0:0:0:0:
58,6,55401,5,0,0:0:0:0:
449,83,55631,2,0,P|477:147|481:184,1,89.9999998569489,8|0,0:0|0:0,0:0:0:0:
447,318,55860,2,0,P|420:361|366:394,1,89.9999998569489,0|0,0:0|0:0,0:0:0:0:
135,348,56089,2,0,P|107:296|104:240,1,89.9999998569489,2|0,0:3|0:0,0:0:0:0:
128,82,56318,6,0,P|174:22|291:42,2,179.999999713898,4|0|0,0:2|0:0|0:0,0:0:0:0:
360,58,56891,1,0,0:0:0:0:
228,114,57005,1,2,0:2:0:0:
351,174,57120,1,0,0:0:0:0:
258,237,57234,6,0,B|241:308|266:364|266:364|293:351|313:332,1,179.999999713898,8|0,0:3|0:0,0:0:0:0:
404,263,57578,1,0,0:0:0:0:
154,171,57692,2,0,P|113:177|41:188,1,89.9999998569489,4|0,0:2|0:0,0:0:0:0:
320,127,57921,2,0,L|314:21,1,89.9999998569489,2|0,0:3|0:0,0:0:0:0:
128,295,58150,6,0,P|105:332|77:401,1,89.9999998569489,8|0,0:0|0:0,0:0:0:0:
271,317,58378,1,2,0:0:0:0:
432,347,58493,2,0,P|417:293|394:245,2,89.9999998569489,0|2|0,0:0|0:3|0:0,0:0:0:0:
271,317,58837,1,4,0:2:0:0:
256,192,59066,12,4,60440,0:0:0:0:
390,332,60669,5,0,3:0:0:0:
500,269,60784,1,2,3:2:0:0:
409,184,60898,6,0,P|310:179|249:113,1,179.999999713898,12|2,0:3|0:1,0:0:0:0:
112,102,61242,1,0,0:0:0:0:
2,287,61356,2,0,P|106:237|204:260,1,179.999999713898,4|2,0:0|0:3,0:0:0:0:
284,284,61700,1,0,0:0:0:0:
255,124,61814,6,0,P|254:54|246:14,1,89.9999998569489,8|0,0:0|0:0,0:0:0:0:
455,232,62043,2,0,P|468:270|477:330,1,89.9999998569489,2|0,3:0|3:0,0:0:0:0:
107,378,62272,2,0,P|110:330|120:275,1,89.9999998569489,4|0,3:2|0:0,0:0:0:0:
372,168,62502,1,2,3:1:0:0:
294,258,62616,1,2,3:1:0:0:
187,213,62731,6,0,P|89:194|16:251,1,179.999999713898,8|0,0:3|0:0,0:0:0:0:
255,124,63074,1,0,0:0:0:0:
355,256,63189,2,0,L|375:146,1,89.9999998569489,4|0,0:0|0:0,0:0:0:0:
124,36,63418,2,0,L|145:136,1,89.9999998569489,2|0,0:3|0:0,0:0:0:0:
26,235,63647,2,0,L|-3:138,1,89.9999998569489,8|0,0:0|0:0,0:0:0:0:
388,36,63875,6,0,L|367:136,1,89.9999998569489,6|0,3:2|0:0,0:0:0:0:
487,226,64104,2,0,L|516:129,1,89.9999998569489,6|0,3:2|0:0,0:0:0:0:
256,312,64334,1,2,3:1:0:0:
411,334,64448,1,2,3:1:0:0:
325,214,64563,6,0,P|235:212|149:185,1,179.999999713898,8|0,3:0|0:0,0:0:0:0:
101,334,64906,1,0,0:0:0:0:
204,187,65021,2,0,P|289:157|379:151,1,179.999995231629,4|2,0:0|0:3,0:0:0:0:
124,87,65364,5,0,0:0:0:0:
55,217,65478,2,0,P|15:184|-8:142,1,89.9999998569489,2|0,0:1|0:0,0:0:0:0:
175,211,65708,2,0,P|170:255|161:299,1,89.9999998569489,8|0,0:0|0:0,0:0:0:0:
512,198,65937,2,0,P|496:158|460:110,1,89.9999998569489,4|0,0:0|0:0,0:0:0:0:
315,46,66166,2,0,P|315:90|319:135,1,89.9999998569489,8|0,0:0|0:0,0:0:0:0:
478,351,66394,6,0,P|433:347|267:337,1,179.999999713898,8|2,3:0|0:0,0:0:0:0:
162,351,66737,1,2,0:0:0:0:
317,231,66853,2,0,P|365:162|334:70,1,179.999999713898,4|0,0:2|0:0,0:0:0:0:
65,160,67196,1,0,0:0:0:0:
11,277,67310,6,0,P|3:311|2:382,2,89.9999998569489,8|0|2,0:0|0:0|3:0,0:0:0:0:
262,40,67654,1,0,0:0:0:0:
233,145,67769,2,0,P|164:179|36:137,1,179.999999713898,6|0,3:2|0:0,0:0:0:0:
6,58,68112,1,0,3:0:0:0:
149,209,68227,6,0,P|149:254|166:296,1,89.9999976158143,12|0,3:0|0:0,0:0:0:0:
311,150,68456,1,2,0:1:0:0:
335,287,68570,2,0,P|339:326|329:390,2,89.9999998569489,0|4|0,0:0|0:0|0:0,0:0:0:0:
463,82,68914,2,0,P|462:127|458:172,1,89.9999998569489,2|0,0:3|0:0,0:0:0:0:
100,265,69142,6,0,L|10:252,1,89.9999998569489,8|0,0:0|0:0,0:0:0:0:
287,170,69371,2,0,L|108:147,1,179.999999713898,2|4,0:3|0:0,0:0:0:0:
17,97,69715,1,0,0:0:0:0:
201,247,69830,2,0,P|198:298|168:349,1,89.9999998569489,2|0,3:1|0:0,0:0:0:0:
364,0,70059,6,0,P|423:65|510:65,1,179.999999713898,8|0,0:3|0:0,0:0:0:0:
397,295,70402,2,0,P|398:339|385:382,2,89.9999998569489,0|4|0,0:0|0:0|0:0,0:0:0:0:
226,321,70746,2,0,L|137:335,1,89.9999998569489,2|0,0:3|0:0,0:0:0:0:
370,269,70975,2,0,L|458:290,1,89.9999998569489,8|0,0:0|0:0,0:0:0:0:
120,317,71204,6,0,L|209:306,1,89.9999998569489,6|0,3:2|0:0,0:0:0:0:
346,246,71433,2,0,L|434:264,1,89.9999998569489,6|0,3:2|0:0,0:0:0:0:
12,260,71662,2,0,P|3:304|3:349,1,89.9999976158143,2|0,3:1|0:0,0:0:0:0:
78,75,71891,5,8,0:3:0:0:
160,126,72005,1,0,0:0:0:0:
108,209,72120,1,2,0:1:0:0:
31,156,72234,1,0,0:0:0:0:
306,259,72349,6,0,P|240:313|134:271,1,179.999995231629,4|0,3:2|0:0,0:0:0:0:
443,9,72692,5,0,0:0:0:0:
512,82,72807,1,8,0:0:0:0:
469,176,72921,1,0,0:0:0:0:
365,154,73036,1,2,0:3:0:0:
351,57,73150,1,0,0:0:0:0:
469,176,73265,6,0,P|448:273|494:363,1,179.999999713898,6|0,3:2|0:0,0:0:0:0:
267,175,73608,1,0,0:0:0:0:
143,215,73722,6,0,L|131:123,1,89.9999998569489,8|0,3:0|0:0,0:0:0:0:
309,295,73951,2,0,L|291:384,1,89.9999998569489,8|0,3:2|0:0,0:0:0:0:
267,175,74181,2,0,L|355:189,1,89.9999998569489,8|0,3:2|0:0,0:0:0:0:
185,333,74410,2,0,L|97:349,1,89.9999998569489,8|0,3:2|0:0,0:0:0:0:
460,94,74639,5,10,3:2:0:0:
511,167,74753,1,0,0:0:0:0:
504,257,74868,1,0,0:0:0:0:
449,327,74982,1,0,0:0:0:0:
362,349,75096,6,0,B|346:352|324:336|324:336|303:353|303:353|279:322|279:322|211:393|117:351,1,269.999999570847,6|0,3:2|0:0,0:0:0:0:
147,121,75554,6,0,L|158:217,1,89.9999976158143,4|0,3:0|0:0,0:0:0:0:
67,257,75784,2,0,L|-2:200,1,89.9999998569489,0|0,0:0|0:0,0:0:0:0:
167,108,76013,6,0,L|160:211,1,89.9999998569489,4|0,0:0|0:0,0:0:0:0:
272,223,76242,2,0,L|350:291,1,89.9999998569489,0|0,0:0|0:0,0:0:0:0:
151,93,76471,6,0,L|163:196,1,89.9999998569489,8|0,0:0|0:0,0:0:0:0:
162,308,76700,2,0,L|68:359,1,89.9999998569489,0|0,0:0|0:0,0:0:0:0:
259,176,76929,5,4,3:2:0:0:
65,233,77044,1,2,3:2:0:0:
264,202,77157,5,2,3:2:0:0:
62,209,77272,1,2,3:2:0:0:
367,59,77387,6,0,L|356:155,1,89.9999976158143,8|0,0:0|0:0,0:0:0:0:
441,195,77616,2,0,L|515:138,1,89.9999998569489,0|0,0:0|0:0,0:0:0:0:
354,48,77845,6,0,L|364:151,1,89.9999998569489,4|0,0:0|0:0,0:0:0:0:
251,162,78074,2,0,L|174:234,1,89.9999998569489,0|0,0:0|0:0,0:0:0:0:
366,37,78303,6,0,L|358:135,1,89.9999998569489,8|0,0:0|0:0,0:0:0:0:
343,253,78532,2,0,L|437:304,1,89.9999998569489,2|0,0:0|0:0,0:0:0:0:
208,205,78761,6,0,L|222:106,1,89.9999998569489,4|0,0:0|0:0,0:0:0:0:
495,113,78990,2,0,L|481:204,1,89.9999998569489,2|0,0:0|0:0,0:0:0:0:
170,180,79219,6,0,L|160:292,1,89.9999976158143,8|0,0:0|0:0,0:0:0:0:
336,173,79448,2,0,L|279:82,1,89.9999998569489,0|0,0:0|0:0,0:0:0:0:
175,201,79677,6,0,L|188:310,1,89.9999976158143,4|0,0:0|0:0,0:0:0:0:
49,163,79906,2,0,L|-7:67,1,89.9999998569489,0|0,0:0|0:0,0:0:0:0:
176,219,80135,6,0,L|167:334,1,89.9999976158143,8|0,0:0|0:0,0:0:0:0:
143,75,80364,2,0,L|231:8,1,89.9999998569489,0|0,0:0|0:0,0:0:0:0:
43,125,80593,5,4,3:2:0:0:
267,135,80708,1,2,3:2:0:0:
48,146,80822,5,2,3:2:0:0:
270,110,80937,1,2,3:2:0:0:
344,237,81051,6,0,L|354:349,1,89.9999976158143,8|0,0:0|0:0,0:0:0:0:
178,230,81280,2,0,L|240:141,1,89.9999998569489,0|0,0:0|0:0,0:0:0:0:
339,258,81509,6,0,L|326:367,1,89.9999976158143,4|0,0:0|0:0,0:0:0:0:
465,220,81738,2,0,L|521:124,1,89.9999998569489,0|0,0:0|0:0,0:0:0:0:
338,276,81967,6,0,L|347:391,1,89.9999976158143,8|0,0:0|0:0,0:0:0:0:
379,116,82195,2,0,L|286:69,1,89.9999998569489,2|0,0:0|0:0,0:0:0:0:
149,14,82424,2,0,L|136:65,1,44.9999999284745,4|0,0:0|0:0,0:0:0:0:
76,66,82540,2,0,L|100:128,1,44.9999988079071,0|0,0:0|0:0,0:0:0:0:
47,162,82654,2,0,L|87:198,1,44.9999988079071,2|0,0:0|0:0,0:0:0:0:
78,261,82769,2,0,L|129:278,1,44.9999988079071,0|0,0:0|0:0,0:0:0:0:
154,332,82883,5,8,3:0:0:0:
492,291,83112,1,0,0:0:0:0:
154,332,83341,5,4,0:0:0:0:
492,291,83570,1,0,0:0:0:0:
154,332,83799,5,8,0:0:0:0:
492,291,84028,1,0,0:0:0:0:
154,332,84257,5,4,3:2:0:0:
241,272,84372,1,2,3:2:0:0:
335,338,84486,1,2,3:2:0:0:
391,246,84601,1,2,3:2:0:0:
492,291,84715,5,8,0:0:0:0:
309,14,84944,1,0,0:0:0:0:
492,291,85173,5,4,0:0:0:0:
309,14,85402,1,0,0:0:0:0:
492,291,85631,5,8,0:0:0:0:
48,25,85860,2,0,P|108:88|243:71,2,215.999984825135,2|4|0,0:0|0:0|0:0,0:0:0:0:
118,283,86547,5,8,0:0:0:0:
441,240,86776,1,0,0:0:0:0:
118,283,87005,5,4,0:0:0:0:
441,240,87234,1,0,0:0:0:0:
118,283,87463,5,8,0:0:0:0:
441,240,87692,1,0,0:0:0:0:
118,283,87921,5,4,3:2:0:0:
177,203,88036,1,2,3:2:0:0:
269,167,88150,1,2,3:2:0:0:
367,175,88265,1,2,3:2:0:0:
441,240,88378,5,8,3:0:0:0:
367,175,88608,1,0,0:0:0:0:
269,167,88837,1,2,0:0:0:0:
177,203,89066,1,2,3:2:0:0:
120,283,89295,2,0,P|58:239|45:111,2,179.999999713898,0|0|0,3:0|0:0|0:0,0:0:0:0:
180,182,96623,6,0,P|192:110|232:235,1,419.9999833107,10|0,0:0|0:0,0:0:0:0:
261,244,97482,1,0,0:0:0:0:
277,250,97539,6,0,L|348:237,1,59.9999976158142,8|0,3:0|0:0,0:0:0:0:
39,176,97768,2,0,L|30:244,1,44.9999999284745,2|0,0:0|0:0,0:0:0:0:
114,98,97996,1,4,0:0:0:0:
138,195,98112,2,0,L|147:292,1,89.9999998569489,0|0,0:0|0:0,0:0:0:0:
212,129,98455,2,0,L|271:125,1,44.9999999284745,8|0,0:0|0:0,0:0:0:0:
247,218,98683,1,0,0:0:0:0:
335,218,98799,2,0,L|392:213,2,44.9999999284745,0|4|0,0:0|0:0|0:0,0:0:0:0:
220,303,99143,2,0,L|215:360,1,44.9999999284745,2|0,0:3|0:0,0:0:0:0:
486,248,99372,6,0,L|492:169,1,44.9999999284745,8|0,0:0|0:0,0:0:0:0:
369,339,99600,2,0,L|388:404,1,44.9999999284745,0|0,0:0|0:0,0:0:0:0:
413,120,99829,2,0,L|299:123,1,89.9999998569489,4|2,0:0|0:3,0:0:0:0:
292,228,100171,1,0,0:0:0:0:
325,269,100287,2,0,L|382:268,2,44.9999999284745,8|0|2,0:0|0:0|0:3,0:0:0:0:
131,256,100629,1,0,0:0:0:0:
165,292,100744,2,0,L|221:288,1,44.9999999284745,4|0,0:0|0:0,0:0:0:0:
283,367,100974,1,2,0:3:0:0:
512,16,101203,6,0,L|492:248,1,215.999984825135,4|4,3:0|3:0,0:0:0:0:
269,36,101890,5,2,3:2:0:0:
357,117,102004,1,0,3:0:0:0:
354,126,102062,1,0,0:0:0:0:
350,135,102119,6,0,L|331:357,1,215.999984825135,4|4,3:0|3:0,0:0:0:0:
162,254,102806,5,2,3:2:0:0:
240,192,102921,1,0,3:0:0:0:
235,183,102979,1,0,0:0:0:0:
229,172,103035,6,0,L|105:171,1,107.999992412567,4|0,3:0|0:0,0:0:0:0:
263,290,103265,2,0,L|381:293,1,107.999992412567,8|0,3:2|0:0,0:0:0:0:
155,336,103494,2,4,L|32:335,1,107.999992412567,4|0,3:2|0:0,0:0:0:0:
353,195,103723,2,0,L|483:196,1,107.999992412567,8|0,3:2|0:0,0:0:0:0:
307,68,103952,2,0,L|200:67,1,107.999992412567,4|0,3:0|0:0,0:0:0:0:
16,16,104181,5,0,0:0:0:0:
414,384,104410,1,0,0:0:0:0:
17,16,104639,1,8,0:0:0:0:
200,218,104868,6,0,P|253:211|294:201,1,89.9999998569489,4|0,0:3|0:0,0:0:0:0:
504,106,105097,2,0,P|462:177|475:285,1,179.999995231629,2|0,0:3|0:0,0:0:0:0:
318,314,105441,1,0,0:0:0:0:
368,139,105555,2,0,P|368:86|347:25,1,89.9999998569489,2|0,0:0|0:0,0:0:0:0:
200,218,105784,6,0,P|148:177|191:52,1,179.999999713898,4|0,0:2|0:0,0:0:0:0:
63,18,106128,1,0,0:0:0:0:
248,133,106242,2,0,P|293:123|339:107,1,89.9999998569489,2|0,0:3|0:0,0:0:0:0:
15,134,106471,2,0,P|9:186|11:256,1,89.9999998569489,2|0,0:0|0:0,0:0:0:0:
101,349,106700,5,0,0:0:0:0:
489,216,106929,2,0,P|509:175|512:131,1,89.9999998569489,8|0,0:0|0:0,0:0:0:0:
339,299,107158,2,0,P|347:343|366:384,1,89.9999998569489,2|0,0:3|0:0,0:0:0:0:
246,135,107387,2,0,P|196:111|158:105,1,89.9999998569489,2|0,0:0|0:0,0:0:0:0:
88,318,107616,6,0,P|139:303|182:257,1,89.9999998569489,4|0,0:2|0:0,0:0:0:0:
45,47,107844,2,0,P|26:132|74:205,1,179.999999713898,2|2,0:3|0:3,0:0:0:0:
306,18,108189,1,0,0:0:0:0:
246,135,108303,1,2,0:2:0:0:
149,65,108418,1,0,0:0:0:0:
358,130,108531,6,0,P|352:177|335:252,1,89.9999998569489,8|0,0:3|0:0,0:0:0:0:
189,316,108761,2,0,P|182:271|179:227,1,89.9999998569489,2|0,0:0|0:0,0:0:0:0:
480,68,108989,2,0,P|490:113|496:176,1,89.9999998569489,4|0,0:2|0:0,0:0:0:0:
29,208,109218,2,0,P|30:152|40:99,1,89.9999998569489,2|0,0:3|0:0,0:0:0:0:
377,273,109448,6,0,P|406:300|430:355,1,89.9999998569489,8|0,0:0|0:0,0:0:0:0:
256,208,109677,1,2,0:0:0:0:
159,315,109791,2,0,P|128:343|64:354,2,89.9999998569489,0|2|0,0:0|0:3|0:0,0:0:0:0:
417,73,110134,6,0,P|507:60|509:133,1,179.999999713898,8|0,0:0|0:0,0:0:0:0:
374,235,110478,1,0,0:0:0:0:
328,137,110593,2,0,P|301:96|293:19,1,89.9999998569489,2|0,0:3|0:0,0:0:0:0:
477,231,110822,2,0,P|481:262|469:330,1,89.9999998569489,4|0,0:2|0:0,0:0:0:0:
208,144,111051,5,2,0:3:0:0:
304,240,111166,1,0,0:0:0:0:
208,240,111280,1,2,0:3:0:0:
304,144,111395,1,0,0:0:0:0:
240,368,111509,6,0,L|229:278,1,89.9999998569489,8|0,0:0|0:0,0:0:0:0:
169,165,111737,2,0,L|80:176,1,89.9999998569489,4|0,0:2|0:0,0:0:0:0:
272,16,111966,2,0,L|282:105,1,89.9999998569489,2|0,0:3|0:0,0:0:0:0:
342,218,112195,2,0,L|432:208,1,89.9999998569489,4|0,0:3|0:0,0:0:0:0:
169,165,112425,6,0,P|144:249|191:327,1,179.999999713898,2|0,0:3|0:0,0:0:0:0:
251,234,112769,1,0,0:0:0:0:
101,266,112883,2,0,P|45:254|4:251,1,89.9999998569489,2|0,0:0|0:0,0:0:0:0:
321,134,113112,2,0,P|420:147|536:142,1,179.999999713898,4|0,0:2|0:0,0:0:0:0:
184,110,113456,1,0,0:0:0:0:
70,144,113570,2,0,P|54:102|49:58,1,89.9999998569489,2|0,0:3|0:0,0:0:0:0:
234,220,113799,2,0,P|225:251|194:312,1,89.9999998569489,2|0,0:0|0:0,0:0:0:0:
35,359,114028,5,0,0:0:0:0:
396,309,114257,2,0,P|440:325|504:371,1,89.9999998569489,8|0,0:0|0:0,0:0:0:0:
512,126,114486,2,0,P|506:171|494:214,1,89.9999998569489,0|0,0:0|0:0,0:0:0:0:
373,17,114715,2,0,P|380:61|384:106,1,89.9999998569489,2|0,0:0|0:0,0:0:0:0:
241,136,114944,6,0,P|152:125|56:71,2,179.999999713898,4|0|0,0:2|0:0|0:0,0:0:0:0:
168,230,115517,1,0,0:0:0:0:
345,192,115631,1,2,0:2:0:0:
227,321,115746,1,0,0:0:0:0:
340,296,115859,6,0,P|466:317|514:342,1,179.999999713898,8|2,0:3|0:0,0:0:0:0:
260,230,116204,1,0,0:0:0:0:
138,361,116318,2,0,B|127:311|145:270,1,89.9999998569489,4|0,0:2|0:0,0:0:0:0:
123,145,116547,2,0,P|75:148|12:115,1,89.9999998569489,2|0,0:3|0:0,0:0:0:0:
351,16,116776,2,0,P|346:65|314:118,1,89.9999998569489,8|0,0:0|0:0,0:0:0:0:
424,305,117005,2,0,P|411:209|325:213,1,179.999999713898,2|0,0:0|0:0,0:0:0:0:
220,197,117349,1,0,0:0:0:0:
430,106,117463,1,6,3:2:0:0:
256,192,117692,12,6,119066,3:2:0:0:
161,183,119295,5,2,3:2:0:0:
349,81,119410,1,0,0:0:0:0:
246,45,119523,6,0,B|225:142|289:126|249:246,1,179.999999713898,12|2,3:0|0:1,0:0:0:0:
128,56,119868,1,0,0:0:0:0:
13,232,119982,2,0,P|75:170|173:193,1,179.999999713898,4|0,0:0|0:0,0:0:0:0:
315,320,120326,1,0,0:0:0:0:
359,170,120440,6,0,P|356:128|342:52,1,89.9999998569489,8|0,0:0|0:0,0:0:0:0:
174,301,120669,2,0,P|158:336|140:388,1,89.9999998569489,2|0,3:0|3:0,0:0:0:0:
511,371,120899,2,0,P|483:335|452:304,1,89.9999998569489,4|0,3:2|0:0,0:0:0:0:
443,197,121128,1,2,0:1:0:0:
349,303,121242,1,2,0:1:0:0:
89,226,121357,6,0,P|167:183|256:215,1,179.999999713898,8|0,3:0|0:0,0:0:0:0:
359,170,121700,1,0,0:0:0:0:
260,13,121815,2,0,P|253:57|257:102,1,89.9999998569489,4|0,0:0|0:0,0:0:0:0:
472,317,122043,2,0,P|457:227|456:224,1,89.9999998569489,2|0,0:3|0:0,0:0:0:0:
486,12,122272,2,0,P|450:39|426:77,1,89.9999998569489,8|0,3:2|0:0,0:0:0:0:
141,170,122502,6,0,L|52:153,1,89.9999998569489,6|0,3:2|0:0,0:0:0:0:
289,225,122731,2,0,L|201:267,1,89.9999998569489,6|0,3:2|0:0,0:0:0:0:
106,308,122960,1,2,3:1:0:0:
229,140,123074,1,2,3:1:0:0:
373,288,123188,6,0,P|445:309|440:204,1,179.999999713898,8|0,0:3|0:0,0:0:0:0:
366,104,123532,1,0,0:0:0:0:
207,263,123647,2,0,P|117:264|32:298,1,179.999999713898,4|2,0:0|0:3,0:0:0:0:
0,38,123990,1,0,0:0:0:0:
79,182,124104,6,0,B|70:132|90:80,1,89.9999998569489,2|0,0:1|0:0,0:0:0:0:
366,104,124333,2,0,B|363:134|382:143|382:143|358:156|354:176,1,89.9999998569489,8|0,0:0|0:0,0:0:0:0:
208,141,124562,2,0,B|210:110|191:101|191:101|215:88|219:68,1,89.9999998569489,4|0,0:0|0:0,0:0:0:0:
493,69,124791,2,0,B|502:119|482:171,1,89.9999998569489,8|0,0:0|0:0,0:0:0:0:
194,372,125021,5,8,3:0:0:0:
313,347,125135,2,0,P|375:349|419:340,1,89.9999998569489,0|0,0:0|0:0,0:0:0:0:
287,222,125364,1,2,0:1:0:0:
99,328,125478,2,0,P|104:234|178:277,1,179.999999713898,4|2,0:0|0:3,0:0:0:0:
402,344,125822,1,0,0:0:0:0:
498,262,125936,2,0,P|513:217|509:159,1,89.9999998569489,8|0,0:0|0:0,0:0:0:0:
350,62,126165,2,0,P|364:111|408:162,1,89.9999998569489,2|0,3:0|0:0,0:0:0:0:
64,179,126394,6,0,P|135:128|220:145,1,179.999999713898,6|0,3:2|0:0,0:0:0:0:
304,263,126738,1,0,0:0:0:0:
186,335,126852,6,0,P|169:293|168:248,1,89.9999976158143,12|0,3:0|0:0,0:0:0:0:
444,93,127082,1,2,0:1:0:0:
427,214,127196,2,0,P|433:258|422:307,2,89.9999998569489,0|4|0,0:0|0:0|0:0,0:0:0:0:
209,57,127539,2,0,P|208:101|228:159,1,89.9999998569489,2|0,0:3|0:0,0:0:0:0:
115,336,127769,6,0,P|69:331|0:320,1,89.9999998569489,8|0,0:0|0:0,0:0:0:0:
115,336,127998,2,0,P|70:229|102:171,1,179.999999713898,2|4,0:3|0:0,0:0:0:0:
372,0,128341,1,0,0:0:0:0:
372,0,128456,2,0,P|376:44|386:93,1,89.9999998569489,2|0,3:1|0:0,0:0:0:0:
494,194,128685,6,2,P|506:147|513:81,1,89.9999998569489,8|0,0:3|0:0,0:0:0:0:
491,0,128914,1,2,0:3:0:0:
262,115,129027,2,0,P|256:219|259:226,2,89.9999998569489,0|4|0,0:0|0:0|0:0,0:0:0:0:
419,250,129372,2,0,P|439:290|453:332,1,89.9999998569489,2|0,0:3|0:0,0:0:0:0:
269,364,129601,2,0,P|227:379|181:383,1,89.9999998569489,8|0,3:2|0:0,0:0:0:0:
214,33,129829,6,0,L|344:7,1,89.9999998569489,6|0,3:2|0:0,0:0:0:0:
429,157,130058,2,0,L|336:175,1,89.9999998569489,6|0,3:2|0:0,0:0:0:0:
26,216,130287,2,0,P|14:172|20:128,1,89.9999998569489,2|2,3:1|3:1,0:0:0:0:
141,158,130517,5,8,0:3:0:0:
212,285,130631,1,0,0:0:0:0:
260,167,130746,1,2,0:1:0:0:
336,266,130860,1,0,0:0:0:0:
371,125,130974,6,0,P|478:108|509:206,2,179.999999713898,4|0|8,3:2|0:0|0:0,0:0:0:0:
172,193,131547,5,0,0:0:0:0:
281,384,131662,1,2,0:3:0:0:
335,233,131776,1,0,0:0:0:0:
182,338,131891,2,0,P|58:367|-3:344,1,179.999999713898,4|0,3:2|0:0,0:0:0:0:
87,15,132234,5,0,0:0:0:0:
93,109,132349,1,8,3:0:0:0:
175,67,132463,1,0,0:0:0:0:
237,132,132578,1,8,3:2:0:0:
274,50,132692,1,0,0:0:0:0:
362,68,132807,2,0,P|372:105|374:156,1,89.9999998569489,8|0,3:2|0:0,0:0:0:0:
141,275,133035,2,0,P|140:229|144:182,1,89.9999998569489,8|0,3:2|0:0,0:0:0:0:
512,147,133265,5,8,3:2:0:0:
479,230,133379,1,0,0:0:0:0:
396,266,133494,1,0,0:0:0:0:
307,252,133608,1,0,0:0:0:0:
245,185,133723,6,0,B|235:367,1,179.999999713898,6|0,3:2|0:0,0:0:0:0:
117,384,134065,1,0,3:0:0:0:
48,266,134409,5,2,3:2:0:0:
147,162,134638,1,2,0:2:0:0:
130,151,134867,1,2,3:2:0:0:
263,221,135096,1,0,0:0:0:0:
273,209,135325,1,0,3:0:0:0:
243,344,135554,2,0,L|301:335,1,35.9999974708558,2|0,3:0|0:0,0:0:0:0:
160,272,135783,1,0,0:0:0:0:
384,265,136012,6,0,L|395:118,1,143.999989883423,6|0,0:2|0:0,0:0:0:0:
295,61,136699,2,0,L|303:116,1,35.9999974708558,2|0,0:0|0:0,0:0:0:0:
479,51,136928,2,0,L|498:13,11,23.9999983139039,8|0|0|0|0|0|0|0|0|2|0|0,0:0|0:0|0:0|0:0|0:0|0:0|0:0|0:0|0:0|0:2|0:0|0:0,0:0:0:0:
397,121,137844,5,2,3:0:0:0:
72,57,138302,1,2,0:0:0:0:
40,159,138531,1,2,3:2:0:0:
62,196,138646,1,0,3:0:0:0:
51,237,138760,2,0,L|135:226,1,71.9999949417116,8|2,0:0|0:0,0:0:0:0:
227,246,139104,1,2,0:2:0:0:
260,218,139218,2,0,L|308:230,2,35.9999974708558,2|0|2,3:0|0:0|0:0,0:0:0:0:
210,110,139562,1,2,0:2:0:0:
240,129,139676,6,0,L|389:97,1,143.999989883423,2|0,3:0|0:0,0:0:0:0:
390,196,140363,2,0,L|456:205,1,35.9999974708558,2|0,0:0|0:0,0:0:0:0:
293,169,140592,2,0,P|288:203|305:256,1,71.9999949417116,8|0,0:0|3:0,0:0:0:0:
509,258,141050,2,0,P|521:196|501:127,1,107.999992412567,2|0,0:0|0:0,0:0:0:0:
459,76,141508,5,2,3:0:0:0:
367,302,141737,1,2,0:0:0:0:
332,149,141966,5,2,0:2:0:0:
492,361,142195,1,0,3:0:0:0:
430,212,142424,5,8,0:0:0:0:
278,384,142653,1,0,0:0:0:0:
172,254,142882,2,0,L|169:218,1,35.9999974708558,2|2,0:0|0:2,0:0:0:0:
140,180,143111,1,2,0:2:0:0:
144,136,143226,1,2,0:2:0:0:
169,170,143340,6,2,L|326:167,1,143.999989883423,2|0,3:0|0:0,0:0:0:0:
386,82,144027,2,0,L|327:93,1,35.9999974708558,2|0,0:0|0:0,0:0:0:0:
408,216,144256,2,0,L|443:220,11,23.9999983139039,8|0|0|0|0|0|0|0|0|2|0|0,0:0|0:0|0:0|0:0|0:0|0:0|0:0|0:0|0:0|0:2|0:0|0:0,0:0:0:0:
482,134,145172,5,2,3:0:0:0:
239,36,145630,1,0,0:0:0:0:
286,177,145859,1,2,0:2:0:0:
280,185,145974,1,0,0:0:0:0:
274,192,146088,2,0,L|370:183,1,71.9999949417116,8|2,0:0|0:0,0:0:0:0:
469,274,146432,1,2,0:2:0:0:
462,282,146546,2,0,L|405:276,2,35.9999974708558,2|0|2,3:0|0:0|0:0,0:0:0:0:
289,333,146890,1,2,0:2:0:0:
295,340,147004,6,0,P|182:328|136:347,1,143.999989883423,2|0,3:0|0:0,0:0:0:0:
178,194,147691,2,0,L|169:244,1,35.9999974708558,2|0,0:0|0:0,0:0:0:0:
52,257,147920,2,0,L|78:281,11,23.9999983139039,8|0|0|0|0|0|0|0|0|0|0|0,0:0|0:0|0:0|0:0|0:0|0:0|0:0|0:0|0:0|0:0|0:0|0:0,0:0:0:0:
79,166,148836,6,0,L|71:94,1,71.9999949417116,2|0,0:2|0:0,0:0:0:0:
286,28,149294,2,0,L|281:81,1,35.9999974708558,2|0,0:0|0:0,0:0:0:0:
332,139,149523,1,2,3:0:0:0:
317,299,149752,6,0,L|300:339,2,23.9999983139039,8|0|0,0:0|0:0|0:0,0:0:0:0:
349,309,149981,2,0,L|353:348,2,23.9999983139039,2|0|0,0:2|0:0|0:0,0:0:0:0:
382,306,150210,2,0,L|402:345,2,23.9999983139039,2|0|0,0:0|0:0|0:0,0:0:0:0:
412,289,150440,1,2,0:2:0:0:
432,262,150516,1,0,0:0:0:0:
441,229,150592,1,0,0:0:0:0:
433,196,150669,6,0,P|459:193|504:201,1,71.9999949417116,6|2,0:2|3:2,0:0:0:0:
345,219,150974,1,0,0:0:0:0:
339,210,151050,1,0,0:0:0:0:
333,201,151127,6,0,P|302:210|254:204,1,71.9999949417116,2|2,3:1|3:2,0:0:0:0:
256,64,151432,1,0,0:0:0:0:
264,56,151508,1,0,0:0:0:0:
272,48,151585,6,0,P|292:82|295:117,1,71.9999949417116,10|2,3:1|3:2,0:0:0:0:
152,208,151890,1,0,0:0:0:0:
162,211,151966,1,0,0:0:0:0:
171,216,152043,6,0,P|161:242|154:294,1,71.9999949417116,2|2,3:1|3:2,0:0:0:0:
168,112,152348,1,0,0:0:0:0:
160,114,152424,1,0,0:0:0:0:
154,120,152501,6,0,P|123:98|66:96,1,71.9999949417116,2|0,3:1|3:0,0:0:0:0:
274,173,152959,1,8,3:1:0:0:
240,292,153188,2,0,L|246:327,1,35.9999974708558,0|0,3:0|3:0,0:0:0:0:
337,368,153417,1,2,3:2:0:0:
430,245,153646,1,2,3:0:0:0:
109,315,153875,1,8,3:1:0:0:
102,285,153989,2,0,B|106:195,1,71.9999949417116,2|0,3:0|0:0,0:0:0:0:
60,98,154333,6,0,L|102:105,1,35.9999974708558,6|0,3:2|0:0,0:0:0:0:
273,129,154562,2,0,L|226:137,1,35.9999974708558,0|0,0:0|0:0,0:0:0:0:
105,213,154791,2,0,L|162:207,1,35.9999974708558,0|0,0:0|0:0,0:0:0:0:
300,265,155020,2,0,L|248:259,1,35.9999974708558,2|0,3:0|0:0,0:0:0:0:
45,315,155249,2,0,L|88:308,1,35.9999974708558,10|0,3:1|0:0,0:0:0:0:
430,222,155478,2,0,L|375:225,1,35.9999974708558,0|0,0:0|0:0,0:0:0:0:
207,382,155707,1,8,3:1:0:0:
194,356,155821,1,2,3:2:0:0:
180,330,155936,2,0,L|174:281,1,35.9999974708558,2|2,3:2|3:2,0:0:0:0:
262,161,156166,5,2,3:0:0:0:
248,221,156280,1,0,0:0:0:0:
252,162,156395,5,2,3:1:0:0:
260,219,156509,1,0,0:0:0:0:
241,167,156624,5,8,3:1:0:0:
271,216,156738,1,0,0:0:0:0:
234,176,156853,5,2,3:1:0:0:
278,208,156967,1,0,0:0:0:0:
234,185,157082,5,2,3:0:0:0:
280,200,157196,1,0,0:0:0:0:
234,195,157311,5,2,3:1:0:0:
280,192,157425,1,0,0:0:0:0:
127,137,157540,5,8,3:1:0:0:
196,80,157654,1,0,3:0:0:0:
286,77,157769,1,2,3:1:0:0:
357,130,157883,1,0,0:0:0:0:
397,210,157998,6,0,P|444:217|507:222,1,107.999992412567,6|2,3:2|0:2,0:0:0:0:
124,139,158684,1,2,3:0:0:0:
269,315,158913,2,0,P|203:344|137:386,1,143.999989883423,8|2,3:1|3:1,0:0:0:0:
403,214,159600,1,2,3:2:0:0:
82,267,159829,6,0,L|37:251,1,35.9999974708558,2|0,3:0|0:0,0:0:0:0:
194,228,160058,2,0,L|242:201,1,35.9999974708558,2|0,3:1|0:0,0:0:0:0:
47,149,160287,2,0,L|-14:127,1,35.9999974708558,8|0,3:1|0:0,0:0:0:0:
165,52,160516,1,2,3:0:0:0:
179,76,160630,1,2,3:0:0:0:
193,101,160745,2,0,L|187:155,1,35.9999974708558,10|0,3:1|0:0,0:0:0:0:
301,317,160974,5,2,3:0:0:0:
258,276,161088,1,2,3:2:0:0:
343,242,161203,5,2,3:2:0:0:
269,185,161317,1,2,3:2:0:0:
385,160,161432,5,2,3:2:0:0:
275,87,161546,1,2,3:2:0:0:
385,160,161661,5,6,3:2:0:0:
269,185,161775,1,0,0:0:0:0:
343,242,161890,5,2,3:2:0:0:
258,276,162004,1,0,0:0:0:0:
301,317,162119,6,0,L|310:358,1,35.9999974708558,8|0,3:1|0:0,0:0:0:0:
147,354,162348,2,0,L|84:349,1,35.9999974708558,2|0,3:0|0:0,0:0:0:0:
39,191,162577,2,0,L|47:149,1,35.9999974708558,2|0,3:1|0:0,0:0:0:0:
156,35,162806,2,0,L|198:17,1,35.9999974708558,2|0,3:0|0:0,0:0:0:0:
398,48,163035,2,0,L|437:86,1,35.9999974708558,10|0,3:1|0:0,0:0:0:0:
476,224,163264,2,0,L|462:288,1,35.9999974708558,2|0,3:0|0:0,0:0:0:0:
334,384,163493,5,2,3:1:0:0:
201,128,163722,1,2,3:2:0:0:
194,125,163836,1,0,3:0:0:0:
187,123,163951,2,0,L|200:217,1,71.9999949417116,10|2,3:1|3:0,0:0:0:0:
0,252,164409,1,10,3:1:0:0:
345,111,164867,1,2,3:2:0:0:
353,110,164981,1,2,3:0:0:0:
362,114,165096,1,8,3:1:0:0:
368,120,165210,1,0,3:0:0:0:
374,128,165325,6,0,L|345:284,1,143.999989883423,12|4,0:0|0:2,0:0:0:0:
504,184,166241,2,0,L|477:329,1,143.999989883423,8|4,0:2|0:2,0:0:0:0:
272,344,166928,1,0,0:0:0:0:
32,224,167157,6,0,L|58:365,1,143.999989883423,8|4,0:0|0:2,0:0:0:0:
152,144,167844,1,0,0:0:0:0:
152,144,168073,2,0,L|175:286,1,143.999989883423,8|4,0:2|0:2,0:0:0:0:
363,84,168760,1,2,0:2:0:0:
371,85,168875,1,2,0:2:0:0:
379,85,168989,6,0,L|371:167,1,71.9999949417116,8|0,0:0|0:0,0:0:0:0:
247,108,169447,2,0,L|261:190,1,71.9999949417116,4|0,0:2|0:0,0:0:0:0:
484,133,169905,2,0,L|470:219,1,71.9999949417116,8|0,0:2|0:0,0:0:0:0:
273,13,170363,1,4,0:2:0:0:
108,122,170592,2,0,L|119:187,1,35.9999974708558,2|2,0:2|0:2,0:0:0:0:
119,186,170821,6,0,L|103:277,1,71.9999949417116,8|2,0:0|0:2,0:0:0:0:
332,339,171165,1,2,0:2:0:0:
354,317,171279,2,0,L|341:230,1,71.9999949417116,4|8,0:2|0:2,0:0:0:0:
407,85,171737,1,6,0:2:0:0:
457,252,171966,1,0,0:0:0:0:
271,55,172195,1,8,0:2:0:0:
249,77,172309,2,0,L|262:164,1,71.9999949417116,0|0,0:0|0:0,0:0:0:0:
119,186,172653,6,0,L|5:178,1,107.999992412567,12|2,0:0|0:2,0:0:0:0:
227,266,173111,2,0,L|214:386,1,107.999992412567,4|2,0:2|0:2,0:0:0:0:
326,145,173569,2,0,L|456:153,1,107.999992412567,8|2,0:2|0:2,0:0:0:0:
196,43,174027,1,4,0:2:0:0:
126,184,174256,2,0,L|182:174,1,53.9999962062837,2|0,0:2|0:0,0:0:0:0:
283,132,174485,6,0,L|297:291,1,143.999989883423,8|2,0:2|0:2,0:0:0:0:
60,381,174943,2,0,L|47:236,1,143.999989883423,4|2,0:2|0:2,0:0:0:0:
473,190,175401,1,8,0:2:0:0:
429,354,175630,1,2,0:2:0:0:
119,78,175859,1,4,0:2:0:0:
162,249,176088,1,2,0:2:0:0:
344,205,176317,5,4,0:0:0:0:
239,347,176546,2,0,L|145:353,1,89.9999998569489
374,138,176775,2,0,L|478:132,1,89.9999998569489,0|0,0:0|0:0,0:0:0:0:
104,209,177004,2,0,L|5:215,1,89.9999998569489
203,261,177233,1,0,0:0:0:0:
277,210,177348,1,0,0:0:0:0:
204,156,177463,5,0,0:0:0:0:
261,86,177578,2,0,L|255:32,2,44.9999999284745
470,240,177807,1,0,0:0:0:0:
450,326,177921,1,0,0:0:0:0:
357,351,178036,1,0,0:0:0:0:
291,285,178150,6,0,L|284:241,8,44.9999988079071,8|0|0|0|0|0|0|0|0,2:3|2:0|2:0|2:0|2:0|2:0|2:0|2:0|2:0,0:0:0:0:
265,220,178666,1,0,2:0:0:0:
242,207,178723,1,0,2:0:0:0:
219,197,178780,1,0,2:0:0:0:
194,190,178837,1,0,2:0:0:0:
168,187,178895,1,0,2:0:0:0:
142,188,178952,1,0,2:0:0:0:
117,192,179009,1,0,0:0:0:0:
93,200,179065,6,0,P|8:144|120:56,1,269.999999570847,10|0,0:2|0:0,0:0:0:0:
173,90,179524,6,0,P|280:113|379:69,1,215.999987686158,6|2,0:2|3:2,0:0:0:0:
263,326,179868,1,2,3:2:0:0:
474,218,179982,6,0,P|401:196|304:236,1,179.999995231629,12|0,3:0|0:0,0:0:0:0:
125,280,180326,1,0,0:0:0:0:
53,95,180440,2,0,P|133:136|246:116,1,179.999995231629,4|2,0:0|0:3,0:0:0:0:
357,25,180784,1,0,0:0:0:0:
307,232,180898,6,0,P|294:277|287:335,1,89.9999998569489,8|0,0:0|0:0,0:0:0:0:
512,144,181127,2,0,P|508:99|499:52,1,89.9999998569489,2|0,3:0|3:0,0:0:0:0:
441,318,181356,2,0,B|450:247|385:230|401:134,1,179.999999713898,4|2,0:0|3:1,0:0:0:0:
266,99,181700,1,2,3:1:0:0:
172,283,181814,6,0,P|124:295|48:304,1,89.9999998569489,8|0,3:0|0:0,0:0:0:0:
125,144,182043,1,2,0:1:0:0:
316,242,182158,2,0,P|331:287|335:338,2,89.9999998569489,0|4|0,0:0|0:0|0:0,0:0:0:0:
416,102,182501,2,0,P|459:88|504:89,1,89.9999998569489,2|0,0:3|0:0,0:0:0:0:
173,254,182731,6,0,P|83:271|9:199,1,179.999995231629,8|0,3:2|0:0,0:0:0:0:
310,126,183074,1,0,0:0:0:0:
388,330,183189,2,0,P|437:344|496:369,1,89.9999998569489,6|0,3:2|0:0,0:0:0:0:
422,197,183418,1,2,3:1:0:0:
246,327,183532,1,2,3:1:0:0:
192,201,183647,6,0,L|159:9,1,179.999995231629,8|0,3:0|0:0,0:0:0:0:
385,176,183990,1,0,0:0:0:0:
246,327,184105,2,0,P|156:334|71:362,1,179.999995231629,4|2,0:0|0:3,0:0:0:0:
330,247,184448,1,0,0:0:0:0:
440,285,184562,6,0,P|480:302|520:346,1,89.9999998569489,2|0,0:1|0:0,0:0:0:0:
309,127,184791,2,0,P|317:84|304:17,1,89.9999998569489,8|0,0:0|0:0,0:0:0:0:
501,119,185020,2,0,P|450:154|432:194,1,89.9999998569489,4|2,0:0|0:0,0:0:0:0:
215,189,185249,2,0,P|164:171|113:176,1,89.9999998569489,8|0,0:0|0:0,0:0:0:0:
6,200,185479,5,8,3:0:0:0:
203,280,185593,2,0,P|262:273|296:244,1,89.9999998569489,0|0,0:0|0:0,0:0:0:0:
369,352,185822,1,2,0:1:0:0:
194,313,185936,2,0,P|80:275|17:327,1,179.999999713898,4|2,0:0|0:3,0:0:0:0:
299,157,186280,1,0,0:0:0:0:
425,209,186395,6,0,L|518:200,2,89.9999998569489,8|0|0,0:0|0:0|0:0,0:0:0:0:
90,374,186738,1,0,0:0:0:0:
187,248,186853,2,0,L|174:47,1,179.999999713898,6|0,3:2|0:0,0:0:0:0:
276,85,187195,1,2,0:1:0:0:
64,195,187311,6,0,P|45:236|40:280,1,89.9999998569489,12|0,3:0|0:0,0:0:0:0:
91,33,187540,1,0,0:0:0:0:
293,214,187654,2,0,P|303:256|307:311,2,89.9999998569489,0|4|0,0:0|0:0|0:0,0:0:0:0:
487,75,187998,2,0,P|488:120|481:165,1,89.9999998569489,2|0,0:3|0:0,0:0:0:0:
260,95,188226,6,0,L|379:108,1,89.9999998569489,8|0,0:0|0:0,0:0:0:0:
114,239,188455,2,0,L|331:208,1,179.999999713898,2|6,0:3|3:2,0:0:0:0:
425,372,188799,1,0,0:0:0:0:
425,372,188913,2,0,P|431:309|420:273,1,89.9999998569489,2|2,3:1|3:1,0:0:0:0:
9,173,189142,6,0,P|-13:257|35:330,1,179.999999713898,8|2,3:0|0:3,0:0:0:0:
406,110,189485,2,0,P|453:96|500:89,2,89.9999998569489,0|4|0,0:0|0:0|0:0,0:0:0:0:
202,245,189830,2,0,P|158:247|112:238,1,89.9999998569489,2|0,0:3|0:0,0:0:0:0:
433,304,190059,2,0,P|489:327|520:354,1,89.9999998569489,8|0,3:2|0:0,0:0:0:0:
311,384,190288,6,0,L|301:294,1,89.9999998569489,6|0,3:2|0:0,0:0:0:0:
328,157,190517,2,0,L|342:35,1,89.9999998569489,6|0,3:2|0:0,0:0:0:0:
176,341,190746,2,0,P|126:357|57:353,1,89.9999998569489,2|0,3:1|0:0,0:0:0:0:
56,78,190975,5,8,3:0:0:0:
158,44,191089,1,0,0:0:0:0:
193,146,191204,1,2,0:1:0:0:
92,183,191318,1,0,0:0:0:0:
363,20,191432,6,0,P|361:123|300:156,1,179.999999713898,4|2,3:2|0:3,0:0:0:0:
465,376,191776,1,0,0:0:0:0:
507,281,191891,1,8,0:0:0:0:
431,204,192005,1,0,0:0:0:0:
335,254,192120,1,2,0:3:0:0:
353,359,192234,1,0,0:0:0:0:
224,373,192349,6,0,P|127:352|125:271,1,179.999999713898,4|0,3:2|0:0,0:0:0:0:
420,293,192692,1,0,0:0:0:0:
506,204,192806,6,0,L|513:107,1,89.9999998569489,8|0,3:0|0:0,0:0:0:0:
218,109,193035,2,0,L|239:196,1,89.9999998569489,8|0,3:2|0:0,0:0:0:0:
364,122,193265,2,0,L|372:28,1,89.9999998569489,8|0,3:2|0:0,0:0:0:0:
21,187,193494,2,0,L|142:178,1,89.9999976158143,8|0,3:2|0:0,0:0:0:0:
355,305,193723,5,8,3:2:0:0:
293,370,193837,1,0,0:0:0:0:
202,349,193952,1,0,0:0:0:0:
266,286,194066,1,0,0:0:0:0:
453,370,194180,6,0,P|455:247|394:195,1,179.999999713898,4|8,3:2|3:2,0:0:0:0:
173,260,194639,6,0,P|107:314|1:272,1,179.999995231629,4|2,3:0|0:0,0:0:0:0:
464,19,195097,1,0,0:0:0:0:
464,19,195326,1,8,3:2:0:0:
75,160,195555,6,0,P|17:94|24:7,1,179.999999713898,4|2,3:0|0:0,0:0:0:0:
323,340,196013,5,0,0:0:0:0:
323,340,196241,2,0,L|319:384,2,44.9999999284745,8|0|0,3:2|0:0|0:0,0:0:0:0:
122,307,196470,5,4,3:0:0:0:
122,307,196699,2,0,L|129:262,2,44.9999999284745,2|0|0,3:2|0:0|0:0,0:0:0:0:
233,236,196928,6,0,L|248:288,1,44.9999999284745,4|0,3:0|0:0,0:0:0:0:
300,214,197043,2,0,L|352:199,1,44.9999999284745,0|0,0:0|0:0,0:0:0:0:
278,147,197157,2,0,L|263:95,1,44.9999999284745,2|0,3:2|0:0,0:0:0:0:
211,169,197272,2,0,L|159:184,1,44.9999999284745,0|0,0:0|0:0,0:0:0:0:
354,303,197387,6,0,P|433:241|352:101,1,269.999999570847,4|0,3:0|0:0,0:0:0:0:
307,304,197844,6,0,L|533:329,1,179.999999713898,8|0,0:0|0:0,0:0:0:0:
48,112,198302,5,4,3:0:0:0:
496,192,198532,1,0,0:0:0:0:
48,272,198761,5,4,0:0:0:0:
464,112,198990,1,0,0:0:0:0:
16,192,199219,5,8,0:0:0:0:
464,272,199448,1,0,0:0:0:0:
128,176,199677,5,4,3:2:0:0:
384,208,199792,1,2,3:2:0:0:
128,208,199906,5,2,3:2:0:0:
384,176,200021,1,2,3:2:0:0:
144,0,200135,5,8,0:0:0:0:
368,384,200364,1,0,0:0:0:0:
368,0,200593,1,4,0:0:0:0:
144,384,200822,1,0,0:0:0:0:
16,96,201050,5,8,0:0:0:0:
496,104,201279,1,2,0:0:0:0:
16,288,201508,1,4,0:0:0:0:
496,288,201738,1,2,0:0:0:0:
96,80,201966,5,8,0:0:0:0:
496,192,202196,1,0,0:0:0:0:
96,304,202425,5,4,0:0:0:0:
416,80,202654,1,0,0:0:0:0:
16,192,202883,5,8,0:0:0:0:
416,304,203112,1,0,0:0:0:0:
200,96,203341,5,4,3:2:0:0:
312,288,203456,1,2,3:2:0:0:
312,96,203570,5,2,3:2:0:0:
200,288,203685,1,2,3:2:0:0:
136,0,203799,5,8,0:0:0:0:
304,344,204028,1,0,0:0:0:0:
304,40,204257,1,4,0:0:0:0:
128,384,204486,1,0,0:0:0:0:
208,40,204714,5,8,0:0:0:0:
384,384,204944,1,2,0:0:0:0:
384,0,205172,1,4,0:0:0:0:
208,344,205402,1,2,0:0:0:0:
48,72,205630,5,8,3:0:0:0:
496,192,205860,1,0,0:0:0:0:
48,312,206089,5,4,0:0:0:0:
464,72,206318,1,0,0:0:0:0:
16,192,206547,5,8,0:0:0:0:
464,312,206776,1,0,0:0:0:0:
128,176,207005,5,4,3:2:0:0:
384,208,207120,1,2,3:2:0:0:
128,208,207234,5,2,3:2:0:0:
384,176,207349,1,2,3:2:0:0:
144,0,207463,5,8,0:0:0:0:
368,384,207692,1,0,0:0:0:0:
368,0,207920,1,4,0:0:0:0:
144,384,208149,1,0,0:0:0:0:
16,96,208378,5,8,0:0:0:0:
496,104,208607,1,2,0:0:0:0:
16,288,208837,1,4,0:0:0:0:
496,288,209066,1,2,0:0:0:0:
48,88,209294,5,8,0:0:0:0:
496,192,209523,1,0,0:0:0:0:
48,296,209753,5,4,0:0:0:0:
464,96,209982,1,0,0:0:0:0:
16,192,210211,5,8,0:0:0:0:
464,288,210440,1,0,0:0:0:0:
152,128,210669,5,4,3:2:0:0:
184,272,210783,1,2,3:2:0:0:
360,136,210898,5,2,3:2:0:0:
328,272,211012,1,2,3:2:0:0:
199,170,211127,6,0,P|321:182|262:86,1,269.999999570847,8|2,3:0|3:2,0:0:0:0:
160,40,211527,1,0,3:0:0:0:
160,40,211585,1,4,0:0:0:0:
248,344,211814,1,10,3:2:0:0:
112,256,212043,2,0,P|70:243|11:248,1,89.9999998569489,10|0,3:2|0:0,0:0:0:0:
365,181,212272,2,0,P|412:162|466:157,1,89.9999998569489,2|0,3:2|0:0,0:0:0:0:
209,0,212501,5,6,3:2:0:0:
