osu file format v14

[General]
AudioFilename: GARNiDELiA - .mp3
AudioLeadIn: 0
PreviewTime: 60450
Countdown: 0
SampleSet: Soft
StackLeniency: 0.7
Mode: 0
LetterboxInBreaks: 0
WidescreenStoryboard: 1

[Editor]
DistanceSpacing: 2.1
BeatDivisor: 4
GridSize: 4
TimelineZoom: 2.1

[Metadata]
Title:Gokuraku Jodo
TitleUnicode:極楽浄土
Artist:GARNiDELiA
ArtistUnicode:GARNiDELiA
Creator:Vert
Version:Mei's Insane
Source:
Tags:MARiA 極楽浄土 Violet Cry Zweib Mei LunaSaika kanor - Cappuccino - sodarose
BeatmapID:1043757
BeatmapSetID:489039

[Difficulty]
HPDrainRate:6
CircleSize:4
OverallDifficulty:7
ApproachRate:8.3
SliderMultiplier:1.8
SliderTickRate:1

[Events]
//Background and Video events
0,0,"bg233.png",0,0
//Break Periods
2,90220,95919
//Storyboard Layer 0 (Background)
//Storyboard Layer 1 (Fail)
//Storyboard Layer 2 (Pass)
//Storyboard Layer 3 (Foreground)
//Storyboard Sound Samples

[TimingPoints]
440,458.015267175573,4,2,1,50,1,0
13264,-83.3333333333333,4,2,1,70,0,0
16012,-133.333333333333,4,2,1,70,0,0
16470,-66.6666666666667,4,2,1,70,0,0
16907,-66.6666666666667,4,2,1,75,0,0
16928,-83.3333333333333,4,2,1,75,0,0
31564,-83.3333333333333,4,2,1,65,0,0
31584,-100,4,2,1,65,0,0
44409,-83.3333333333333,4,2,1,65,0,0
45554,-100,4,2,1,65,0,0
46220,-100,4,1,1,65,0,0
58607,-83.3333333333333,4,1,1,65,0,0
60419,-83.3333333333333,4,2,1,75,0,0
60439,-66.6666666666667,4,2,1,75,0,0
60897,-83.3333333333333,4,2,1,75,0,0
60898,-83.3333333333333,4,2,1,80,0,0
75096,-66.6666666666667,4,2,1,80,0,0
75554,-100,4,2,1,75,0,0
88815,-100,4,2,1,60,0,0
90189,-100,4,2,1,55,0,0
96623,-142.857142857143,4,2,1,55,0,0
97539,-100,4,2,1,55,0,0
101182,-100,4,2,1,65,0,0
104846,-100,4,1,1,65,0,0
119044,-100,4,2,1,75,0,0
119065,-66.6666666666667,4,2,1,75,0,0
119523,-83.3333333333333,4,2,1,80,0,0
133722,-133.333333333333,4,2,1,80,0,0
134180,-133.333333333333,4,1,2,55,0,0
150648,-133.333333333333,4,1,2,60,0,0
150669,-100,4,1,2,60,0,0
156144,-100,4,1,2,50,0,0
156602,-100,4,1,2,55,0,0
157060,-100,4,1,2,60,0,0
157518,-100,4,1,2,65,0,0
157976,-100,4,1,2,70,0,0
165304,-100,4,3,1,70,0,0
171716,-100,4,3,2,70,0,0
171773,-100,4,3,1,70,0,0
172632,-100,4,3,1,60,0,0
173090,-100,4,3,1,62,0,0
173548,-100,4,3,1,64,0,0
174006,-100,4,3,1,66,0,0
174464,-100,4,3,1,68,0,0
174922,-100,4,3,1,70,0,0
175380,-100,4,3,1,72,0,0
175838,-100,4,3,1,74,0,0
176296,-100,4,3,1,80,0,0
178207,-100,4,2,1,40,0,0
179044,-100,4,2,1,80,0,0
179523,-66.6666666666667,4,2,1,80,0,0
179981,-83.3333333333333,4,2,1,80,0,0
197844,-66.6666666666667,4,2,1,80,0,0
198302,-100,4,2,1,75,0,0
213338,-100,4,2,1,5,0,0

[Colours]
Combo1 : 255,128,255
Combo2 : 128,255,128
Combo3 : 255,255,128
Combo4 : 128,128,255

[HitObjects]
228,168,1814,5,2,3:2:0:0:
136,100,2043,1,0,3:0:0:0:
228,168,2272,6,0,P|290:156|427:144,1,180,8|0,3:0|0:0,0:0:0:0:
217,275,2959,1,2,0:0:0:0:
217,275,3188,2,0,P|279:263|416:251,1,180,8|0,0:0|0:0,0:0:0:0:
163,375,3875,5,2,0:0:0:0:
111,281,4104,2,0,P|69:265|39:232,1,90,8|2,0:0|0:0,0:0:0:0:
330,129,4562,2,0,L|424:141,1,90,8|2,0:0|0:0,0:0:0:0:
207,158,5020,6,0,B|186:88|221:15|221:15|256:64,1,180,8|10,0:0|3:2,0:0:0:0:
329,238,5707,2,0,L|312:341,1,90,0|8,3:0|3:0,0:0:0:0:
192,384,6165,6,0,L|177:295,1,90,0|0,0:0|0:0,0:0:0:0:
101,180,6623,2,0,P|45:162|-1:126,1,90,2|8,0:0|0:0,0:0:0:0:
212,196,7081,1,0,0:0:0:0:
308,152,7310,6,0,P|364:134|410:98,1,90,0|0,0:0|0:0,0:0:0:0:
462,227,7768,1,8,0:0:0:0:
270,249,7997,1,2,0:0:0:0:
359,342,8226,1,8,0:0:0:0:
174,195,8455,1,2,0:0:0:0:
242,332,8684,2,0,L|259:139,1,180,8|8,0:0|3:2,0:0:0:0:
240,352,9371,1,2,3:2:0:0:
96,225,9600,6,0,L|101:328,1,90,8|2,3:0|0:0,0:0:0:0:
25,291,9943,1,0,0:0:0:0:
25,291,10058,2,0,P|30:342|36:384,1,90,4|2,0:0|0:0,0:0:0:0:
186,86,10516,2,0,L|181:189,1,90,8|2,0:0|0:0,0:0:0:0:
257,152,10859,1,0,0:0:0:0:
257,152,10974,2,0,P|252:203|246:245,1,90,4|2,0:0|0:0,0:0:0:0:
340,352,11432,5,8,0:0:0:0:
412,208,11661,1,2,0:0:0:0:
248,240,11890,1,4,0:0:0:0:
384,288,12119,1,2,3:2:0:0:
300,144,12348,2,0,P|296:80|304:32,1,90,8|2,0:0|0:0,0:0:0:0:
480,240,12806,2,0,P|484:304|476:352,1,90,4|2,0:0|0:0,0:0:0:0:
210,307,13264,6,0,P|168:242|208:176,1,161.999995056153,8|0,3:0|0:0,0:0:0:0:
152,242,13722,2,0,B|79:217|79:217|-10:248,1,161.999995056152,4|0,0:0|0:0,0:0:0:0:
21,147,14180,2,0,L|202:86,1,161.999995056152,8|0,0:0|0:0,0:0:0:0:
275,20,14638,2,0,P|261:101|275:186,1,161.999995056152,4|0,0:0|0:0,0:0:0:0:
322,244,15096,5,8,0:0:0:0:
417,122,15325,1,4,0:0:0:0:
417,122,15440,1,2,0:0:0:0:
417,122,15554,1,8,0:0:0:0:
221,253,15783,2,0,L|162:232,1,53.9999983520508,8|0,0:0|0:0,0:0:0:0:
254,336,16012,6,0,P|315:325|384:315,1,101.250003862381,4|0,0:0|0:0,0:0:0:0:
367,291,16470,6,0,P|256:306|163:321,1,202.500007724762,8|0,3:0|0:0,0:0:0:0:
96,354,16928,6,0,P|86:306|61:234,1,107.999996704102,4|0,3:0|0:0,0:0:0:0:
355,186,17386,2,0,P|373:134|399:73,1,107.999996704102,4|0,0:0|0:0,0:0:0:0:
180,191,17844,2,0,P|155:133|132:85,1,107.999996704102,8|0,0:0|0:0,0:0:0:0:
307,311,18302,2,0,P|312:280|316:250,1,53.9999983520508,4|2,3:2|3:2,0:0:0:0:
208,301,18531,2,0,P|204:333|200:360,1,53.9999983520508,2|2,3:2|3:2,0:0:0:0:
373,364,18760,6,0,P|441:341|490:327,1,107.999996704102,8|0,0:0|0:0,0:0:0:0:
238,215,19218,2,0,P|253:159|271:109,1,107.999996704102,4|0,0:0|0:0,0:0:0:0:
48,132,19676,1,8,0:0:0:0:
208,301,19905,1,2,0:0:0:0:
69,362,20134,1,4,0:0:0:0:
291,351,20363,2,0,P|323:346|358:343,1,53.9999983520508,2|0,0:0|0:0,0:0:0:0:
268,240,20592,6,0,P|213:225|151:202,1,107.999996704102,8|0,0:0|0:0,0:0:0:0:
19,280,21050,2,0,P|8:197|14:138,1,107.999996704102,4|0,0:0|0:0,0:0:0:0:
253,33,21508,2,0,P|256:104|256:145,1,107.999996704102,8|0,0:0|0:0,0:0:0:0:
157,310,21966,2,0,P|132:339|112:351,1,53.9999983520508,4|2,3:2|3:2,0:0:0:0:
250,240,22195,2,0,P|279:245|305:254,1,53.9999983520508,2|2,3:2|3:2,0:0:0:0:
134,205,22424,6,0,P|131:134|131:93,2,107.999996704102,8|0|4,0:0|0:0|0:0,0:0:0:0:
330,366,23111,2,0,L|347:311,1,53.9999983520508,0|0,0:0|0:0,0:0:0:0:
413,254,23340,1,8,0:0:0:0:
155,281,23569,6,0,P|96:285|29:308,1,107.999996704102,2|4,0:0|0:0,0:0:0:0:
241,360,24027,1,2,0:0:0:0:
281,117,24256,6,0,L|268:224,1,107.999996704102,8|0,3:0|0:0,0:0:0:0:
96,48,24714,2,0,L|109:163,1,107.999996704102,4|0,2:0|0:0,0:0:0:0:
437,0,25172,2,0,L|423:122,1,107.999996704102,8|0,0:0|0:0,0:0:0:0:
348,348,25630,2,0,L|282:333,1,53.9999983520508,4|2,3:2|3:2,0:0:0:0:
168,276,25859,2,0,L|228:262,1,53.9999983520508,2|2,3:2|3:2,0:0:0:0:
386,209,26088,6,0,P|429:246|460:292,1,107.999996704102,8|0,0:0|0:0,0:0:0:0:
108,124,26546,2,0,P|65:161|34:207,1,107.999996704102,4|0,0:0|0:0,0:0:0:0:
247,134,27004,1,8,0:0:0:0:
280,310,27233,1,2,0:0:0:0:
247,134,27462,2,0,L|231:27,1,107.999996704102,4|2,0:0|0:0,0:0:0:0:
416,79,27920,5,8,0:0:0:0:
477,200,28149,1,0,0:0:0:0:
316,178,28378,5,4,0:0:0:0:
377,299,28607,1,0,0:0:0:0:
222,250,28836,5,8,0:0:0:0:
283,371,29065,1,0,0:0:0:0:
167,167,29294,6,0,P|144:181|123:199,1,53.9999983520508,4|2,3:2|3:2,0:0:0:0:
0,311,29523,2,0,P|20:328|43:343,1,53.9999983520508,2|2,3:2|3:2,0:0:0:0:
53,243,29752,6,0,P|36:158|8:20,1,215.999993408203,8|4,3:0|0:0,0:0:0:0:
265,160,30440,2,0,L|251:226,1,53.9999983520508,10|0,3:2|0:0,0:0:0:0:
238,321,30669,1,8,3:2:0:0:
373,220,30898,1,2,3:2:0:0:
161,130,31127,1,6,3:2:0:0:
159,89,31585,6,0,P|222:68|335:31,1,180,8|8,3:0|0:0,0:0:0:0:
462,144,32272,2,0,P|475:86|492:41,1,90,2|8,3:0|0:0,0:0:0:0:
324,154,32730,1,2,0:0:0:0:
428,256,32959,6,0,P|475:236|528:222,1,90,8|2,0:0|3:0,0:0:0:0:
330,350,33417,1,8,0:0:0:0:
213,169,33646,1,0,0:0:0:0:
206,362,33875,1,8,0:0:0:0:
306,268,34104,1,2,3:0:0:0:
128,265,34333,6,0,P|73:247|32:226,1,90,8|2,0:0|3:0,0:0:0:0:
316,170,34791,2,0,P|356:151|399:137,1,90,8|2,0:0|3:0,0:0:0:0:
176,0,35249,2,0,L|162:114,1,90,8|2,0:0|0:0,0:0:0:0:
224,248,35707,1,8,0:0:0:0:
264,100,35936,6,0,L|278:-14,1,90,2|8,3:0|0:0,0:0:0:0:
52,136,36394,1,2,0:0:0:0:
136,264,36623,2,0,L|146:353,1,90,8|2,0:0|3:0,0:0:0:0:
288,356,37081,6,0,P|312:284|392:276,1,135,8|0,0:0|0:0,0:0:0:0:
363,267,37539,2,0,L|353:178,1,90,8|2,0:0|3:0,0:0:0:0:
340,52,37997,2,0,P|248:44|136:16,1,180,8|8,0:0|0:0,0:0:0:0:
72,180,38684,1,2,3:0:0:0:
72,180,38798,1,0,0:0:0:0:
72,180,38913,5,8,3:0:0:0:
256,248,39142,2,0,P|304:232|356:220,1,90,2|8,0:0|0:0,0:0:0:0:
480,108,39600,1,2,3:0:0:0:
312,16,39829,2,0,L|308:128,2,90,8|2|8,0:0|0:0|0:0,0:0:0:0:
188,172,40516,1,2,3:0:0:0:
92,44,40745,6,0,P|164:32|212:4,1,90,8|2,0:0|0:0,0:0:0:0:
72,180,41203,2,0,L|80:280,1,90,8|2,0:0|3:0,0:0:0:0:
79,269,41546,1,0,0:0:0:0:
79,269,41661,2,0,P|136:264|276:232,1,180,8|8,0:0|0:0,0:0:0:0:
236,340,42348,1,2,3:0:0:0:
368,224,42577,5,8,3:2:0:0:
180,132,42806,1,2,3:0:0:0:
255,238,43035,1,4,3:0:0:0:
296,80,43264,1,2,0:0:0:0:
296,80,43378,1,0,0:0:0:0:
296,80,43493,1,8,3:2:0:0:
344,304,43722,1,2,3:0:0:0:
428,176,43951,1,4,3:0:0:0:
488,320,44180,2,0,L|496:388,1,45,2|0,0:0|0:0,0:0:0:0:
410,348,44409,6,0,P|340:381|274:340,1,161.999995056153,4|0,3:0|0:0,0:0:0:0:
204,296,44867,2,0,P|120:320|36:352,1,161.999995056153,8|0,0:0|0:0,0:0:0:0:
0,280,45325,1,4,3:0:0:0:
268,150,45554,6,0,L|360:170,2,90,0|0|0,0:0|0:0|0:0,0:0:0:0:
268,150,46241,6,0,P|264:80|273:31,2,90,4|2|8,0:3|0:0|0:0,0:0:0:0:
152,272,46928,1,2,0:3:0:0:
332,312,47157,2,0,L|516:280,1,180,4|2,0:2|0:3,0:0:0:0:
152,272,47844,6,0,P|160:332|163:374,1,90,2|0,0:0|0:0,0:0:0:0:
20,152,48302,2,0,P|7:209|0:269,1,90,8|0,0:0|0:0,0:0:0:0:
208,24,48760,1,2,0:0:0:0:
271,139,48989,6,0,P|195:159|71:199,1,180,4|2,0:2|0:3,0:0:0:0:
322,294,49676,1,2,0:2:0:0:
322,294,49791,1,0,0:0:0:0:
322,294,49905,1,8,0:3:0:0:
363,193,50134,5,2,0:0:0:0:
244,257,50363,1,4,0:2:0:0:
437,261,50592,1,2,0:3:0:0:
271,139,50821,1,8,0:0:0:0:
275,344,51050,1,2,0:0:0:0:
275,344,51165,1,0,0:0:0:0:
275,344,51279,1,2,0:3:0:0:
112,272,51508,6,0,P|108:216|112:72,1,180,8|2,0:0|0:3,0:0:0:0:
249,239,52195,1,4,0:2:0:0:
273,90,52424,2,0,P|314:72|357:60,1,90,2|2,0:3|0:3,0:0:0:0:
144,16,52882,5,8,0:0:0:0:
184,184,53111,1,4,0:2:0:0:
357,60,53340,1,2,0:3:0:0:
279,261,53569,6,0,P|262:201|263:150,1,90,4|2,0:3|0:0,0:0:0:0:
323,110,53913,1,0,0:0:0:0:
323,110,54027,2,0,P|340:170|339:221,1,90,8|2,0:0|0:3,0:0:0:0:
96,349,54485,2,0,P|33:337|-11:317,1,90,4|2,0:2|0:3,0:0:0:0:
0,246,54829,1,0,0:0:0:0:
0,246,54943,2,0,P|63:258|107:278,1,90,2|2,0:3|0:0,0:0:0:0:
190,40,55401,6,0,P|207:100|206:151,1,90,0|8,0:0|0:0,0:0:0:0:
144,178,55745,1,0,0:0:0:0:
144,178,55859,2,0,P|127:118|128:67,1,90,0|2,0:0|0:3,0:0:0:0:
378,24,56317,2,0,P|441:36|485:56,1,90,4|2,0:2|0:3,0:0:0:0:
484,127,56661,1,0,0:0:0:0:
484,127,56775,2,0,P|421:115|377:95,1,90,2|2,0:3|0:2,0:0:0:0:
328,140,57119,1,0,0:0:0:0:
328,140,57233,6,0,L|336:256,1,90,8|2,0:3|0:0,0:0:0:0:
444,340,57691,2,0,L|437:250,1,90,4|2,0:2|0:3,0:0:0:0:
295,335,58149,1,8,0:0:0:0:
262,345,58263,1,0,0:0:0:0:
229,350,58378,1,2,0:0:0:0:
195,350,58492,1,0,0:0:0:0:
162,345,58607,2,0,P|158:266|158:226,1,107.999996704102,2|4,0:3|0:2,0:0:0:0:
158,237,59294,5,0,0:0:0:0:
228,24,59523,1,0,0:0:0:0:
408,180,59752,1,0,0:0:0:0:
228,24,59981,2,0,B|191:103|222:148|222:148|246:123,1,161.999995056153,8|0,2:0|0:0,0:0:0:0:
225,14,60440,6,0,P|132:44|64:62,1,135.000005149842,4|0,0:0|3:0,0:0:0:0:
84,37,60783,1,2,3:2:0:0:
74,23,60898,6,0,L|61:136,1,107.999996704102,12|2,0:3|0:1,0:0:0:0:
228,324,61356,1,4,0:0:0:0:
274,128,61585,1,2,0:3:0:0:
103,243,61814,2,0,P|19:254|-3:259,1,107.999996704102,8|2,0:0|3:0,0:0:0:0:
344,189,62272,1,4,3:2:0:0:
174,16,62501,6,0,L|162:84,1,53.9999983520508,2|2,3:1|3:1,0:0:0:0:
184,160,62730,1,8,0:3:0:0:
279,48,62959,2,0,P|347:29|389:11,1,107.999996704102,2|4,0:1|0:0,0:0:0:0:
484,256,63417,2,0,P|433:236|381:222,1,107.999996704102,2|8,0:3|0:0,0:0:0:0:
264,316,63875,6,0,L|258:369,1,53.9999983520508,6|0,3:2|0:0,0:0:0:0:
252,160,64104,1,6,3:2:0:0:
152,276,64333,2,0,P|123:287|78:296,1,53.9999983520508,2|2,3:1|3:1,0:0:0:0:
102,190,64562,6,0,P|29:170|-12:151,1,107.999996704102,8|0,3:0|0:0,0:0:0:0:
336,224,65020,2,0,P|385:266|408:309,1,107.999996704102,4|2,0:0|0:3,0:0:0:0:
405,303,65363,1,0,0:0:0:0:
405,303,65478,5,2,0:1:0:0:
196,200,65707,1,8,0:0:0:0:
340,72,65936,2,0,P|412:80|488:4,1,161.999995056153,4|0,0:0|0:0,0:0:0:0:
479,27,66394,6,0,L|464:164,1,107.999996704102,8|0,0:3|0:0,0:0:0:0:
456,220,66737,1,2,0:1:0:0:
456,220,66852,2,0,L|440:356,1,107.999996704102,4|2,0:2|0:3,0:0:0:0:
264,84,67310,1,8,0:0:0:0:
246,294,67539,2,0,L|240:348,1,53.9999983520508,2|0,3:0|3:0,0:0:0:0:
120,200,67768,2,0,P|68:168|28:124,1,107.999996704102,6|0,3:2|0:0,0:0:0:0:
364,136,68226,6,0,P|432:120|472:80,1,107.999996704102,12|2,3:0|0:1,0:0:0:0:
380,40,68569,1,0,0:0:0:0:
380,40,68684,2,0,L|252:24,1,107.999996704102,4|2,0:0|0:3,0:0:0:0:
152,328,69142,1,8,0:0:0:0:
376,256,69371,1,2,0:3:0:0:
232,104,69600,2,0,P|212:176|204:216,1,107.999996704102,4|2,0:0|3:1,0:0:0:0:
444,200,70058,6,0,P|464:272|472:312,1,107.999996704102,8|2,0:3|0:3,0:0:0:0:
272,272,70516,2,0,P|264:344|264:388,1,107.999996704102,4|2,0:0|0:3,0:0:0:0:
276,104,70974,1,8,0:0:0:0:
64,231,71203,6,0,P|54:256|47:283,1,53.9999983520508,6|0,3:2|0:0,0:0:0:0:
104,384,71432,1,6,3:2:0:0:
84,136,71661,6,0,P|72:83|57:31,2,107.999996704102,2|8|2,3:1|0:3|0:1,0:0:0:0:
37,336,72348,1,4,3:2:0:0:
336,104,72577,6,0,P|347:51|362:0,2,107.999996704102,2|8|2,0:3|0:0|0:3,0:0:0:0:
383,304,73264,1,6,3:2:0:0:
217,98,73493,1,2,3:0:0:0:
217,98,73607,1,0,0:0:0:0:
217,98,73722,5,8,3:0:0:0:
348,139,73951,1,8,3:2:0:0:
127,181,74180,1,8,3:2:0:0:
397,245,74409,1,8,3:2:0:0:
132,316,74638,2,0,P|230:333|325:360,1,161.999995056153,10|0,3:2|0:0,0:0:0:0:
340,294,75096,6,0,P|260:329|143:369,1,202.500007724762,6|0,3:2|0:0,0:0:0:0:
73,357,75554,6,0,P|64:296|60:252,1,90,4|0,3:0|0:0,0:0:0:0:
304,200,76012,2,0,P|313:139|317:95,1,90,4|0,0:0|0:0,0:0:0:0:
196,8,76470,2,0,P|187:69|183:113,1,90,8|0,0:0|0:0,0:0:0:0:
252,336,76928,1,4,3:2:0:0:
285,328,77042,1,2,3:2:0:0:
318,322,77157,1,2,3:2:0:0:
351,316,77271,1,2,3:2:0:0:
384,311,77386,6,0,P|440:316|484:324,1,90,8|0,0:0|0:0,0:0:0:0:
214,210,77844,2,0,P|270:205|314:197,1,90,4|0,0:0|0:0,0:0:0:0:
76,264,78302,1,8,0:0:0:0:
248,132,78531,1,2,0:0:0:0:
88,92,78760,1,4,0:0:0:0:
208,280,78989,1,2,0:0:0:0:
384,108,79218,6,0,P|380:52|368:8,1,90,8|0,0:0|0:0,0:0:0:0:
119,123,79676,2,0,P|72:154|40:187,1,90,4|0,0:0|0:0,0:0:0:0:
264,344,80134,2,0,P|315:369|359:380,1,90,8|0,0:0|0:0,0:0:0:0:
460,176,80592,2,0,L|404:184,1,45,4|2,3:2|3:2,0:0:0:0:
348,264,80821,2,0,L|292:252,1,45,2|2,3:2|3:2,0:0:0:0:
232,156,81050,6,0,L|220:48,2,90,8|0|4,0:0|0:0|0:0,0:0:0:0:
32,104,81737,1,0,0:0:0:0:
32,104,81852,1,0,0:0:0:0:
32,104,81966,1,8,0:0:0:0:
216,228,82195,1,2,0:0:0:0:
44,332,82424,2,0,L|52:232,1,90,4|2,0:0|0:0,0:0:0:0:
208,320,82882,6,0,P|272:340|308:344,1,90,8|0,3:0|0:0,0:0:0:0:
488,136,83340,2,0,P|443:143|401:159,1,90,4|0,0:0|0:0,0:0:0:0:
232,48,83798,2,0,L|244:152,1,90,8|0,0:0|0:0,0:0:0:0:
436,336,84256,2,0,L|488:348,1,45,4|2,3:2|3:2,0:0:0:0:
352,248,84485,2,0,L|308:252,1,45,2|2,3:2|3:2,0:0:0:0:
476,224,84714,6,0,P|485:180|488:136,1,90,8|0,0:0|0:0,0:0:0:0:
320,29,85172,2,0,P|244:45|208:53,1,90,4|0,0:0|0:0,0:0:0:0:
116,176,85630,1,8,0:0:0:0:
156,16,85859,1,2,0:0:0:0:
16,212,86088,1,4,0:0:0:0:
208,128,86317,1,2,0:0:0:0:
124,300,86546,6,0,P|96:348|84:384,1,90,8|0,0:0|0:0,0:0:0:0:
332,216,87004,2,0,P|360:264|372:300,1,90,4|0,0:0|0:0,0:0:0:0:
120,136,87462,2,0,P|64:116|32:88,1,90,8|0,0:0|0:0,0:0:0:0:
316,24,87920,1,4,3:2:0:0:
351,29,88034,1,2,3:2:0:0:
387,34,88149,1,2,3:2:0:0:
422,39,88263,1,2,3:2:0:0:
458,44,88378,6,0,L|436:256,1,180,8|2,3:0|0:0,0:0:0:0:
232,184,89065,2,0,L|240:248,1,45,2|0,3:2|0:0,0:0:0:0:
259,345,89294,1,0,3:0:0:0:
124,244,89523,1,2,0:0:0:0:
336,154,89752,1,2,3:2:0:0:
376,148,96623,6,0,P|436:196|344:220,1,188.999994232178,10|0,0:0|0:0,0:0:0:0:
280,184,97539,6,0,L|288:292,1,90,8|2,3:0|0:0,0:0:0:0:
124,108,97997,2,0,L|132:216,1,90,4|2,0:0|0:3,0:0:0:0:
108,344,98455,1,8,0:0:0:0:
204,244,98684,1,2,0:0:0:0:
204,244,98798,1,0,0:0:0:0:
204,244,98913,1,4,0:0:0:0:
28,208,99142,1,2,0:3:0:0:
200,104,99371,6,0,P|264:84|308:72,1,90,8|0,0:0|0:0,0:0:0:0:
456,52,99829,2,0,P|484:116|484:152,1,90,4|2,0:0|0:3,0:0:0:0:
332,312,100287,2,0,P|300:232|344:148,1,180,8|4,0:0|0:0,0:0:0:0:
408,236,100974,1,2,0:3:0:0:
408,236,101203,6,0,L|396:304,1,45,4|0,3:0|0:0,0:0:0:0:
236,352,101432,2,0,P|228:296|224:236,1,90,4|0,3:0|0:0,0:0:0:0:
180,108,101890,1,2,3:2:0:0:
180,108,102119,6,0,L|124:96,1,45,4|0,3:0|0:0,0:0:0:0:
304,44,102348,2,0,P|348:36|408:28,1,90,4|0,3:0|0:0,0:0:0:0:
472,152,102806,1,2,3:2:0:0:
472,152,102920,1,0,3:0:0:0:
472,152,103035,6,0,L|472:212,1,45,4|0,3:0|0:0,0:0:0:0:
440,308,103264,1,8,3:2:0:0:
312,200,103493,1,4,3:2:0:0:
408,96,103722,1,8,3:2:0:0:
332,312,103951,1,4,3:0:0:0:
168,184,104180,2,0,P|152:128|136:64,2,90,0|0|8,0:0|0:0|0:0,0:0:0:0:
312,200,104867,6,0,P|360:152|296:56,1,180,4|8,0:3|0:0,0:0:0:0:
188,264,105554,1,2,0:0:0:0:
316,344,105783,2,0,P|388:328|428:320,1,90,4|2,0:2|0:3,0:0:0:0:
456,168,106241,1,2,0:3:0:0:
275,244,106470,6,0,P|230:253|187:263,1,90,2|0,0:0|0:0,0:0:0:0:
56,148,106928,1,8,0:0:0:0:
200,60,107157,1,2,0:3:0:0:
304,168,107386,1,2,0:0:0:0:
152,300,107615,2,0,P|160:236|164:192,1,90,4|2,0:2|0:3,0:0:0:0:
304,168,108073,2,0,P|296:232|292:276,1,90,2|2,0:3|0:2,0:0:0:0:
332,332,108417,1,0,0:0:0:0:
332,332,108531,6,0,P|396:308|444:308,1,90,8|2,0:3|0:0,0:0:0:0:
488,152,108989,2,0,P|492:84|492:52,1,90,4|2,0:2|0:3,0:0:0:0:
396,204,109447,1,8,0:0:0:0:
356,24,109676,1,2,0:0:0:0:
356,24,109791,1,0,0:0:0:0:
356,24,109905,1,2,0:3:0:0:
263,158,110134,6,0,P|314:226|395:204,1,180,8|2,0:0|0:3,0:0:0:0:
176,80,110821,2,0,P|160:144|156:192,1,90,4|2,0:2|0:3,0:0:0:0:
260,320,111279,1,2,0:3:0:0:
340,152,111508,2,0,P|356:88|360:40,2,90,8|4|2,0:0|0:2|0:3,0:0:0:0:
260,320,112195,5,4,0:3:0:0:
156,168,112424,2,0,P|224:152|268:148,1,90,2|8,0:3|0:0,0:0:0:0:
368,224,112882,1,2,0:0:0:0:
104,244,113111,2,0,P|72:204|120:84,1,180,4|2,0:2|0:3,0:0:0:0:
384,44,113798,6,0,P|444:60|484:68,1,90,2|0,0:0|0:0,0:0:0:0:
320,160,114256,2,0,P|380:176|420:184,1,90,8|0,0:0|0:0,0:0:0:0:
232,280,114714,1,2,0:0:0:0:
232,280,114943,2,0,P|232:200|224:92,1,180,4|2,0:2|0:3,0:0:0:0:
56,256,115630,1,2,0:2:0:0:
56,256,115745,1,0,0:0:0:0:
56,256,115859,6,0,P|40:320|36:352,1,90,8|2,0:3|0:0,0:0:0:0:
168,380,116317,1,4,0:2:0:0:
304,288,116546,1,2,0:3:0:0:
152,160,116775,1,8,0:0:0:0:
119,169,116889,1,0,0:0:0:0:
86,176,117004,1,2,0:0:0:0:
53,180,117118,1,0,0:0:0:0:
19,181,117233,6,0,P|28:112|40:72,1,90,2|6,0:3|3:2,0:0:0:0:
260,356,117920,5,0,0:0:0:0:
116,240,118149,1,0,0:0:0:0:
372,160,118378,1,0,0:0:0:0:
240,364,118607,2,0,P|244:288|252:196,1,135,8|0,2:0|0:0,0:0:0:0:
244,152,119065,6,0,P|200:212|144:196,1,135.000005149842,6|2,3:2|3:2,0:0:0:0:
140,180,119409,1,0,0:0:0:0:
128,152,119523,6,0,P|108:240|108:280,1,107.999996704102,12|2,3:0|0:1,0:0:0:0:
264,336,119981,1,4,0:0:0:0:
408,232,120210,1,2,0:3:0:0:
235,144,120440,2,0,P|167:152|99:148,1,107.999996704102,8|2,0:0|3:0,0:0:0:0:
88,4,120898,1,4,3:2:0:0:
368,80,121127,1,2,0:1:0:0:
364,112,121241,1,2,0:1:0:0:
360,144,121356,5,8,3:0:0:0:
180,276,121585,2,0,P|120:264|64:260,1,107.999996704102,2|4,0:1|0:0,0:0:0:0:
256,360,122043,1,2,0:3:0:0:
392,228,122272,1,8,3:2:0:0:
252,128,122501,6,0,L|200:139,1,53.9999983520508,6|0,3:2|0:0,0:0:0:0:
380,104,122730,1,6,3:2:0:0:
248,236,122959,1,2,3:1:0:0:
248,236,123073,1,2,3:1:0:0:
248,236,123188,6,0,P|240:332|240:364,1,107.999996704102,8|0,0:3|0:0,0:0:0:0:
456,248,123646,2,0,P|496:200|436:116,1,161.999995056153,4|0,0:0|0:0,0:0:0:0:
380,104,124104,1,2,0:1:0:0:
428,328,124333,1,8,0:0:0:0:
272,200,124562,1,4,0:0:0:0:
380,16,124791,1,8,0:0:0:0:
156,148,125020,5,8,3:0:0:0:
376,192,125249,1,0,0:0:0:0:
376,192,125363,1,2,0:1:0:0:
376,192,125478,1,4,0:0:0:0:
228,304,125707,1,2,0:3:0:0:
284,108,125936,2,0,P|288:40|288:-4,1,107.999996704102,8|2,0:0|3:0,0:0:0:0:
208,20,126279,1,0,0:0:0:0:
208,20,126394,2,0,P|140:32|84:48,1,107.999996704102,6|0,3:2|0:0,0:0:0:0:
228,304,126852,6,0,P|296:292|352:276,1,107.999996704102,4|2,3:0|0:1,0:0:0:0:
392,216,127195,1,0,0:0:0:0:
392,216,127310,2,0,P|412:284|400:336,1,107.999996704102,4|2,0:0|0:3,0:0:0:0:
248,200,127768,1,8,0:0:0:0:
428,96,127997,1,2,0:3:0:0:
260,16,128226,2,0,P|192:32|120:48,1,107.999996704102,4|2,0:0|3:1,0:0:0:0:
20,168,128684,5,8,0:3:0:0:
72,12,128913,1,2,0:3:0:0:
140,272,129142,1,4,0:0:0:0:
272,156,129371,2,0,L|200:144|152:136,1,107.999996704102,2|8,0:3|3:2,0:0:0:0:
264,356,129829,2,0,L|328:340,1,53.9999983520508,6|0,3:2|0:0,0:0:0:0:
420,280,130058,1,6,3:2:0:0:
272,156,130287,6,0,P|264:92|264:48,2,107.999996704102,2|8|2,3:1|0:3|0:1,0:0:0:0:
392,368,130974,1,4,3:2:0:0:
165,138,131203,6,0,P|173:74|173:30,2,107.999996704102,2|8|2,0:3|0:0|0:3,0:0:0:0:
60,344,131890,1,4,3:2:0:0:
48,104,132119,1,2,3:2:0:0:
256,224,132348,6,0,P|320:204|368:188,1,107.999996704102,8|8,3:0|3:2,0:0:0:0:
176,104,132806,1,8,3:2:0:0:
196,320,133035,1,8,3:2:0:0:
432,248,133264,2,0,P|464:196|412:112,1,161.999995056153,8|0,3:2|0:0,0:0:0:0:
364,68,133722,5,6,3:2:0:0:
168,144,133951,2,0,L|156:192,1,33.7500012874604,0|0,3:0|3:0,0:0:0:0:
172,124,134409,5,2,3:2:0:0:
79,190,134638,1,2,0:2:0:0:
76,308,134867,1,2,3:2:0:0:
161,381,135096,1,0,0:0:0:0:
276,359,135325,1,0,3:0:0:0:
328,259,135554,1,2,3:0:0:0:
283,152,135783,1,0,0:0:0:0:
172,124,136012,6,0,P|88:140|12:152,1,135.000005149842,6|0,0:2|0:0,0:0:0:0:
176,0,136699,1,2,0:0:0:0:
268,68,136928,2,0,B|304:160|228:172|268:276,1,202.500007724762,8|2,0:0|0:2,0:0:0:0:
344,348,137844,5,2,3:0:0:0:
344,348,138302,2,0,L|364:264,1,67.5000025749208,2|2,0:0|3:2,0:0:0:0:
368,256,138646,1,0,3:0:0:0:
372,232,138760,1,8,0:0:0:0:
272,72,138989,1,2,0:0:0:0:
248,60,139104,1,2,0:2:0:0:
224,48,139218,1,2,3:0:0:0:
68,156,139447,1,2,0:0:0:0:
76,180,139562,1,2,0:2:0:0:
84,204,139676,6,0,L|48:360,1,135.000005149842,2|0,3:0|0:0,0:0:0:0:
240,120,140363,2,0,P|296:120|320:208,1,135.000005149842,2|0,0:0|3:0,0:0:0:0:
268,352,141050,2,0,P|320:336|352:320,1,67.5000025749208,2|0,0:0|0:0,0:0:0:0:
460,232,141508,6,0,L|480:168,1,67.5000025749208,2|2,3:0|0:0,0:0:0:0:
352,32,141966,2,0,P|308:48|280:52,1,67.5000025749208,2|0,0:2|3:0,0:0:0:0:
156,140,142424,2,0,P|196:152|232:172,1,67.5000025749208,8|0,0:0|0:0,0:0:0:0:
340,276,142882,2,0,L|360:328,1,33.7500012874604,2|2,0:0|0:2,0:0:0:0:
248,336,143111,2,0,L|240:372,1,33.7500012874604,2|2,0:2|0:2,0:0:0:0:
112,344,143340,6,0,P|84:308|120:216,1,135.000005149842,2|0,3:0|0:0,0:0:0:0:
232,104,144027,1,2,0:0:0:0:
232,104,144256,2,0,P|244:148|244:200,1,67.5000025749208,8|0,0:0|0:0,0:0:0:0:
98,101,144714,2,0,P|102:68|112:36,1,67.5000025749208,0|2,0:0|0:2,0:0:0:0:
300,52,145172,6,0,P|332:84|424:60,1,135.000005149842,2|0,3:0|0:0,0:0:0:0:
488,156,145859,1,2,0:2:0:0:
488,156,145974,1,0,0:0:0:0:
488,156,146088,1,8,0:0:0:0:
352,264,146317,2,0,L|368:312,1,33.7500012874604,2|2,0:0|0:2,0:0:0:0:
412,360,146546,1,2,3:0:0:0:
248,180,146775,2,0,L|200:192,1,33.7500012874604,2|2,0:0|0:2,0:0:0:0:
184,280,147004,6,0,P|128:288|144:360,1,135.000005149842,2|0,3:0|0:0,0:0:0:0:
12,264,147691,1,2,0:0:0:0:
12,264,147920,2,0,L|28:176,1,67.5000025749208,8|0,0:0|0:0,0:0:0:0:
140,136,148378,2,0,L|124:48,1,67.5000025749208,0|0,0:0|0:0,0:0:0:0:
290,56,148836,6,0,P|294:104|298:196,1,135.000005149842,2|2,0:2|0:0,0:0:0:0:
296,352,149523,1,2,3:0:0:0:
124,296,149752,2,0,L|76:288,3,33.7500012874604,8|0|2|0,0:0|0:0|0:2|0:0,0:0:0:0:
92,204,150210,2,0,L|125:198,3,33.7500012874604,2|0|2|0,0:0|0:0|0:2|0:0,0:0:0:0:
212,216,150669,6,0,P|296:192|324:176,1,90,6|2,0:2|3:2,0:0:0:0:
324,112,151012,1,0,0:0:0:0:
324,112,151127,2,0,P|244:96|200:92,1,90,2|2,3:1|3:2,0:0:0:0:
168,52,151470,1,0,0:0:0:0:
168,52,151585,6,0,P|88:68|44:72,1,90,10|2,3:1|3:2,0:0:0:0:
20,128,151928,1,0,0:0:0:0:
20,128,152043,2,0,P|16:184|16:232,1,90,2|2,3:1|3:2,0:0:0:0:
48,288,152386,1,0,0:0:0:0:
48,288,152501,6,0,P|128:272|172:268,1,90,2|0,3:1|3:0,0:0:0:0:
212,320,152844,1,0,0:0:0:0:
212,320,152959,2,0,P|292:304|336:300,1,90,8|0,3:1|3:0,0:0:0:0:
376,328,153302,1,0,3:0:0:0:
376,328,153417,5,2,3:2:0:0:
512,224,153646,1,2,3:0:0:0:
396,48,153875,2,0,P|380:80|376:104,1,45,8|2,3:1|3:0,0:0:0:0:
312,184,154104,2,0,P|305:162|293:143,1,45,0|0,0:0|0:0,0:0:0:0:
256,28,154333,6,0,P|212:64|112:16,1,180,6|0,3:2|0:0,0:0:0:0:
168,188,155020,1,2,3:0:0:0:
168,188,155134,1,0,0:0:0:0:
168,188,155249,2,0,P|184:284|184:308,1,90,10|0,3:1|0:0,0:0:0:0:
336,348,155707,5,8,3:1:0:0:
379,334,155821,1,2,3:2:0:0:
422,322,155936,1,2,3:2:0:0:
465,310,156050,1,2,3:2:0:0:
509,298,156165,2,0,L|520:192,1,90,2|2,3:0|3:1,0:0:0:0:
392,136,156623,6,0,L|401:46,1,90,8|2,3:1|3:1,0:0:0:0:
200,117,157081,1,2,3:0:0:0:
264,240,157310,2,0,L|256:296,1,45,2|0,3:1|0:0,0:0:0:0:
160,328,157539,2,0,L|184:384,1,45,8|0,3:1|3:0,0:0:0:0:
308,356,157768,2,0,L|360:332,1,45,2|0,3:1|0:0,0:0:0:0:
332,208,157997,6,0,P|228:176|200:104,1,180,6|2,3:2|3:1,0:0:0:0:
328,56,158684,1,2,3:0:0:0:
448,172,158913,2,0,P|440:244|428:360,1,180,8|2,3:1|3:1,0:0:0:0:
276,384,159600,1,2,3:2:0:0:
132,328,159829,1,2,3:0:0:0:
244,228,160058,6,0,P|308:212|352:204,2,90,2|8|2,3:1|3:1|3:0,0:0:0:0:
80,160,160745,1,10,3:1:0:0:
256,92,160974,2,0,P|248:64|244:36,1,45,2|2,3:0|3:2,0:0:0:0:
361,69,161203,2,0,L|364:24,1,45,2|2,3:2|3:2,0:0:0:0:
448,136,161432,2,0,P|456:104|460:80,1,45,2|2,3:2|3:2,0:0:0:0:
508,208,161661,6,0,L|468:228,3,45,6|0|2|0,3:2|0:0|3:2|0:0,0:0:0:0:
376,260,162119,2,0,P|380:324|380:372,1,90,8|2,3:1|3:0,0:0:0:0:
136,200,162577,1,2,3:1:0:0:
292,300,162806,1,2,3:0:0:0:
160,360,163035,1,10,3:1:0:0:
308,184,163264,1,2,3:0:0:0:
168,276,163493,5,2,3:1:0:0:
216,92,163722,1,2,3:2:0:0:
216,92,163836,1,0,3:0:0:0:
216,92,163951,1,10,3:1:0:0:
56,268,164180,1,2,3:0:0:0:
132,40,164409,1,10,3:1:0:0:
200,204,164638,1,0,0:0:0:0:
310,44,164867,1,2,3:2:0:0:
333,41,164981,1,2,3:0:0:0:
355,38,165096,1,8,3:1:0:0:
377,35,165210,1,0,3:0:0:0:
400,32,165325,6,0,P|384:80|368:132,1,90,12|0,0:0|0:0,0:0:0:0:
248,272,165783,2,0,L|264:372,1,90,4|0,0:2|0:0,0:0:0:0:
192,48,166241,2,0,P|176:96|160:148,1,90,8|0,0:2|0:0,0:0:0:0:
0,228,166699,2,0,L|16:328,1,90,4|0,0:2|0:0,0:0:0:0:
84,360,167043,1,0,0:0:0:0:
84,360,167157,6,0,P|136:320|180:296,1,90,8|0,0:0|0:0,0:0:0:0:
384,228,167615,1,4,0:2:0:0:
268,140,167844,1,0,0:0:0:0:
384,228,168073,2,0,P|368:288|356:328,1,90,8|0,0:2|0:0,0:0:0:0:
488,88,168531,2,0,P|504:28|516:-12,1,90,4|2,0:2|0:2,0:0:0:0:
240,40,168989,5,8,0:0:0:0:
240,40,169218,2,0,P|164:52|136:60,1,90,0|4,0:0|0:2,0:0:0:0:
12,152,169676,1,0,0:0:0:0:
152,296,169905,2,0,P|168:236|184:188,1,90,8|0,0:2|0:0,0:0:0:0:
332,124,170363,2,0,P|345:166|356:210,1,90,4|2,0:2|0:2,0:0:0:0:
248,356,170821,6,0,P|176:336|52:336,1,180,8|4,0:0|0:2,0:0:0:0:
208,200,171508,1,8,0:2:0:0:
208,200,171737,2,0,P|268:188|316:168,1,90,6|0,0:2|0:0,0:0:0:0:
56,186,172195,1,8,0:2:0:0:
61,222,172310,1,0,0:0:0:0:
65,259,172424,1,2,0:2:0:0:
68,296,172539,1,0,0:0:0:0:
71,333,172653,5,12,0:0:0:0:
224,230,172882,1,2,0:2:0:0:
40,110,173111,1,4,0:2:0:0:
328,170,173340,1,2,0:2:0:0:
152,302,173569,1,8,0:2:0:0:
192,62,173798,1,2,0:2:0:0:
288,330,174027,1,4,0:2:0:0:
196,214,174256,1,2,0:2:0:0:
340,250,174485,5,8,0:2:0:0:
268,118,174714,1,2,0:2:0:0:
200,354,174943,1,4,0:2:0:0:
456,278,175172,1,2,0:2:0:0:
244,214,175401,1,8,0:2:0:0:
512,170,175630,1,2,0:2:0:0:
360,344,175859,1,4,0:2:0:0:
408,40,176088,1,2,0:2:0:0:
456,278,176317,6,0,L|468:334,1,45,4|0,0:0|0:0,0:0:0:0:
344,200,176546,2,0,L|332:264,1,45,0|0,0:0|0:0,0:0:0:0:
268,336,176775,2,0,L|280:392,1,45,0|0,0:0|0:0,0:0:0:0:
156,258,177004,2,0,L|144:322,1,45,0|0,0:0|0:0,0:0:0:0:
32,236,177233,1,0,0:0:0:0:
21,200,177347,1,0,0:0:0:0:
23,163,177462,1,0,0:0:0:0:
37,129,177576,1,0,0:0:0:0:
62,101,177691,1,0,0:0:0:0:
95,84,177805,1,0,0:0:0:0:
132,78,177920,1,0,0:0:0:0:
168,85,178034,1,0,0:0:0:0:
200,104,178149,6,0,L|236:92,6,22.5,8|0|0|0|0|0|0,2:3|2:0|2:0|2:0|2:0|2:0|2:0,0:0:0:0:
312,112,178607,2,0,L|348:100,6,22.5,0|0|0|0|0|0|0,2:0|2:0|2:0|2:0|2:0|2:0|2:0,0:0:0:0:
424,124,179065,2,0,L|460:112,6,22.5,10|0|0|0|0|0|0,0:2|0:0|0:0|0:0|0:0|0:0|0:0,0:0:0:0:
512,188,179523,6,0,L|372:228,1,135.000005149842,6|2,0:2|3:2,0:0:0:0:
360,232,179867,1,2,3:2:0:0:
328,244,179981,6,0,P|324:316|324:372,1,107.999996704102,12|0,3:0|0:0,0:0:0:0:
144,208,180440,1,4,0:0:0:0:
316,120,180669,1,2,0:3:0:0:
316,120,180783,1,0,0:0:0:0:
316,120,180898,1,8,0:0:0:0:
168,16,181127,2,0,P|104:28|44:44,1,107.999996704102,2|4,3:0|0:0,0:0:0:0:
32,228,181585,2,0,L|48:296,1,53.9999983520508,2|2,3:1|3:1,0:0:0:0:
148,344,181814,6,0,P|156:264|168:200,1,107.999996704102,8|2,3:0|0:1,0:0:0:0:
360,76,182272,1,4,0:0:0:0:
360,76,182501,2,0,P|367:129|372:183,1,107.999996704102,2|8,0:3|3:2,0:0:0:0:
352,368,182959,2,0,L|424:352,1,53.9999983520508,6|0,3:2|0:0,0:0:0:0:
508,288,183188,1,6,3:2:0:0:
272,188,183417,1,2,3:1:0:0:
272,188,183531,1,2,3:1:0:0:
272,188,183646,6,0,P|180:172|136:164,1,107.999996704102,8|0,3:0|0:0,0:0:0:0:
468,24,184104,2,0,P|476:104|480:152,1,107.999996704102,4|2,0:0|0:3,0:0:0:0:
456,204,184447,1,0,0:0:0:0:
456,204,184562,1,2,0:1:0:0:
324,68,184791,1,8,0:0:0:0:
308,328,185020,1,4,0:0:0:0:
152,240,185249,1,8,0:0:0:0:
349,188,185478,6,0,P|413:196|477:208,1,107.999996704102,8|0,3:0|0:0,0:0:0:0:
504,280,185821,1,2,0:1:0:0:
504,280,185936,2,0,P|450:289|397:295,1,107.999996704102,4|2,0:0|0:3,0:0:0:0:
172,364,186394,1,8,0:0:0:0:
265,193,186623,2,0,L|256:140,1,53.9999983520508,2|0,3:0|0:0,0:0:0:0:
152,72,186852,2,0,P|100:124|12:96,1,161.999995056153,6|0,3:2|0:0,0:0:0:0:
20,105,187310,6,0,L|32:228,1,107.999996704102,12|2,3:0|0:1,0:0:0:0:
224,380,187768,1,4,0:0:0:0:
344,280,187997,1,2,0:3:0:0:
133,179,188226,2,0,P|69:199|1:223,1,107.999996704102,8|2,0:0|0:3,0:0:0:0:
340,120,188684,2,0,P|391:137|442:153,1,107.999996704102,6|2,3:2|3:1,0:0:0:0:
488,224,189027,1,2,3:1:0:0:
488,224,189142,6,0,L|476:348,1,107.999996704102,8|2,3:0|0:3,0:0:0:0:
248,180,189600,1,4,0:0:0:0:
248,180,189829,2,0,L|260:56,1,107.999996704102,2|8,0:3|3:2,0:0:0:0:
72,300,190287,2,0,L|64:368,1,53.9999983520508,6|0,3:2|0:0,0:0:0:0:
84,188,190516,1,6,3:2:0:0:
192,376,190745,1,2,3:1:0:0:
328,184,190974,6,0,L|340:60,2,107.999996704102,8|2|4,3:0|0:1|3:2,0:0:0:0:
308,352,191661,1,2,0:3:0:0:
108,120,191890,6,0,L|96:-4,2,107.999996704102,8|2|4,0:0|0:3|3:2,0:0:0:0:
128,288,192577,1,2,3:2:0:0:
236,140,192806,1,8,3:0:0:0:
28,244,193035,1,8,3:2:0:0:
216,356,193264,1,8,3:2:0:0:
132,188,193493,1,8,3:2:0:0:
384,124,193722,6,0,L|372:264,1,107.999996704102,8|0,3:2|0:0,0:0:0:0:
320,384,194180,1,4,3:2:0:0:
174,309,194409,1,8,3:2:0:0:
174,309,194523,1,0,0:0:0:0:
174,309,194638,6,0,P|242:289|378:229,1,215.999993408203,4|0,3:0|0:0,0:0:0:0:
104,40,195325,1,8,3:2:0:0:
104,40,195439,1,0,0:0:0:0:
104,40,195554,6,0,P|87:108|71:256,1,215.999993408203,4|0,3:0|0:0,0:0:0:0:
168,376,196241,1,8,3:2:0:0:
374,230,196470,2,0,P|420:176|460:148,1,107.999996704102,4|2,3:0|3:2,0:0:0:0:
191,103,196928,2,0,P|147:67|95:35,1,107.999996704102,4|2,3:0|3:2,0:0:0:0:
336,24,197386,2,0,P|316:116|296:224,1,161.999995056153,4|0,3:0|0:0,0:0:0:0:
256,244,197844,6,0,L|276:396,1,135.000005149842,8|0,0:0|0:0,0:0:0:0:
292,368,198188,1,0,0:0:0:0:
312,360,198302,6,0,P|384:320|404:308,1,90,4|0,3:0|0:0,0:0:0:0:
384,136,198760,2,0,P|345:158|305:179,1,90,4|0,0:0|0:0,0:0:0:0:
112,72,199218,2,0,P|104:132|104:192,1,90,8|0,0:0|0:0,0:0:0:0:
68,340,199676,1,4,3:2:0:0:
101,336,199790,1,2,3:2:0:0:
134,333,199905,1,2,3:2:0:0:
168,328,200019,1,2,3:2:0:0:
201,324,200134,6,0,L|304:312,1,90,8|0,0:0|0:0,0:0:0:0:
384,136,200592,2,0,L|281:148,1,90,4|0,0:0|0:0,0:0:0:0:
116,228,201050,1,8,0:0:0:0:
208,84,201279,1,2,0:0:0:0:
252,260,201508,1,4,0:0:0:0:
108,144,201737,1,2,0:0:0:0:
324,56,201966,6,0,L|413:45,1,90,8|0,0:0|0:0,0:0:0:0:
509,205,202424,2,0,L|420:216,1,90,4|0,0:0|0:0,0:0:0:0:
308,368,202882,2,0,L|397:357,1,90,8|0,0:0|0:0,0:0:0:0:
220,172,203340,2,0,L|208:228,1,45,4|2,3:2|3:2,0:0:0:0:
112,224,203569,2,0,L|100:280,1,45,2|2,3:2|3:2,0:0:0:0:
44,156,203798,6,0,P|34:107|35:58,1,90,8|0,0:0|0:0,0:0:0:0:
283,56,204256,2,0,P|329:72|372:97,1,90,4|0,0:0|0:0,0:0:0:0:
247,314,204714,2,0,P|209:346|166:370,1,90,8|2,0:0|0:0,0:0:0:0:
100,352,205058,1,0,0:0:0:0:
100,352,205172,2,0,L|-4:304,1,90,4|2,0:0|0:0,0:0:0:0:
340,216,205630,6,0,L|347:305,1,90,8|0,3:0|0:0,0:0:0:0:
112,124,206088,2,0,L|104:213,1,90,4|0,0:0|0:0,0:0:0:0:
384,24,206546,2,0,L|391:113,1,90,8|0,0:0|0:0,0:0:0:0:
408,364,207004,2,0,L|464:352,1,45,4|2,3:2|3:2,0:0:0:0:
468,256,207233,2,0,L|524:244,1,45,2|2,3:2|3:2,0:0:0:0:
344,212,207462,6,0,P|292:200|240:180,1,90,8|0,0:0|0:0,0:0:0:0:
96,112,207920,2,0,P|104:176|108:228,1,90,4|0,0:0|0:0,0:0:0:0:
240,308,208378,1,8,0:0:0:0:
312,112,208607,2,0,P|316:67|322:22,2,90,2|4|2,0:0|0:0|0:0,0:0:0:0:
340,344,209294,5,8,0:0:0:0:
412,148,209523,1,0,0:0:0:0:
160,236,209752,1,4,0:0:0:0:
368,224,209981,1,0,0:0:0:0:
228,80,210210,1,8,0:0:0:0:
256,312,210440,1,0,0:0:0:0:
48,256,210669,1,4,3:2:0:0:
46,215,210783,1,2,3:2:0:0:
44,175,210898,1,2,3:2:0:0:
43,134,211012,1,2,3:2:0:0:
41,94,211127,5,8,3:0:0:0:
288,28,211356,2,0,L|280:104,1,45,0|2,0:0|3:2,0:0:0:0:
272,216,211585,2,0,P|360:184|388:176,1,90,4|10,0:0|3:2,0:0:0:0:
240,320,212043,5,10,3:2:0:0:
195,74,212272,1,2,3:2:0:0:
429,158,212501,1,6,3:2:0:0:
