osu file format v14

[General]
AudioFilename: audio.mp3
AudioLeadIn: 0
PreviewTime: 179988
Countdown: 0
SampleSet: Soft
StackLeniency: 0.7
Mode: 3
LetterboxInBreaks: 0
SpecialStyle: 0
WidescreenStoryboard: 0

[Editor]
DistanceSpacing: 2
BeatDivisor: 12
GridSize: 4
TimelineZoom: 1

[Metadata]
Title:Gokuraku Jodo
TitleUnicode:極楽浄土
Artist:GARNiDELiA
ArtistUnicode:GARNiDELiA
Creator:Seiran-
Version:Kagura
Source:
Tags:約束 -Promise code- Japanese Pop 極樂淨土 ガルニデリア ガルニデ joudo toku maria violet cry jpop j-pop rice dump
BeatmapID:4485384
BeatmapSetID:2132346

[Difficulty]
HPDrainRate:8.8
CircleSize:4
OverallDifficulty:8.5
ApproachRate:5
SliderMultiplier:1.4
SliderTickRate:1

[Events]
//Background and Video events
0,0,"a9ffa3c929b10b7c66ce71bc8e2c8d0b.jpg",0,0
//Break Periods
//Storyboard Layer 0 (Background)
//Storyboard Layer 1 (Fail)
//Storyboard Layer 2 (Pass)
//Storyboard Layer 3 (Foreground)
//Storyboard Layer 4 (Overlay)
//Storyboard Sound Samples

[TimingPoints]
447,458.015267175573,4,2,1,45,1,0

[HitObjects]
192,192,1821,128,0,2279:0:0:0:0:
64,192,2050,128,0,2508:0:0:0:0:
448,192,2279,128,0,2737:0:0:0:0:
320,192,2279,128,0,2508:0:0:0:0:
192,192,2966,128,0,3424:0:0:0:0:
448,192,3195,128,0,3424:0:0:0:0:
192,192,3882,128,0,4340:0:0:0:0:
320,192,4111,128,0,4569:0:0:0:0:
448,192,4340,128,0,4798:0:0:0:0:
192,192,4569,128,0,4798:0:0:0:0:
320,192,4798,128,0,5027:0:0:0:0:
448,192,5027,128,0,5256:0:0:0:0:
320,192,5485,128,0,5943:0:0:0:0:
448,192,5714,128,0,6172:0:0:0:0:
64,192,5943,128,0,6172:0:0:0:0:
320,192,6630,128,0,7088:0:0:0:0:
64,192,6859,128,0,7088:0:0:0:0:
320,192,7546,128,0,8004:0:0:0:0:
192,192,7775,128,0,8233:0:0:0:0:
64,192,8004,128,0,8920:0:0:0:0:
320,192,8233,128,0,8691:0:0:0:0:
448,192,8462,128,0,8920:0:0:0:0:
192,192,8691,128,0,8920:0:0:0:0:
192,192,9149,128,0,9607:0:0:0:0:
64,192,9378,128,0,9836:0:0:0:0:
320,192,9607,128,0,10065:0:0:0:0:
448,192,9836,128,0,10065:0:0:0:0:
192,192,10294,128,0,10752:0:0:0:0:
448,192,10294,128,0,10523:0:0:0:0:
64,192,10523,128,0,10752:0:0:0:0:
448,192,10752,128,0,10981:0:0:0:0:
192,192,11210,128,0,11668:0:0:0:0:
448,192,11210,128,0,11439:0:0:0:0:
64,192,11439,128,0,11897:0:0:0:0:
320,192,11668,128,0,11897:0:0:0:0:
448,192,11668,128,0,11897:0:0:0:0:
192,192,11897,128,0,12355:0:0:0:0:
320,192,12126,128,0,12584:0:0:0:0:
448,192,12126,128,0,12355:0:0:0:0:
64,192,12355,128,0,12584:0:0:0:0:
192,192,12584,128,0,12813:0:0:0:0:
448,192,12584,128,0,12813:0:0:0:0:
320,192,12813,128,0,13042:0:0:0:0:
192,192,13042,128,0,13271:0:0:0:0:
448,192,13042,128,0,13271:0:0:0:0:
64,192,13271,128,0,13614:0:0:0:0:
320,192,13271,128,0,15217:0:0:0:0:
64,192,13729,128,0,14988:0:0:0:0:
448,192,14187,128,0,15332:0:0:0:0:
192,192,14645,128,0,14988:0:0:0:0:
192,192,15103,128,0,15217:0:0:0:0:
64,192,15103,128,0,15447:0:0:0:0:
320,192,15332,1,0,0:0:0:0:
192,192,15447,1,0,0:0:0:0:
320,192,15504,1,0,0:0:0:0:
448,192,15561,128,0,15676:0:0:0:0:
64,192,15561,128,0,16363:0:0:0:0:
320,192,15790,128,0,15905:0:0:0:0:
448,192,15790,128,0,15905:0:0:0:0:
192,192,16019,128,0,16363:0:0:0:0:
320,192,16019,128,0,16363:0:0:0:0:
448,192,16019,128,0,16363:0:0:0:0:
64,192,16477,128,0,16821:0:0:0:0:
192,192,16477,128,0,16821:0:0:0:0:
320,192,16477,128,0,16821:0:0:0:0:
448,192,16477,128,0,16821:0:0:0:0:
64,192,16935,5,0,0:0:0:0:
320,192,16935,1,0,0:0:0:0:
192,192,16935,1,0,0:0:0:0:
448,192,17027,1,0,0:0:0:0:
192,192,17118,1,0,0:0:0:0:
320,192,17210,1,0,0:0:0:0:
448,192,17393,1,0,0:0:0:0:
64,192,17393,1,0,0:0:0:0:
320,192,17485,1,0,0:0:0:0:
192,192,17576,1,0,0:0:0:0:
448,192,17668,1,0,0:0:0:0:
320,192,17851,1,0,0:0:0:0:
64,192,17851,1,0,0:0:0:0:
448,192,17943,1,0,0:0:0:0:
192,192,18034,1,0,0:0:0:0:
320,192,18126,1,0,0:0:0:0:
448,192,18309,1,0,0:0:0:0:
64,192,18309,1,0,0:0:0:0:
192,192,18309,1,0,0:0:0:0:
192,192,18424,1,0,0:0:0:0:
320,192,18424,1,0,0:0:0:0:
320,192,18538,1,0,0:0:0:0:
448,192,18538,1,0,0:0:0:0:
192,192,18653,1,0,0:0:0:0:
64,192,18653,1,0,0:0:0:0:
320,192,18767,1,0,0:0:0:0:
448,192,18767,1,0,0:0:0:0:
192,192,18859,1,0,0:0:0:0:
64,192,18950,1,0,0:0:0:0:
320,192,19042,1,0,0:0:0:0:
448,192,19225,1,0,0:0:0:0:
64,192,19225,1,0,0:0:0:0:
320,192,19317,1,0,0:0:0:0:
192,192,19408,1,0,0:0:0:0:
448,192,19500,1,0,0:0:0:0:
64,192,19683,1,0,0:0:0:0:
320,192,19683,1,0,0:0:0:0:
448,192,19798,1,0,0:0:0:0:
320,192,19912,1,0,0:0:0:0:
192,192,19988,1,0,0:0:0:0:
64,192,20065,1,0,0:0:0:0:
320,192,20141,1,0,0:0:0:0:
448,192,20141,1,0,0:0:0:0:
64,192,20217,1,0,0:0:0:0:
192,192,20294,1,0,0:0:0:0:
320,192,20370,1,0,0:0:0:0:
192,192,20485,1,0,0:0:0:0:
64,192,20599,1,0,0:0:0:0:
448,192,20599,1,0,0:0:0:0:
320,192,20691,1,0,0:0:0:0:
192,192,20782,1,0,0:0:0:0:
448,192,20874,1,0,0:0:0:0:
320,192,21057,1,0,0:0:0:0:
64,192,21057,1,0,0:0:0:0:
448,192,21149,1,0,0:0:0:0:
192,192,21240,1,0,0:0:0:0:
320,192,21332,1,0,0:0:0:0:
448,192,21515,1,0,0:0:0:0:
64,192,21515,1,0,0:0:0:0:
320,192,21607,1,0,0:0:0:0:
192,192,21698,1,0,0:0:0:0:
448,192,21790,1,0,0:0:0:0:
448,192,21973,1,0,0:0:0:0:
320,192,21973,1,0,0:0:0:0:
64,192,21973,1,0,0:0:0:0:
192,192,22088,1,0,0:0:0:0:
320,192,22088,1,0,0:0:0:0:
192,192,22202,1,0,0:0:0:0:
64,192,22202,1,0,0:0:0:0:
320,192,22317,1,0,0:0:0:0:
448,192,22317,1,0,0:0:0:0:
64,192,22431,1,0,0:0:0:0:
192,192,22431,1,0,0:0:0:0:
320,192,22523,1,0,0:0:0:0:
448,192,22614,1,0,0:0:0:0:
192,192,22706,1,0,0:0:0:0:
64,192,22889,1,0,0:0:0:0:
448,192,22889,1,0,0:0:0:0:
320,192,22981,1,0,0:0:0:0:
192,192,23072,1,0,0:0:0:0:
448,192,23164,1,0,0:0:0:0:
64,192,23347,1,0,0:0:0:0:
320,192,23347,1,0,0:0:0:0:
448,192,23424,1,0,0:0:0:0:
192,192,23500,1,0,0:0:0:0:
64,192,23576,1,0,0:0:0:0:
448,192,23576,1,0,0:0:0:0:
192,192,23653,1,0,0:0:0:0:
320,192,23729,1,0,0:0:0:0:
64,192,23805,1,0,0:0:0:0:
448,192,23805,1,0,0:0:0:0:
320,192,23882,1,0,0:0:0:0:
192,192,23958,1,0,0:0:0:0:
64,192,24034,1,0,0:0:0:0:
448,192,24034,1,0,0:0:0:0:
320,192,24111,1,0,0:0:0:0:
192,192,24263,1,0,0:0:0:0:
448,192,24263,1,0,0:0:0:0:
64,192,24355,1,0,0:0:0:0:
320,192,24447,1,0,0:0:0:0:
192,192,24538,1,0,0:0:0:0:
64,192,24721,1,0,0:0:0:0:
448,192,24721,1,0,0:0:0:0:
192,192,24813,1,0,0:0:0:0:
320,192,24905,1,0,0:0:0:0:
64,192,24996,1,0,0:0:0:0:
192,192,25179,1,0,0:0:0:0:
448,192,25179,1,0,0:0:0:0:
64,192,25271,1,0,0:0:0:0:
320,192,25363,1,0,0:0:0:0:
192,192,25454,1,0,0:0:0:0:
64,192,25637,1,0,0:0:0:0:
448,192,25637,1,0,0:0:0:0:
320,192,25637,1,0,0:0:0:0:
320,192,25752,1,0,0:0:0:0:
192,192,25752,1,0,0:0:0:0:
192,192,25866,1,0,0:0:0:0:
64,192,25866,1,0,0:0:0:0:
320,192,25981,1,0,0:0:0:0:
448,192,25981,1,0,0:0:0:0:
192,192,26095,1,0,0:0:0:0:
64,192,26095,1,0,0:0:0:0:
320,192,26187,1,0,0:0:0:0:
448,192,26279,1,0,0:0:0:0:
192,192,26370,1,0,0:0:0:0:
64,192,26553,1,0,0:0:0:0:
448,192,26553,1,0,0:0:0:0:
192,192,26645,1,0,0:0:0:0:
320,192,26737,1,0,0:0:0:0:
64,192,26828,1,0,0:0:0:0:
192,192,27011,1,0,0:0:0:0:
448,192,27011,1,0,0:0:0:0:
64,192,27126,1,0,0:0:0:0:
192,192,27240,1,0,0:0:0:0:
320,192,27317,1,0,0:0:0:0:
448,192,27393,1,0,0:0:0:0:
64,192,27469,1,0,0:0:0:0:
192,192,27469,1,0,0:0:0:0:
448,192,27546,1,0,0:0:0:0:
320,192,27622,1,0,0:0:0:0:
192,192,27698,1,0,0:0:0:0:
320,192,27813,1,0,0:0:0:0:
448,192,27927,1,0,0:0:0:0:
64,192,27927,1,0,0:0:0:0:
192,192,28019,1,0,0:0:0:0:
320,192,28111,1,0,0:0:0:0:
64,192,28202,1,0,0:0:0:0:
192,192,28385,1,0,0:0:0:0:
448,192,28385,1,0,0:0:0:0:
64,192,28477,1,0,0:0:0:0:
320,192,28569,1,0,0:0:0:0:
192,192,28660,1,0,0:0:0:0:
64,192,28843,1,0,0:0:0:0:
448,192,28843,1,0,0:0:0:0:
192,192,28935,1,0,0:0:0:0:
320,192,29027,1,0,0:0:0:0:
64,192,29118,1,0,0:0:0:0:
64,192,29301,1,0,0:0:0:0:
192,192,29301,1,0,0:0:0:0:
448,192,29301,1,0,0:0:0:0:
320,192,29416,1,0,0:0:0:0:
192,192,29416,1,0,0:0:0:0:
320,192,29530,1,0,0:0:0:0:
448,192,29530,1,0,0:0:0:0:
192,192,29645,1,0,0:0:0:0:
64,192,29645,1,0,0:0:0:0:
448,192,29759,1,0,0:0:0:0:
320,192,29759,1,0,0:0:0:0:
64,192,29836,1,0,0:0:0:0:
192,192,29912,1,0,0:0:0:0:
320,192,29988,1,0,0:0:0:0:
448,192,30065,1,0,0:0:0:0:
320,192,30141,1,0,0:0:0:0:
192,192,30217,128,0,30332:0:0:0:0:
64,192,30217,128,0,30447:0:0:0:0:
448,192,30217,1,0,0:0:0:0:
320,192,30447,1,0,0:0:0:0:
192,192,30523,1,0,0:0:0:0:
320,192,30676,128,0,30790:0:0:0:0:
448,192,30676,128,0,30905:0:0:0:0:
64,192,30676,1,0,0:0:0:0:
192,192,30905,1,0,0:0:0:0:
320,192,30981,1,0,0:0:0:0:
64,192,31134,128,0,31363:0:0:0:0:
192,192,31134,128,0,31363:0:0:0:0:
320,192,31134,128,0,31363:0:0:0:0:
448,192,31134,128,0,31363:0:0:0:0:
448,192,31592,128,0,31821:0:0:0:0:
64,192,31592,128,0,31821:0:0:0:0:
320,192,31821,128,0,32050:0:0:0:0:
64,192,32050,1,0,0:0:0:0:
320,192,32279,128,0,32508:0:0:0:0:
64,192,32508,1,0,0:0:0:0:
320,192,32737,128,0,32966:0:0:0:0:
64,192,32966,1,0,0:0:0:0:
320,192,33195,128,0,33424:0:0:0:0:
192,192,33424,1,0,0:0:0:0:
448,192,33653,128,0,33882:0:0:0:0:
192,192,33882,1,0,0:0:0:0:
448,192,34111,128,0,34340:0:0:0:0:
192,192,34340,1,0,0:0:0:0:
448,192,34569,128,0,34798:0:0:0:0:
192,192,34798,1,0,0:0:0:0:
448,192,35027,128,0,35256:0:0:0:0:
320,192,35256,1,0,0:0:0:0:
64,192,35485,128,0,35714:0:0:0:0:
320,192,35714,1,0,0:0:0:0:
64,192,35943,128,0,36172:0:0:0:0:
320,192,36172,1,0,0:0:0:0:
64,192,36401,128,0,36630:0:0:0:0:
320,192,36630,1,0,0:0:0:0:
64,192,36859,128,0,37088:0:0:0:0:
448,192,37088,128,0,37317:0:0:0:0:
192,192,37317,128,0,37546:0:0:0:0:
320,192,37546,128,0,37775:0:0:0:0:
192,192,37775,128,0,38004:0:0:0:0:
448,192,38004,128,0,38691:0:0:0:0:
192,192,38233,128,0,38462:0:0:0:0:
320,192,38462,128,0,39149:0:0:0:0:
192,192,38691,128,0,38920:0:0:0:0:
64,192,38920,128,0,39149:0:0:0:0:
448,192,38920,128,0,39149:0:0:0:0:
192,192,39149,1,0,0:0:0:0:
64,192,39378,1,0,0:0:0:0:
448,192,39378,1,0,0:0:0:0:
320,192,39607,1,0,0:0:0:0:
448,192,39836,1,0,0:0:0:0:
64,192,39836,1,0,0:0:0:0:
192,192,40065,1,0,0:0:0:0:
64,192,40294,1,0,0:0:0:0:
448,192,40294,1,0,0:0:0:0:
320,192,40523,1,0,0:0:0:0:
192,192,40752,1,0,0:0:0:0:
64,192,40752,1,0,0:0:0:0:
448,192,40981,1,0,0:0:0:0:
192,192,41210,1,0,0:0:0:0:
64,192,41210,1,0,0:0:0:0:
320,192,41439,1,0,0:0:0:0:
192,192,41668,1,0,0:0:0:0:
64,192,41668,1,0,0:0:0:0:
448,192,41897,1,0,0:0:0:0:
192,192,42126,1,0,0:0:0:0:
64,192,42126,1,0,0:0:0:0:
320,192,42355,1,0,0:0:0:0:
64,192,42584,1,0,0:0:0:0:
320,192,42584,1,0,0:0:0:0:
320,192,42813,1,0,0:0:0:0:
448,192,43042,128,0,43271:0:0:0:0:
64,192,43042,128,0,43271:0:0:0:0:
192,192,43271,1,0,0:0:0:0:
192,192,43500,1,0,0:0:0:0:
448,192,43500,1,0,0:0:0:0:
192,192,43729,1,0,0:0:0:0:
64,192,43958,128,0,44187:0:0:0:0:
448,192,43958,128,0,44187:0:0:0:0:
320,192,44187,1,0,0:0:0:0:
320,192,44301,1,0,0:0:0:0:
192,192,44416,128,0,44645:0:0:0:0:
64,192,44416,128,0,44645:0:0:0:0:
448,192,44416,1,0,0:0:0:0:
192,192,44874,128,0,45103:0:0:0:0:
320,192,44874,128,0,45103:0:0:0:0:
448,192,44874,1,0,0:0:0:0:
320,192,45332,128,0,45561:0:0:0:0:
448,192,45332,128,0,45561:0:0:0:0:
64,192,45332,1,0,0:0:0:0:
192,192,45561,1,0,0:0:0:0:
192,192,45790,1,0,0:0:0:0:
192,192,46019,1,0,0:0:0:0:
64,192,46248,1,0,0:0:0:0:
448,192,46248,1,0,0:0:0:0:
320,192,46324,1,0,0:0:0:0:
192,192,46401,1,0,0:0:0:0:
64,192,46477,1,0,0:0:0:0:
64,192,46592,1,0,0:0:0:0:
320,192,46706,1,0,0:0:0:0:
448,192,46706,1,0,0:0:0:0:
320,192,46935,1,0,0:0:0:0:
320,192,47050,1,0,0:0:0:0:
448,192,47164,1,0,0:0:0:0:
64,192,47164,1,0,0:0:0:0:
192,192,47240,1,0,0:0:0:0:
64,192,47317,1,0,0:0:0:0:
192,192,47393,1,0,0:0:0:0:
448,192,47393,1,0,0:0:0:0:
320,192,47508,1,0,0:0:0:0:
192,192,47622,1,0,0:0:0:0:
448,192,47622,1,0,0:0:0:0:
64,192,47851,1,0,0:0:0:0:
320,192,47927,1,0,0:0:0:0:
192,192,48004,1,0,0:0:0:0:
64,192,48080,1,0,0:0:0:0:
448,192,48080,1,0,0:0:0:0:
448,192,48309,1,0,0:0:0:0:
192,192,48385,1,0,0:0:0:0:
320,192,48462,1,0,0:0:0:0:
448,192,48538,1,0,0:0:0:0:
64,192,48538,1,0,0:0:0:0:
192,192,48767,1,0,0:0:0:0:
192,192,48882,1,0,0:0:0:0:
64,192,48996,1,0,0:0:0:0:
448,192,48996,1,0,0:0:0:0:
320,192,49072,1,0,0:0:0:0:
448,192,49149,1,0,0:0:0:0:
320,192,49225,1,0,0:0:0:0:
64,192,49225,1,0,0:0:0:0:
192,192,49340,1,0,0:0:0:0:
64,192,49454,1,0,0:0:0:0:
448,192,49454,1,0,0:0:0:0:
320,192,49683,1,0,0:0:0:0:
192,192,49683,1,0,0:0:0:0:
448,192,49798,1,0,0:0:0:0:
320,192,49798,1,0,0:0:0:0:
192,192,49912,1,0,0:0:0:0:
64,192,49912,1,0,0:0:0:0:
448,192,50027,1,0,0:0:0:0:
320,192,50141,1,0,0:0:0:0:
448,192,50217,1,0,0:0:0:0:
192,192,50294,1,0,0:0:0:0:
64,192,50370,1,0,0:0:0:0:
448,192,50370,1,0,0:0:0:0:
320,192,50485,1,0,0:0:0:0:
192,192,50599,1,0,0:0:0:0:
320,192,50676,1,0,0:0:0:0:
448,192,50752,1,0,0:0:0:0:
192,192,50828,1,0,0:0:0:0:
64,192,50828,1,0,0:0:0:0:
192,192,50943,1,0,0:0:0:0:
64,192,50943,1,0,0:0:0:0:
320,192,51057,1,0,0:0:0:0:
448,192,51057,1,0,0:0:0:0:
320,192,51172,1,0,0:0:0:0:
192,192,51172,1,0,0:0:0:0:
64,192,51286,1,0,0:0:0:0:
448,192,51286,1,0,0:0:0:0:
320,192,51401,1,0,0:0:0:0:
64,192,51515,1,0,0:0:0:0:
192,192,51592,1,0,0:0:0:0:
320,192,51668,1,0,0:0:0:0:
448,192,51744,1,0,0:0:0:0:
64,192,51744,1,0,0:0:0:0:
192,192,51859,1,0,0:0:0:0:
320,192,51973,1,0,0:0:0:0:
64,192,52050,1,0,0:0:0:0:
320,192,52126,1,0,0:0:0:0:
192,192,52202,1,0,0:0:0:0:
448,192,52202,1,0,0:0:0:0:
64,192,52317,1,0,0:0:0:0:
192,192,52431,1,0,0:0:0:0:
448,192,52508,1,0,0:0:0:0:
320,192,52584,1,0,0:0:0:0:
64,192,52660,1,0,0:0:0:0:
448,192,52660,1,0,0:0:0:0:
192,192,52737,1,0,0:0:0:0:
64,192,52813,1,0,0:0:0:0:
320,192,52889,1,0,0:0:0:0:
448,192,52889,1,0,0:0:0:0:
448,192,53004,1,0,0:0:0:0:
320,192,53004,1,0,0:0:0:0:
192,192,53118,1,0,0:0:0:0:
64,192,53118,1,0,0:0:0:0:
64,192,53233,1,0,0:0:0:0:
192,192,53233,1,0,0:0:0:0:
320,192,53347,1,0,0:0:0:0:
448,192,53347,1,0,0:0:0:0:
320,192,53462,1,0,0:0:0:0:
192,192,53462,1,0,0:0:0:0:
64,192,53576,1,0,0:0:0:0:
448,192,53576,1,0,0:0:0:0:
320,192,53653,1,0,0:0:0:0:
192,192,53729,1,0,0:0:0:0:
64,192,53805,1,0,0:0:0:0:
64,192,53920,1,0,0:0:0:0:
320,192,54034,1,0,0:0:0:0:
448,192,54034,1,0,0:0:0:0:
320,192,54263,1,0,0:0:0:0:
320,192,54378,1,0,0:0:0:0:
448,192,54492,1,0,0:0:0:0:
64,192,54492,1,0,0:0:0:0:
192,192,54569,1,0,0:0:0:0:
64,192,54645,1,0,0:0:0:0:
192,192,54721,1,0,0:0:0:0:
448,192,54721,1,0,0:0:0:0:
320,192,54836,1,0,0:0:0:0:
192,192,54950,1,0,0:0:0:0:
448,192,54950,1,0,0:0:0:0:
64,192,55179,1,0,0:0:0:0:
320,192,55256,1,0,0:0:0:0:
192,192,55332,1,0,0:0:0:0:
64,192,55408,1,0,0:0:0:0:
448,192,55408,1,0,0:0:0:0:
448,192,55637,1,0,0:0:0:0:
192,192,55714,1,0,0:0:0:0:
320,192,55790,1,0,0:0:0:0:
448,192,55866,1,0,0:0:0:0:
64,192,55866,1,0,0:0:0:0:
320,192,55981,1,0,0:0:0:0:
192,192,56095,1,0,0:0:0:0:
192,192,56210,1,0,0:0:0:0:
64,192,56324,1,0,0:0:0:0:
448,192,56324,1,0,0:0:0:0:
320,192,56401,1,0,0:0:0:0:
448,192,56477,1,0,0:0:0:0:
320,192,56553,1,0,0:0:0:0:
64,192,56553,1,0,0:0:0:0:
192,192,56668,1,0,0:0:0:0:
64,192,56782,1,0,0:0:0:0:
448,192,56782,1,0,0:0:0:0:
320,192,57011,1,0,0:0:0:0:
192,192,57011,1,0,0:0:0:0:
448,192,57126,1,0,0:0:0:0:
320,192,57126,1,0,0:0:0:0:
192,192,57240,1,0,0:0:0:0:
64,192,57240,1,0,0:0:0:0:
448,192,57355,1,0,0:0:0:0:
320,192,57469,1,0,0:0:0:0:
448,192,57546,1,0,0:0:0:0:
192,192,57622,1,0,0:0:0:0:
64,192,57698,1,0,0:0:0:0:
448,192,57698,1,0,0:0:0:0:
320,192,57813,1,0,0:0:0:0:
192,192,57927,1,0,0:0:0:0:
320,192,58004,1,0,0:0:0:0:
448,192,58080,1,0,0:0:0:0:
192,192,58156,1,0,0:0:0:0:
64,192,58156,1,0,0:0:0:0:
192,192,58271,1,0,0:0:0:0:
64,192,58271,1,0,0:0:0:0:
320,192,58385,1,0,0:0:0:0:
448,192,58385,1,0,0:0:0:0:
320,192,58500,1,0,0:0:0:0:
192,192,58500,1,0,0:0:0:0:
192,192,58614,1,0,0:0:0:0:
64,192,58614,1,0,0:0:0:0:
448,192,58614,1,0,0:0:0:0:
320,192,58843,128,0,59416:0:0:0:0:
448,192,58843,128,0,60332:0:0:0:0:
64,192,58843,128,0,60332:0:0:0:0:
192,192,59301,128,0,59645:0:0:0:0:
320,192,59530,128,0,59874:0:0:0:0:
192,192,59759,128,0,60332:0:0:0:0:
320,192,59988,128,0,60332:0:0:0:0:
64,192,60447,128,0,60790:0:0:0:0:
192,192,60447,128,0,60790:0:0:0:0:
320,192,60447,128,0,60790:0:0:0:0:
448,192,60447,128,0,60790:0:0:0:0:
448,192,60905,5,0,0:0:0:0:
64,192,60905,1,0,0:0:0:0:
320,192,60996,5,0,0:0:0:0:
192,192,61088,1,0,0:0:0:0:
448,192,61134,1,0,0:0:0:0:
320,192,61210,1,0,0:0:0:0:
448,192,61286,1,0,0:0:0:0:
192,192,61363,1,0,0:0:0:0:
64,192,61363,1,0,0:0:0:0:
64,192,61477,1,0,0:0:0:0:
192,192,61592,1,0,0:0:0:0:
320,192,61592,1,0,0:0:0:0:
320,192,61706,1,0,0:0:0:0:
448,192,61821,1,0,0:0:0:0:
64,192,61821,1,0,0:0:0:0:
192,192,61912,1,0,0:0:0:0:
320,192,62004,1,0,0:0:0:0:
448,192,62095,1,0,0:0:0:0:
192,192,62164,1,0,0:0:0:0:
192,192,62279,1,0,0:0:0:0:
64,192,62279,1,0,0:0:0:0:
448,192,62393,1,0,0:0:0:0:
320,192,62508,1,0,0:0:0:0:
320,192,62622,1,0,0:0:0:0:
64,192,62737,1,0,0:0:0:0:
448,192,62737,1,0,0:0:0:0:
192,192,62813,1,0,0:0:0:0:
448,192,62889,1,0,0:0:0:0:
320,192,62966,1,0,0:0:0:0:
192,192,63080,1,0,0:0:0:0:
192,192,63195,1,0,0:0:0:0:
448,192,63195,1,0,0:0:0:0:
64,192,63271,1,0,0:0:0:0:
448,192,63347,1,0,0:0:0:0:
192,192,63424,1,0,0:0:0:0:
320,192,63500,1,0,0:0:0:0:
64,192,63576,1,0,0:0:0:0:
448,192,63653,1,0,0:0:0:0:
320,192,63653,1,0,0:0:0:0:
192,192,63767,1,0,0:0:0:0:
320,192,63882,128,0,63996:0:0:0:0:
448,192,63882,128,0,63996:0:0:0:0:
64,192,63882,128,0,63996:0:0:0:0:
448,192,64111,128,0,64225:0:0:0:0:
320,192,64111,128,0,64225:0:0:0:0:
64,192,64111,128,0,64225:0:0:0:0:
192,192,64225,1,0,0:0:0:0:
320,192,64340,1,0,0:0:0:0:
192,192,64454,1,0,0:0:0:0:
192,192,64569,1,0,0:0:0:0:
448,192,64569,1,0,0:0:0:0:
64,192,64660,1,0,0:0:0:0:
192,192,64752,1,0,0:0:0:0:
320,192,64843,1,0,0:0:0:0:
64,192,65027,1,0,0:0:0:0:
320,192,65027,1,0,0:0:0:0:
448,192,65103,1,0,0:0:0:0:
192,192,65179,1,0,0:0:0:0:
320,192,65256,1,0,0:0:0:0:
64,192,65370,1,0,0:0:0:0:
64,192,65485,1,0,0:0:0:0:
448,192,65485,1,0,0:0:0:0:
320,192,65561,1,0,0:0:0:0:
192,192,65637,1,0,0:0:0:0:
448,192,65714,1,0,0:0:0:0:
192,192,65790,1,0,0:0:0:0:
448,192,65943,1,0,0:0:0:0:
64,192,65943,1,0,0:0:0:0:
192,192,66019,1,0,0:0:0:0:
320,192,66095,1,0,0:0:0:0:
64,192,66172,1,0,0:0:0:0:
320,192,66248,1,0,0:0:0:0:
448,192,66401,1,0,0:0:0:0:
64,192,66401,1,0,0:0:0:0:
192,192,66477,1,0,0:0:0:0:
192,192,66630,1,0,0:0:0:0:
320,192,66744,1,0,0:0:0:0:
320,192,66859,1,0,0:0:0:0:
64,192,66859,1,0,0:0:0:0:
448,192,66935,1,0,0:0:0:0:
192,192,67088,1,0,0:0:0:0:
64,192,67164,1,0,0:0:0:0:
320,192,67317,1,0,0:0:0:0:
64,192,67317,1,0,0:0:0:0:
448,192,67393,1,0,0:0:0:0:
192,192,67469,1,0,0:0:0:0:
320,192,67546,1,0,0:0:0:0:
320,192,67660,1,0,0:0:0:0:
64,192,67775,128,0,68118:0:0:0:0:
192,192,67775,128,0,68118:0:0:0:0:
320,192,67775,128,0,68118:0:0:0:0:
448,192,67775,128,0,68118:0:0:0:0:
192,192,68233,1,0,0:0:0:0:
64,192,68233,1,0,0:0:0:0:
448,192,68233,1,0,0:0:0:0:
192,192,68347,1,0,0:0:0:0:
64,192,68347,1,0,0:0:0:0:
320,192,68462,1,0,0:0:0:0:
448,192,68462,1,0,0:0:0:0:
320,192,68576,1,0,0:0:0:0:
64,192,68576,1,0,0:0:0:0:
192,192,68691,1,0,0:0:0:0:
448,192,68691,1,0,0:0:0:0:
64,192,68782,1,0,0:0:0:0:
192,192,68874,1,0,0:0:0:0:
320,192,68966,1,0,0:0:0:0:
192,192,69057,1,0,0:0:0:0:
64,192,69149,1,0,0:0:0:0:
448,192,69149,1,0,0:0:0:0:
64,192,69263,1,0,0:0:0:0:
448,192,69263,1,0,0:0:0:0:
320,192,69378,1,0,0:0:0:0:
192,192,69454,1,0,0:0:0:0:
320,192,69530,1,0,0:0:0:0:
192,192,69607,1,0,0:0:0:0:
448,192,69607,1,0,0:0:0:0:
64,192,69607,1,0,0:0:0:0:
448,192,69721,1,0,0:0:0:0:
64,192,69836,1,0,0:0:0:0:
320,192,69836,1,0,0:0:0:0:
64,192,69950,1,0,0:0:0:0:
320,192,70065,1,0,0:0:0:0:
448,192,70065,1,0,0:0:0:0:
192,192,70141,1,0,0:0:0:0:
320,192,70217,1,0,0:0:0:0:
448,192,70294,1,0,0:0:0:0:
64,192,70294,1,0,0:0:0:0:
192,192,70408,1,0,0:0:0:0:
64,192,70523,1,0,0:0:0:0:
448,192,70523,1,0,0:0:0:0:
320,192,70599,1,0,0:0:0:0:
192,192,70676,1,0,0:0:0:0:
64,192,70752,1,0,0:0:0:0:
320,192,70752,1,0,0:0:0:0:
448,192,70828,1,0,0:0:0:0:
192,192,70905,1,0,0:0:0:0:
448,192,70981,1,0,0:0:0:0:
64,192,70981,1,0,0:0:0:0:
320,192,71057,1,0,0:0:0:0:
192,192,71134,1,0,0:0:0:0:
320,192,71210,128,0,71324:0:0:0:0:
448,192,71210,128,0,71324:0:0:0:0:
64,192,71210,128,0,71324:0:0:0:0:
64,192,71439,128,0,71553:0:0:0:0:
320,192,71439,128,0,71553:0:0:0:0:
448,192,71439,128,0,71553:0:0:0:0:
192,192,71668,1,0,0:0:0:0:
192,192,71782,1,0,0:0:0:0:
64,192,71897,1,0,0:0:0:0:
448,192,71897,1,0,0:0:0:0:
192,192,71973,1,0,0:0:0:0:
64,192,72050,1,0,0:0:0:0:
192,192,72126,1,0,0:0:0:0:
448,192,72126,1,0,0:0:0:0:
64,192,72202,1,0,0:0:0:0:
320,192,72240,1,0,0:0:0:0:
64,192,72355,1,0,0:0:0:0:
448,192,72355,1,0,0:0:0:0:
192,192,72469,1,0,0:0:0:0:
320,192,72584,1,0,0:0:0:0:
320,192,72698,1,0,0:0:0:0:
448,192,72813,1,0,0:0:0:0:
64,192,72813,1,0,0:0:0:0:
320,192,72889,1,0,0:0:0:0:
448,192,72966,1,0,0:0:0:0:
320,192,73042,1,0,0:0:0:0:
64,192,73042,1,0,0:0:0:0:
448,192,73118,1,0,0:0:0:0:
192,192,73156,1,0,0:0:0:0:
64,192,73271,1,0,0:0:0:0:
448,192,73271,1,0,0:0:0:0:
320,192,73385,1,0,0:0:0:0:
192,192,73500,1,0,0:0:0:0:
448,192,73576,1,0,0:0:0:0:
192,192,73653,1,0,0:0:0:0:
64,192,73729,1,0,0:0:0:0:
320,192,73729,128,0,73843:0:0:0:0:
448,192,73729,128,0,73843:0:0:0:0:
64,192,73958,1,0,0:0:0:0:
192,192,73958,128,0,74072:0:0:0:0:
320,192,73958,128,0,74072:0:0:0:0:
448,192,74187,1,0,0:0:0:0:
192,192,74187,128,0,74301:0:0:0:0:
64,192,74187,128,0,74301:0:0:0:0:
448,192,74416,1,0,0:0:0:0:
192,192,74416,128,0,74530:0:0:0:0:
320,192,74416,128,0,74530:0:0:0:0:
192,192,74645,1,0,0:0:0:0:
448,192,74645,128,0,74988:0:0:0:0:
64,192,74645,128,0,74988:0:0:0:0:
320,192,74759,1,0,0:0:0:0:
192,192,74874,1,0,0:0:0:0:
320,192,74988,1,0,0:0:0:0:
448,192,75103,128,0,75447:0:0:0:0:
192,192,75103,128,0,75447:0:0:0:0:
64,192,75103,128,0,75447:0:0:0:0:
64,192,75561,5,0,0:0:0:0:
320,192,75561,1,0,0:0:0:0:
192,192,75561,1,0,0:0:0:0:
448,192,75653,1,0,0:0:0:0:
192,192,75744,1,0,0:0:0:0:
320,192,75836,1,0,0:0:0:0:
448,192,76019,1,0,0:0:0:0:
64,192,76019,1,0,0:0:0:0:
320,192,76111,1,0,0:0:0:0:
192,192,76202,1,0,0:0:0:0:
448,192,76294,1,0,0:0:0:0:
320,192,76477,1,0,0:0:0:0:
64,192,76477,1,0,0:0:0:0:
448,192,76569,1,0,0:0:0:0:
192,192,76660,1,0,0:0:0:0:
320,192,76752,1,0,0:0:0:0:
448,192,76935,1,0,0:0:0:0:
64,192,76935,1,0,0:0:0:0:
192,192,76935,1,0,0:0:0:0:
192,192,77050,1,0,0:0:0:0:
320,192,77050,1,0,0:0:0:0:
320,192,77164,1,0,0:0:0:0:
448,192,77164,1,0,0:0:0:0:
192,192,77279,1,0,0:0:0:0:
64,192,77279,1,0,0:0:0:0:
320,192,77393,1,0,0:0:0:0:
448,192,77393,1,0,0:0:0:0:
192,192,77485,1,0,0:0:0:0:
64,192,77576,1,0,0:0:0:0:
320,192,77668,1,0,0:0:0:0:
448,192,77851,1,0,0:0:0:0:
64,192,77851,1,0,0:0:0:0:
320,192,77943,1,0,0:0:0:0:
192,192,78034,1,0,0:0:0:0:
448,192,78126,1,0,0:0:0:0:
64,192,78309,1,0,0:0:0:0:
320,192,78309,1,0,0:0:0:0:
448,192,78424,1,0,0:0:0:0:
320,192,78538,1,0,0:0:0:0:
192,192,78614,1,0,0:0:0:0:
64,192,78691,1,0,0:0:0:0:
320,192,78767,1,0,0:0:0:0:
448,192,78767,1,0,0:0:0:0:
64,192,78843,1,0,0:0:0:0:
192,192,78920,1,0,0:0:0:0:
320,192,78996,1,0,0:0:0:0:
192,192,79111,1,0,0:0:0:0:
64,192,79225,1,0,0:0:0:0:
448,192,79225,1,0,0:0:0:0:
320,192,79317,1,0,0:0:0:0:
192,192,79408,1,0,0:0:0:0:
448,192,79500,1,0,0:0:0:0:
320,192,79683,1,0,0:0:0:0:
64,192,79683,1,0,0:0:0:0:
448,192,79775,1,0,0:0:0:0:
192,192,79866,1,0,0:0:0:0:
320,192,79958,1,0,0:0:0:0:
448,192,80141,1,0,0:0:0:0:
64,192,80141,1,0,0:0:0:0:
320,192,80233,1,0,0:0:0:0:
192,192,80324,1,0,0:0:0:0:
448,192,80416,1,0,0:0:0:0:
448,192,80599,1,0,0:0:0:0:
320,192,80599,1,0,0:0:0:0:
64,192,80599,1,0,0:0:0:0:
192,192,80714,1,0,0:0:0:0:
320,192,80714,1,0,0:0:0:0:
192,192,80828,1,0,0:0:0:0:
64,192,80828,1,0,0:0:0:0:
320,192,80943,1,0,0:0:0:0:
448,192,80943,1,0,0:0:0:0:
64,192,81057,1,0,0:0:0:0:
192,192,81057,1,0,0:0:0:0:
320,192,81149,1,0,0:0:0:0:
448,192,81240,1,0,0:0:0:0:
192,192,81332,1,0,0:0:0:0:
64,192,81515,1,0,0:0:0:0:
448,192,81515,1,0,0:0:0:0:
320,192,81607,1,0,0:0:0:0:
192,192,81698,1,0,0:0:0:0:
448,192,81790,1,0,0:0:0:0:
64,192,81973,1,0,0:0:0:0:
320,192,81973,1,0,0:0:0:0:
448,192,82050,1,0,0:0:0:0:
192,192,82126,1,0,0:0:0:0:
64,192,82202,1,0,0:0:0:0:
448,192,82202,1,0,0:0:0:0:
192,192,82279,1,0,0:0:0:0:
320,192,82355,1,0,0:0:0:0:
64,192,82431,1,0,0:0:0:0:
448,192,82431,1,0,0:0:0:0:
320,192,82508,1,0,0:0:0:0:
192,192,82584,1,0,0:0:0:0:
64,192,82660,1,0,0:0:0:0:
448,192,82660,1,0,0:0:0:0:
320,192,82737,1,0,0:0:0:0:
448,192,82889,1,0,0:0:0:0:
192,192,82889,1,0,0:0:0:0:
64,192,82981,1,0,0:0:0:0:
320,192,83072,1,0,0:0:0:0:
192,192,83164,1,0,0:0:0:0:
64,192,83347,1,0,0:0:0:0:
448,192,83347,1,0,0:0:0:0:
192,192,83439,1,0,0:0:0:0:
320,192,83530,1,0,0:0:0:0:
64,192,83622,1,0,0:0:0:0:
192,192,83805,1,0,0:0:0:0:
448,192,83805,1,0,0:0:0:0:
64,192,83897,1,0,0:0:0:0:
320,192,83988,1,0,0:0:0:0:
192,192,84080,1,0,0:0:0:0:
64,192,84263,1,0,0:0:0:0:
448,192,84263,1,0,0:0:0:0:
320,192,84263,1,0,0:0:0:0:
320,192,84378,1,0,0:0:0:0:
192,192,84378,1,0,0:0:0:0:
192,192,84492,1,0,0:0:0:0:
64,192,84492,1,0,0:0:0:0:
320,192,84607,1,0,0:0:0:0:
448,192,84607,1,0,0:0:0:0:
192,192,84721,1,0,0:0:0:0:
64,192,84721,1,0,0:0:0:0:
320,192,84813,1,0,0:0:0:0:
448,192,84905,1,0,0:0:0:0:
192,192,84996,1,0,0:0:0:0:
64,192,85179,1,0,0:0:0:0:
448,192,85179,1,0,0:0:0:0:
192,192,85271,1,0,0:0:0:0:
320,192,85363,1,0,0:0:0:0:
64,192,85454,1,0,0:0:0:0:
192,192,85637,1,0,0:0:0:0:
448,192,85637,1,0,0:0:0:0:
64,192,85752,1,0,0:0:0:0:
192,192,85866,1,0,0:0:0:0:
320,192,85943,1,0,0:0:0:0:
448,192,86019,1,0,0:0:0:0:
64,192,86095,1,0,0:0:0:0:
192,192,86095,1,0,0:0:0:0:
448,192,86172,1,0,0:0:0:0:
320,192,86248,1,0,0:0:0:0:
192,192,86324,1,0,0:0:0:0:
320,192,86439,1,0,0:0:0:0:
448,192,86553,1,0,0:0:0:0:
64,192,86553,1,0,0:0:0:0:
192,192,86645,1,0,0:0:0:0:
320,192,86737,1,0,0:0:0:0:
64,192,86828,1,0,0:0:0:0:
192,192,87011,1,0,0:0:0:0:
448,192,87011,1,0,0:0:0:0:
64,192,87103,1,0,0:0:0:0:
320,192,87195,1,0,0:0:0:0:
192,192,87286,1,0,0:0:0:0:
64,192,87469,1,0,0:0:0:0:
448,192,87469,1,0,0:0:0:0:
192,192,87561,1,0,0:0:0:0:
320,192,87653,1,0,0:0:0:0:
64,192,87744,1,0,0:0:0:0:
64,192,87927,1,0,0:0:0:0:
192,192,87927,1,0,0:0:0:0:
448,192,87927,1,0,0:0:0:0:
320,192,88042,1,0,0:0:0:0:
192,192,88042,1,0,0:0:0:0:
320,192,88156,1,0,0:0:0:0:
448,192,88156,1,0,0:0:0:0:
192,192,88271,1,0,0:0:0:0:
64,192,88271,1,0,0:0:0:0:
448,192,88385,1,0,0:0:0:0:
320,192,88385,1,0,0:0:0:0:
192,192,88443,1,0,0:0:0:0:
64,192,88500,1,0,0:0:0:0:
192,192,88557,1,0,0:0:0:0:
320,192,88614,1,0,0:0:0:0:
448,192,88691,1,0,0:0:0:0:
320,192,88767,1,0,0:0:0:0:
192,192,88843,1,0,0:0:0:0:
64,192,88920,1,0,0:0:0:0:
192,192,88996,1,0,0:0:0:0:
320,192,89072,1,0,0:0:0:0:
448,192,89149,1,0,0:0:0:0:
320,192,89301,1,0,0:0:0:0:
192,192,89378,1,0,0:0:0:0:
320,192,89530,1,0,0:0:0:0:
448,192,89607,1,0,0:0:0:0:
320,192,89759,1,0,0:0:0:0:
192,192,89836,1,0,0:0:0:0:
64,192,89912,1,0,0:0:0:0:
192,192,89988,1,0,0:0:0:0:
320,192,90217,1,0,0:0:0:0:
64,192,90447,1,0,0:0:0:0:
448,192,90447,1,0,0:0:0:0:
192,192,90676,1,0,0:0:0:0:
64,192,90790,1,0,0:0:0:0:
448,192,90790,1,0,0:0:0:0:
320,192,90905,1,0,0:0:0:0:
192,192,91019,1,0,0:0:0:0:
64,192,91134,1,0,0:0:0:0:
448,192,91134,1,0,0:0:0:0:
192,192,91363,1,0,0:0:0:0:
448,192,91477,1,0,0:0:0:0:
320,192,91477,1,0,0:0:0:0:
320,192,91706,1,0,0:0:0:0:
192,192,91821,1,0,0:0:0:0:
64,192,91821,1,0,0:0:0:0:
448,192,92050,1,0,0:0:0:0:
320,192,92279,1,0,0:0:0:0:
64,192,92279,1,0,0:0:0:0:
192,192,92508,1,0,0:0:0:0:
64,192,92622,1,0,0:0:0:0:
448,192,92622,1,0,0:0:0:0:
192,192,92851,1,0,0:0:0:0:
320,192,92966,1,0,0:0:0:0:
448,192,92966,1,0,0:0:0:0:
64,192,93195,1,0,0:0:0:0:
192,192,93309,1,0,0:0:0:0:
320,192,93309,1,0,0:0:0:0:
448,192,93538,1,0,0:0:0:0:
64,192,93653,1,0,0:0:0:0:
192,192,93653,1,0,0:0:0:0:
192,192,93882,1,0,0:0:0:0:
448,192,94111,1,0,0:0:0:0:
64,192,94111,1,0,0:0:0:0:
320,192,94340,1,0,0:0:0:0:
448,192,94454,1,0,0:0:0:0:
64,192,94454,1,0,0:0:0:0:
192,192,94569,1,0,0:0:0:0:
320,192,94683,1,0,0:0:0:0:
448,192,94798,1,0,0:0:0:0:
64,192,94798,1,0,0:0:0:0:
320,192,95027,1,0,0:0:0:0:
64,192,95141,1,0,0:0:0:0:
192,192,95141,1,0,0:0:0:0:
192,192,95370,1,0,0:0:0:0:
320,192,95485,1,0,0:0:0:0:
448,192,95485,1,0,0:0:0:0:
64,192,95714,1,0,0:0:0:0:
192,192,95943,1,0,0:0:0:0:
448,192,95943,1,0,0:0:0:0:
320,192,96172,1,0,0:0:0:0:
448,192,96286,1,0,0:0:0:0:
64,192,96286,1,0,0:0:0:0:
320,192,96515,1,0,0:0:0:0:
192,192,96630,128,0,97202:0:0:0:0:
64,192,96630,128,0,97259:0:0:0:0:
320,192,97317,1,0,0:0:0:0:
192,192,97374,1,0,0:0:0:0:
448,192,97431,1,0,0:0:0:0:
320,192,97488,1,0,0:0:0:0:
192,192,97546,1,0,0:0:0:0:
64,192,97546,1,0,0:0:0:0:
320,192,97660,1,0,0:0:0:0:
448,192,97775,1,0,0:0:0:0:
64,192,98004,1,0,0:0:0:0:
448,192,98004,1,0,0:0:0:0:
192,192,98118,1,0,0:0:0:0:
320,192,98233,1,0,0:0:0:0:
448,192,98462,1,0,0:0:0:0:
64,192,98462,1,0,0:0:0:0:
320,192,98576,1,0,0:0:0:0:
192,192,98691,1,0,0:0:0:0:
64,192,98920,1,0,0:0:0:0:
448,192,98920,1,0,0:0:0:0:
192,192,99034,1,0,0:0:0:0:
320,192,99149,1,0,0:0:0:0:
192,192,99378,1,0,0:0:0:0:
64,192,99378,1,0,0:0:0:0:
320,192,99492,1,0,0:0:0:0:
448,192,99607,1,0,0:0:0:0:
192,192,99836,1,0,0:0:0:0:
64,192,99836,1,0,0:0:0:0:
448,192,99950,1,0,0:0:0:0:
320,192,100065,1,0,0:0:0:0:
192,192,100294,1,0,0:0:0:0:
64,192,100294,1,0,0:0:0:0:
320,192,100408,1,0,0:0:0:0:
448,192,100523,1,0,0:0:0:0:
192,192,100752,1,0,0:0:0:0:
64,192,100752,1,0,0:0:0:0:
448,192,100866,1,0,0:0:0:0:
320,192,100981,128,0,101095:0:0:0:0:
64,192,101210,1,0,0:0:0:0:
448,192,101210,1,0,0:0:0:0:
320,192,101210,128,0,101324:0:0:0:0:
448,192,101439,1,0,0:0:0:0:
64,192,101439,1,0,0:0:0:0:
320,192,101439,128,0,101553:0:0:0:0:
192,192,101897,128,0,102011:0:0:0:0:
448,192,102126,1,0,0:0:0:0:
64,192,102126,1,0,0:0:0:0:
192,192,102126,128,0,102240:0:0:0:0:
64,192,102355,1,0,0:0:0:0:
448,192,102355,1,0,0:0:0:0:
192,192,102355,128,0,102469:0:0:0:0:
320,192,102813,1,0,0:0:0:0:
320,192,102927,1,0,0:0:0:0:
448,192,103042,1,0,0:0:0:0:
192,192,103042,128,0,103156:0:0:0:0:
64,192,103042,128,0,103156:0:0:0:0:
320,192,103271,1,0,0:0:0:0:
448,192,103271,1,0,0:0:0:0:
64,192,103271,1,0,0:0:0:0:
192,192,103500,128,0,103614:0:0:0:0:
320,192,103500,128,0,103614:0:0:0:0:
64,192,103500,1,0,0:0:0:0:
192,192,103729,1,0,0:0:0:0:
64,192,103729,1,0,0:0:0:0:
448,192,103729,1,0,0:0:0:0:
64,192,103958,1,0,0:0:0:0:
320,192,103958,128,0,104072:0:0:0:0:
448,192,103958,128,0,104072:0:0:0:0:
192,192,104187,1,0,0:0:0:0:
192,192,104416,1,0,0:0:0:0:
192,192,104645,1,0,0:0:0:0:
64,192,104874,1,0,0:0:0:0:
448,192,104874,1,0,0:0:0:0:
320,192,104950,1,0,0:0:0:0:
192,192,105027,1,0,0:0:0:0:
64,192,105103,1,0,0:0:0:0:
64,192,105217,1,0,0:0:0:0:
320,192,105332,1,0,0:0:0:0:
448,192,105332,1,0,0:0:0:0:
320,192,105561,1,0,0:0:0:0:
320,192,105676,1,0,0:0:0:0:
448,192,105790,1,0,0:0:0:0:
64,192,105790,1,0,0:0:0:0:
192,192,105866,1,0,0:0:0:0:
64,192,105943,1,0,0:0:0:0:
192,192,106019,1,0,0:0:0:0:
448,192,106019,1,0,0:0:0:0:
320,192,106134,1,0,0:0:0:0:
192,192,106248,1,0,0:0:0:0:
448,192,106248,1,0,0:0:0:0:
64,192,106477,1,0,0:0:0:0:
320,192,106553,1,0,0:0:0:0:
192,192,106630,1,0,0:0:0:0:
64,192,106706,1,0,0:0:0:0:
448,192,106706,1,0,0:0:0:0:
448,192,106935,1,0,0:0:0:0:
192,192,107011,1,0,0:0:0:0:
320,192,107088,1,0,0:0:0:0:
448,192,107164,1,0,0:0:0:0:
64,192,107164,1,0,0:0:0:0:
320,192,107279,1,0,0:0:0:0:
192,192,107393,1,0,0:0:0:0:
192,192,107508,1,0,0:0:0:0:
64,192,107622,1,0,0:0:0:0:
448,192,107622,1,0,0:0:0:0:
320,192,107698,1,0,0:0:0:0:
448,192,107775,1,0,0:0:0:0:
320,192,107851,1,0,0:0:0:0:
64,192,107851,1,0,0:0:0:0:
192,192,107966,1,0,0:0:0:0:
64,192,108080,1,0,0:0:0:0:
448,192,108080,1,0,0:0:0:0:
320,192,108309,1,0,0:0:0:0:
192,192,108309,1,0,0:0:0:0:
448,192,108424,1,0,0:0:0:0:
320,192,108424,1,0,0:0:0:0:
192,192,108538,1,0,0:0:0:0:
64,192,108538,1,0,0:0:0:0:
448,192,108653,1,0,0:0:0:0:
320,192,108767,1,0,0:0:0:0:
448,192,108843,1,0,0:0:0:0:
192,192,108920,1,0,0:0:0:0:
64,192,108996,1,0,0:0:0:0:
448,192,108996,1,0,0:0:0:0:
320,192,109111,1,0,0:0:0:0:
192,192,109225,1,0,0:0:0:0:
320,192,109301,1,0,0:0:0:0:
448,192,109378,1,0,0:0:0:0:
192,192,109454,1,0,0:0:0:0:
64,192,109454,1,0,0:0:0:0:
192,192,109569,1,0,0:0:0:0:
64,192,109569,1,0,0:0:0:0:
320,192,109683,1,0,0:0:0:0:
448,192,109683,1,0,0:0:0:0:
320,192,109798,1,0,0:0:0:0:
192,192,109798,1,0,0:0:0:0:
64,192,109912,1,0,0:0:0:0:
448,192,109912,1,0,0:0:0:0:
320,192,110027,1,0,0:0:0:0:
64,192,110141,1,0,0:0:0:0:
192,192,110217,1,0,0:0:0:0:
320,192,110294,1,0,0:0:0:0:
448,192,110370,1,0,0:0:0:0:
64,192,110370,1,0,0:0:0:0:
192,192,110485,1,0,0:0:0:0:
320,192,110599,1,0,0:0:0:0:
64,192,110676,1,0,0:0:0:0:
320,192,110752,1,0,0:0:0:0:
192,192,110828,1,0,0:0:0:0:
448,192,110828,1,0,0:0:0:0:
64,192,110943,1,0,0:0:0:0:
192,192,111057,1,0,0:0:0:0:
448,192,111134,1,0,0:0:0:0:
320,192,111210,1,0,0:0:0:0:
64,192,111286,1,0,0:0:0:0:
448,192,111286,1,0,0:0:0:0:
192,192,111363,1,0,0:0:0:0:
64,192,111439,1,0,0:0:0:0:
320,192,111515,1,0,0:0:0:0:
448,192,111515,1,0,0:0:0:0:
448,192,111630,1,0,0:0:0:0:
320,192,111630,1,0,0:0:0:0:
192,192,111744,1,0,0:0:0:0:
64,192,111744,1,0,0:0:0:0:
64,192,111859,1,0,0:0:0:0:
192,192,111859,1,0,0:0:0:0:
320,192,111973,1,0,0:0:0:0:
448,192,111973,1,0,0:0:0:0:
320,192,112088,1,0,0:0:0:0:
192,192,112088,1,0,0:0:0:0:
64,192,112202,1,0,0:0:0:0:
448,192,112202,1,0,0:0:0:0:
320,192,112279,1,0,0:0:0:0:
192,192,112355,1,0,0:0:0:0:
64,192,112431,1,0,0:0:0:0:
64,192,112546,1,0,0:0:0:0:
320,192,112660,1,0,0:0:0:0:
448,192,112660,1,0,0:0:0:0:
320,192,112889,1,0,0:0:0:0:
320,192,113004,1,0,0:0:0:0:
448,192,113118,1,0,0:0:0:0:
64,192,113118,1,0,0:0:0:0:
192,192,113195,1,0,0:0:0:0:
64,192,113271,1,0,0:0:0:0:
192,192,113347,1,0,0:0:0:0:
448,192,113347,1,0,0:0:0:0:
320,192,113462,1,0,0:0:0:0:
192,192,113576,1,0,0:0:0:0:
448,192,113576,1,0,0:0:0:0:
64,192,113805,1,0,0:0:0:0:
320,192,113882,1,0,0:0:0:0:
192,192,113958,1,0,0:0:0:0:
64,192,114034,1,0,0:0:0:0:
448,192,114034,1,0,0:0:0:0:
448,192,114263,1,0,0:0:0:0:
192,192,114340,1,0,0:0:0:0:
320,192,114416,1,0,0:0:0:0:
448,192,114492,1,0,0:0:0:0:
64,192,114492,1,0,0:0:0:0:
192,192,114721,1,0,0:0:0:0:
192,192,114836,1,0,0:0:0:0:
64,192,114950,1,0,0:0:0:0:
448,192,114950,1,0,0:0:0:0:
320,192,115027,1,0,0:0:0:0:
448,192,115103,1,0,0:0:0:0:
320,192,115179,1,0,0:0:0:0:
64,192,115179,1,0,0:0:0:0:
192,192,115294,1,0,0:0:0:0:
64,192,115408,1,0,0:0:0:0:
448,192,115408,1,0,0:0:0:0:
320,192,115637,1,0,0:0:0:0:
192,192,115637,1,0,0:0:0:0:
448,192,115752,1,0,0:0:0:0:
320,192,115752,1,0,0:0:0:0:
192,192,115866,1,0,0:0:0:0:
64,192,115866,1,0,0:0:0:0:
448,192,115981,1,0,0:0:0:0:
320,192,116095,1,0,0:0:0:0:
448,192,116172,1,0,0:0:0:0:
192,192,116248,1,0,0:0:0:0:
64,192,116324,1,0,0:0:0:0:
448,192,116324,1,0,0:0:0:0:
320,192,116439,1,0,0:0:0:0:
192,192,116553,1,0,0:0:0:0:
320,192,116630,1,0,0:0:0:0:
448,192,116706,1,0,0:0:0:0:
192,192,116782,1,0,0:0:0:0:
64,192,116782,1,0,0:0:0:0:
192,192,116897,1,0,0:0:0:0:
64,192,116897,1,0,0:0:0:0:
320,192,117011,1,0,0:0:0:0:
448,192,117011,1,0,0:0:0:0:
320,192,117126,1,0,0:0:0:0:
192,192,117126,1,0,0:0:0:0:
192,192,117240,1,0,0:0:0:0:
64,192,117240,1,0,0:0:0:0:
448,192,117240,1,0,0:0:0:0:
320,192,117469,128,0,118042:0:0:0:0:
448,192,117469,128,0,118958:0:0:0:0:
64,192,117469,128,0,118958:0:0:0:0:
192,192,117927,128,0,118271:0:0:0:0:
320,192,118156,128,0,118500:0:0:0:0:
192,192,118385,128,0,118958:0:0:0:0:
320,192,118614,128,0,118958:0:0:0:0:
64,192,119072,128,0,119416:0:0:0:0:
320,192,119072,128,0,119416:0:0:0:0:
448,192,119072,128,0,119416:0:0:0:0:
192,192,119072,128,0,119416:0:0:0:0:
64,192,119530,5,0,0:0:0:0:
448,192,119530,1,0,0:0:0:0:
192,192,119622,5,0,0:0:0:0:
320,192,119714,1,0,0:0:0:0:
64,192,119759,1,0,0:0:0:0:
192,192,119836,1,0,0:0:0:0:
64,192,119912,1,0,0:0:0:0:
320,192,119988,1,0,0:0:0:0:
448,192,119988,1,0,0:0:0:0:
448,192,120103,1,0,0:0:0:0:
320,192,120217,1,0,0:0:0:0:
192,192,120217,1,0,0:0:0:0:
192,192,120332,1,0,0:0:0:0:
64,192,120447,1,0,0:0:0:0:
448,192,120447,1,0,0:0:0:0:
320,192,120538,1,0,0:0:0:0:
192,192,120630,1,0,0:0:0:0:
64,192,120721,1,0,0:0:0:0:
320,192,120790,1,0,0:0:0:0:
320,192,120905,1,0,0:0:0:0:
448,192,120905,1,0,0:0:0:0:
64,192,121019,1,0,0:0:0:0:
192,192,121134,1,0,0:0:0:0:
192,192,121248,1,0,0:0:0:0:
448,192,121363,1,0,0:0:0:0:
64,192,121363,1,0,0:0:0:0:
320,192,121439,1,0,0:0:0:0:
64,192,121515,1,0,0:0:0:0:
192,192,121592,1,0,0:0:0:0:
320,192,121706,1,0,0:0:0:0:
320,192,121821,1,0,0:0:0:0:
64,192,121821,1,0,0:0:0:0:
448,192,121897,1,0,0:0:0:0:
64,192,121973,1,0,0:0:0:0:
320,192,122050,1,0,0:0:0:0:
192,192,122126,1,0,0:0:0:0:
448,192,122202,1,0,0:0:0:0:
64,192,122279,1,0,0:0:0:0:
192,192,122279,1,0,0:0:0:0:
320,192,122393,1,0,0:0:0:0:
192,192,122508,128,0,122622:0:0:0:0:
64,192,122508,128,0,122622:0:0:0:0:
448,192,122508,128,0,122622:0:0:0:0:
64,192,122737,128,0,122851:0:0:0:0:
192,192,122737,128,0,122851:0:0:0:0:
448,192,122737,128,0,122851:0:0:0:0:
320,192,122851,1,0,0:0:0:0:
192,192,122966,1,0,0:0:0:0:
320,192,123080,1,0,0:0:0:0:
320,192,123195,1,0,0:0:0:0:
64,192,123195,1,0,0:0:0:0:
448,192,123286,1,0,0:0:0:0:
320,192,123378,1,0,0:0:0:0:
192,192,123469,1,0,0:0:0:0:
448,192,123653,1,0,0:0:0:0:
192,192,123653,1,0,0:0:0:0:
64,192,123729,1,0,0:0:0:0:
320,192,123805,1,0,0:0:0:0:
192,192,123882,1,0,0:0:0:0:
448,192,123996,1,0,0:0:0:0:
448,192,124111,1,0,0:0:0:0:
320,192,124111,1,0,0:0:0:0:
64,192,124187,1,0,0:0:0:0:
192,192,124263,1,0,0:0:0:0:
320,192,124340,1,0,0:0:0:0:
192,192,124416,1,0,0:0:0:0:
64,192,124569,1,0,0:0:0:0:
448,192,124569,1,0,0:0:0:0:
320,192,124645,1,0,0:0:0:0:
192,192,124721,1,0,0:0:0:0:
448,192,124798,1,0,0:0:0:0:
192,192,124874,1,0,0:0:0:0:
64,192,125027,1,0,0:0:0:0:
448,192,125027,1,0,0:0:0:0:
320,192,125103,1,0,0:0:0:0:
320,192,125256,1,0,0:0:0:0:
192,192,125370,1,0,0:0:0:0:
192,192,125485,1,0,0:0:0:0:
448,192,125485,1,0,0:0:0:0:
64,192,125561,1,0,0:0:0:0:
320,192,125714,1,0,0:0:0:0:
448,192,125790,1,0,0:0:0:0:
192,192,125943,1,0,0:0:0:0:
448,192,125943,1,0,0:0:0:0:
64,192,126019,1,0,0:0:0:0:
320,192,126095,1,0,0:0:0:0:
192,192,126172,1,0,0:0:0:0:
192,192,126286,1,0,0:0:0:0:
448,192,126401,128,0,126744:0:0:0:0:
320,192,126401,128,0,126744:0:0:0:0:
192,192,126401,128,0,126744:0:0:0:0:
64,192,126401,128,0,126744:0:0:0:0:
320,192,126859,1,0,0:0:0:0:
64,192,126859,1,0,0:0:0:0:
448,192,126859,1,0,0:0:0:0:
320,192,126973,1,0,0:0:0:0:
448,192,126973,1,0,0:0:0:0:
192,192,127088,1,0,0:0:0:0:
64,192,127088,1,0,0:0:0:0:
192,192,127202,1,0,0:0:0:0:
448,192,127202,1,0,0:0:0:0:
320,192,127317,1,0,0:0:0:0:
64,192,127317,1,0,0:0:0:0:
448,192,127408,1,0,0:0:0:0:
320,192,127500,1,0,0:0:0:0:
192,192,127592,1,0,0:0:0:0:
320,192,127683,1,0,0:0:0:0:
448,192,127775,1,0,0:0:0:0:
64,192,127775,1,0,0:0:0:0:
448,192,127889,1,0,0:0:0:0:
64,192,127889,1,0,0:0:0:0:
192,192,128004,1,0,0:0:0:0:
320,192,128080,1,0,0:0:0:0:
192,192,128156,1,0,0:0:0:0:
320,192,128233,1,0,0:0:0:0:
64,192,128233,1,0,0:0:0:0:
448,192,128233,1,0,0:0:0:0:
64,192,128347,1,0,0:0:0:0:
448,192,128462,1,0,0:0:0:0:
192,192,128462,1,0,0:0:0:0:
448,192,128576,1,0,0:0:0:0:
192,192,128691,1,0,0:0:0:0:
64,192,128691,1,0,0:0:0:0:
320,192,128767,1,0,0:0:0:0:
192,192,128843,1,0,0:0:0:0:
64,192,128920,1,0,0:0:0:0:
448,192,128920,1,0,0:0:0:0:
320,192,129034,1,0,0:0:0:0:
448,192,129149,1,0,0:0:0:0:
64,192,129149,1,0,0:0:0:0:
192,192,129225,1,0,0:0:0:0:
320,192,129301,1,0,0:0:0:0:
448,192,129378,1,0,0:0:0:0:
192,192,129378,1,0,0:0:0:0:
64,192,129454,1,0,0:0:0:0:
320,192,129530,1,0,0:0:0:0:
64,192,129607,1,0,0:0:0:0:
448,192,129607,1,0,0:0:0:0:
192,192,129683,1,0,0:0:0:0:
320,192,129759,1,0,0:0:0:0:
192,192,129836,128,0,129950:0:0:0:0:
64,192,129836,128,0,129950:0:0:0:0:
448,192,129836,128,0,129950:0:0:0:0:
448,192,130065,128,0,130179:0:0:0:0:
192,192,130065,128,0,130179:0:0:0:0:
64,192,130065,128,0,130179:0:0:0:0:
320,192,130294,1,0,0:0:0:0:
320,192,130408,1,0,0:0:0:0:
448,192,130523,1,0,0:0:0:0:
64,192,130523,1,0,0:0:0:0:
320,192,130599,1,0,0:0:0:0:
448,192,130676,1,0,0:0:0:0:
320,192,130752,1,0,0:0:0:0:
64,192,130752,1,0,0:0:0:0:
448,192,130828,1,0,0:0:0:0:
192,192,130866,1,0,0:0:0:0:
448,192,130981,1,0,0:0:0:0:
64,192,130981,1,0,0:0:0:0:
320,192,131095,1,0,0:0:0:0:
192,192,131210,1,0,0:0:0:0:
192,192,131324,1,0,0:0:0:0:
64,192,131439,1,0,0:0:0:0:
448,192,131439,1,0,0:0:0:0:
192,192,131515,1,0,0:0:0:0:
64,192,131592,1,0,0:0:0:0:
192,192,131668,1,0,0:0:0:0:
448,192,131668,1,0,0:0:0:0:
64,192,131744,1,0,0:0:0:0:
320,192,131782,1,0,0:0:0:0:
448,192,131897,1,0,0:0:0:0:
64,192,131897,1,0,0:0:0:0:
192,192,132011,1,0,0:0:0:0:
320,192,132126,1,0,0:0:0:0:
64,192,132202,1,0,0:0:0:0:
320,192,132279,1,0,0:0:0:0:
448,192,132355,1,0,0:0:0:0:
192,192,132355,128,0,132469:0:0:0:0:
64,192,132355,128,0,132469:0:0:0:0:
448,192,132584,1,0,0:0:0:0:
320,192,132584,128,0,132698:0:0:0:0:
192,192,132584,128,0,132698:0:0:0:0:
64,192,132813,1,0,0:0:0:0:
320,192,132813,128,0,132927:0:0:0:0:
448,192,132813,128,0,132927:0:0:0:0:
64,192,133042,1,0,0:0:0:0:
320,192,133042,128,0,133156:0:0:0:0:
192,192,133042,128,0,133156:0:0:0:0:
320,192,133271,1,0,0:0:0:0:
64,192,133271,128,0,133614:0:0:0:0:
448,192,133271,128,0,133614:0:0:0:0:
192,192,133385,1,0,0:0:0:0:
320,192,133500,1,0,0:0:0:0:
192,192,133614,1,0,0:0:0:0:
64,192,133729,128,0,134072:0:0:0:0:
320,192,133729,128,0,134072:0:0:0:0:
448,192,133729,128,0,134072:0:0:0:0:
192,192,134416,1,0,0:0:0:0:
64,192,134645,1,0,0:0:0:0:
320,192,134874,1,0,0:0:0:0:
192,192,135103,1,0,0:0:0:0:
448,192,135332,1,0,0:0:0:0:
320,192,135561,1,0,0:0:0:0:
192,192,135790,1,0,0:0:0:0:
320,192,136019,1,0,0:0:0:0:
64,192,136019,1,0,0:0:0:0:
448,192,136095,1,0,0:0:0:0:
192,192,136172,1,0,0:0:0:0:
320,192,136248,1,0,0:0:0:0:
64,192,136324,1,0,0:0:0:0:
192,192,136401,1,0,0:0:0:0:
320,192,136477,1,0,0:0:0:0:
448,192,136592,1,0,0:0:0:0:
192,192,136706,1,0,0:0:0:0:
64,192,136706,1,0,0:0:0:0:
320,192,136763,1,0,0:0:0:0:
448,192,136821,1,0,0:0:0:0:
320,192,136878,1,0,0:0:0:0:
192,192,136935,1,0,0:0:0:0:
64,192,137011,1,0,0:0:0:0:
320,192,137088,1,0,0:0:0:0:
64,192,137164,1,0,0:0:0:0:
320,192,137240,1,0,0:0:0:0:
192,192,137317,1,0,0:0:0:0:
320,192,137393,1,0,0:0:0:0:
448,192,137469,1,0,0:0:0:0:
192,192,137546,1,0,0:0:0:0:
448,192,137622,1,0,0:0:0:0:
192,192,137698,1,0,0:0:0:0:
320,192,137775,1,0,0:0:0:0:
448,192,137851,1,0,0:0:0:0:
448,192,138309,1,0,0:0:0:0:
448,192,138538,1,0,0:0:0:0:
64,192,138538,1,0,0:0:0:0:
448,192,138653,1,0,0:0:0:0:
192,192,138653,1,0,0:0:0:0:
320,192,138767,1,0,0:0:0:0:
192,192,138996,1,0,0:0:0:0:
448,192,138996,1,0,0:0:0:0:
64,192,139034,1,0,0:0:0:0:
192,192,139111,1,0,0:0:0:0:
320,192,139149,1,0,0:0:0:0:
64,192,139225,1,0,0:0:0:0:
448,192,139225,1,0,0:0:0:0:
192,192,139282,1,0,0:0:0:0:
320,192,139454,1,0,0:0:0:0:
64,192,139454,1,0,0:0:0:0:
448,192,139492,1,0,0:0:0:0:
320,192,139569,1,0,0:0:0:0:
192,192,139607,1,0,0:0:0:0:
448,192,139683,1,0,0:0:0:0:
64,192,139683,1,0,0:0:0:0:
320,192,139798,1,0,0:0:0:0:
64,192,139912,1,0,0:0:0:0:
192,192,139988,1,0,0:0:0:0:
320,192,140065,1,0,0:0:0:0:
448,192,140141,1,0,0:0:0:0:
320,192,140370,1,0,0:0:0:0:
448,192,140370,1,0,0:0:0:0:
192,192,140427,1,0,0:0:0:0:
64,192,140485,1,0,0:0:0:0:
192,192,140542,1,0,0:0:0:0:
320,192,140599,1,0,0:0:0:0:
448,192,140656,1,0,0:0:0:0:
192,192,140828,1,0,0:0:0:0:
320,192,140885,1,0,0:0:0:0:
64,192,141057,1,0,0:0:0:0:
192,192,141114,1,0,0:0:0:0:
448,192,141172,1,0,0:0:0:0:
320,192,141229,1,0,0:0:0:0:
64,192,141286,1,0,0:0:0:0:
192,192,141343,1,0,0:0:0:0:
448,192,141401,1,0,0:0:0:0:
320,192,141458,1,0,0:0:0:0:
64,192,141515,1,0,0:0:0:0:
320,192,141744,1,0,0:0:0:0:
448,192,141973,1,0,0:0:0:0:
192,192,142202,1,0,0:0:0:0:
64,192,142202,1,0,0:0:0:0:
320,192,142431,1,0,0:0:0:0:
64,192,142660,1,0,0:0:0:0:
448,192,142660,1,0,0:0:0:0:
192,192,142889,1,0,0:0:0:0:
192,192,143004,1,0,0:0:0:0:
320,192,143118,1,0,0:0:0:0:
320,192,143233,1,0,0:0:0:0:
192,192,143347,1,0,0:0:0:0:
448,192,143347,1,0,0:0:0:0:
64,192,143424,1,0,0:0:0:0:
320,192,143500,1,0,0:0:0:0:
192,192,143576,1,0,0:0:0:0:
448,192,143653,1,0,0:0:0:0:
320,192,143729,1,0,0:0:0:0:
192,192,143805,1,0,0:0:0:0:
64,192,143920,1,0,0:0:0:0:
320,192,144034,1,0,0:0:0:0:
448,192,144034,1,0,0:0:0:0:
192,192,144092,1,0,0:0:0:0:
64,192,144149,1,0,0:0:0:0:
192,192,144206,1,0,0:0:0:0:
320,192,144263,1,0,0:0:0:0:
448,192,144340,1,0,0:0:0:0:
192,192,144416,1,0,0:0:0:0:
448,192,144492,1,0,0:0:0:0:
192,192,144569,1,0,0:0:0:0:
320,192,144645,1,0,0:0:0:0:
192,192,144721,1,0,0:0:0:0:
64,192,144798,1,0,0:0:0:0:
320,192,144874,1,0,0:0:0:0:
64,192,144950,1,0,0:0:0:0:
320,192,145027,1,0,0:0:0:0:
192,192,145103,1,0,0:0:0:0:
64,192,145179,1,0,0:0:0:0:
64,192,145637,1,0,0:0:0:0:
64,192,145866,1,0,0:0:0:0:
448,192,145866,1,0,0:0:0:0:
64,192,145981,1,0,0:0:0:0:
320,192,145981,1,0,0:0:0:0:
192,192,146095,1,0,0:0:0:0:
320,192,146324,1,0,0:0:0:0:
64,192,146324,1,0,0:0:0:0:
448,192,146363,1,0,0:0:0:0:
320,192,146439,1,0,0:0:0:0:
192,192,146477,1,0,0:0:0:0:
448,192,146553,1,0,0:0:0:0:
64,192,146553,1,0,0:0:0:0:
320,192,146611,1,0,0:0:0:0:
192,192,146782,1,0,0:0:0:0:
448,192,146782,1,0,0:0:0:0:
64,192,146821,1,0,0:0:0:0:
192,192,146897,1,0,0:0:0:0:
320,192,146935,1,0,0:0:0:0:
64,192,147011,1,0,0:0:0:0:
448,192,147011,1,0,0:0:0:0:
192,192,147126,1,0,0:0:0:0:
448,192,147240,1,0,0:0:0:0:
320,192,147317,1,0,0:0:0:0:
192,192,147393,1,0,0:0:0:0:
64,192,147469,1,0,0:0:0:0:
192,192,147698,1,0,0:0:0:0:
64,192,147698,1,0,0:0:0:0:
320,192,147756,1,0,0:0:0:0:
448,192,147813,1,0,0:0:0:0:
320,192,147870,1,0,0:0:0:0:
192,192,147927,1,0,0:0:0:0:
64,192,148004,1,0,0:0:0:0:
320,192,148080,1,0,0:0:0:0:
64,192,148156,1,0,0:0:0:0:
320,192,148233,1,0,0:0:0:0:
192,192,148309,1,0,0:0:0:0:
320,192,148385,1,0,0:0:0:0:
448,192,148462,1,0,0:0:0:0:
192,192,148538,1,0,0:0:0:0:
448,192,148614,1,0,0:0:0:0:
192,192,148691,1,0,0:0:0:0:
320,192,148767,1,0,0:0:0:0:
448,192,148843,1,0,0:0:0:0:
192,192,149111,128,0,149530:0:0:0:0:
64,192,149187,128,0,149454:0:0:0:0:
448,192,149301,1,0,0:0:0:0:
320,192,149530,1,0,0:0:0:0:
448,192,149530,1,0,0:0:0:0:
64,192,149759,1,0,0:0:0:0:
448,192,149759,1,0,0:0:0:0:
320,192,149836,1,0,0:0:0:0:
192,192,149912,1,0,0:0:0:0:
64,192,149988,1,0,0:0:0:0:
448,192,149988,1,0,0:0:0:0:
320,192,150065,1,0,0:0:0:0:
64,192,150141,1,0,0:0:0:0:
448,192,150217,1,0,0:0:0:0:
192,192,150294,1,0,0:0:0:0:
448,192,150370,1,0,0:0:0:0:
64,192,150447,1,0,0:0:0:0:
320,192,150447,1,0,0:0:0:0:
192,192,150523,1,0,0:0:0:0:
448,192,150599,1,0,0:0:0:0:
64,192,150676,1,0,0:0:0:0:
320,192,150676,1,0,0:0:0:0:
64,192,150790,1,0,0:0:0:0:
320,192,150905,1,0,0:0:0:0:
64,192,150981,1,0,0:0:0:0:
320,192,151057,1,0,0:0:0:0:
448,192,151134,1,0,0:0:0:0:
192,192,151191,1,0,0:0:0:0:
64,192,151248,1,0,0:0:0:0:
64,192,151363,1,0,0:0:0:0:
320,192,151363,1,0,0:0:0:0:
448,192,151439,1,0,0:0:0:0:
320,192,151515,1,0,0:0:0:0:
192,192,151592,1,0,0:0:0:0:
64,192,151592,1,0,0:0:0:0:
192,192,151706,1,0,0:0:0:0:
320,192,151821,1,0,0:0:0:0:
64,192,151897,1,0,0:0:0:0:
320,192,151973,1,0,0:0:0:0:
448,192,152050,1,0,0:0:0:0:
448,192,152164,1,0,0:0:0:0:
320,192,152279,1,0,0:0:0:0:
64,192,152336,1,0,0:0:0:0:
320,192,152393,1,0,0:0:0:0:
192,192,152508,1,0,0:0:0:0:
64,192,152584,1,0,0:0:0:0:
320,192,152660,1,0,0:0:0:0:
192,192,152737,1,0,0:0:0:0:
320,192,152851,1,0,0:0:0:0:
448,192,152966,1,0,0:0:0:0:
448,192,153080,1,0,0:0:0:0:
192,192,153195,1,0,0:0:0:0:
64,192,153195,1,0,0:0:0:0:
192,192,153309,1,0,0:0:0:0:
320,192,153309,1,0,0:0:0:0:
320,192,153424,1,0,0:0:0:0:
448,192,153424,1,0,0:0:0:0:
64,192,153500,1,0,0:0:0:0:
192,192,153576,1,0,0:0:0:0:
64,192,153653,1,0,0:0:0:0:
320,192,153653,1,0,0:0:0:0:
320,192,153767,1,0,0:0:0:0:
192,192,153882,1,0,0:0:0:0:
64,192,153958,1,0,0:0:0:0:
448,192,153996,1,0,0:0:0:0:
192,192,154034,1,0,0:0:0:0:
320,192,154111,1,0,0:0:0:0:
192,192,154225,1,0,0:0:0:0:
64,192,154340,1,0,0:0:0:0:
448,192,154340,1,0,0:0:0:0:
448,192,154454,1,0,0:0:0:0:
192,192,154569,1,0,0:0:0:0:
320,192,154683,1,0,0:0:0:0:
192,192,154740,1,0,0:0:0:0:
64,192,154798,1,0,0:0:0:0:
64,192,154912,1,0,0:0:0:0:
320,192,155027,1,0,0:0:0:0:
448,192,155027,1,0,0:0:0:0:
64,192,155141,1,0,0:0:0:0:
320,192,155256,1,0,0:0:0:0:
192,192,155256,1,0,0:0:0:0:
448,192,155332,1,0,0:0:0:0:
320,192,155408,1,0,0:0:0:0:
192,192,155485,1,0,0:0:0:0:
320,192,155561,1,0,0:0:0:0:
64,192,155637,1,0,0:0:0:0:
192,192,155714,1,0,0:0:0:0:
448,192,155714,1,0,0:0:0:0:
192,192,155828,1,0,0:0:0:0:
448,192,155828,1,0,0:0:0:0:
320,192,155943,1,0,0:0:0:0:
64,192,155943,1,0,0:0:0:0:
64,192,156057,1,0,0:0:0:0:
320,192,156057,1,0,0:0:0:0:
448,192,156172,1,0,0:0:0:0:
192,192,156172,1,0,0:0:0:0:
64,192,156248,1,0,0:0:0:0:
192,192,156324,1,0,0:0:0:0:
320,192,156401,1,0,0:0:0:0:
320,192,156515,1,0,0:0:0:0:
192,192,156630,1,0,0:0:0:0:
448,192,156630,1,0,0:0:0:0:
192,192,156744,1,0,0:0:0:0:
320,192,156859,1,0,0:0:0:0:
320,192,156973,1,0,0:0:0:0:
64,192,157088,1,0,0:0:0:0:
448,192,157088,1,0,0:0:0:0:
192,192,157164,1,0,0:0:0:0:
448,192,157240,1,0,0:0:0:0:
320,192,157317,1,0,0:0:0:0:
64,192,157431,1,0,0:0:0:0:
320,192,157546,1,0,0:0:0:0:
448,192,157546,1,0,0:0:0:0:
320,192,157660,1,0,0:0:0:0:
448,192,157660,1,0,0:0:0:0:
192,192,157775,1,0,0:0:0:0:
64,192,157775,1,0,0:0:0:0:
64,192,157889,1,0,0:0:0:0:
192,192,157889,1,0,0:0:0:0:
320,192,158004,1,0,0:0:0:0:
448,192,158004,1,0,0:0:0:0:
64,192,158080,1,0,0:0:0:0:
448,192,158156,1,0,0:0:0:0:
192,192,158233,1,0,0:0:0:0:
448,192,158309,1,0,0:0:0:0:
64,192,158385,1,0,0:0:0:0:
448,192,158462,1,0,0:0:0:0:
192,192,158538,1,0,0:0:0:0:
448,192,158614,1,0,0:0:0:0:
64,192,158691,1,0,0:0:0:0:
448,192,158767,1,0,0:0:0:0:
192,192,158843,1,0,0:0:0:0:
320,192,158920,1,0,0:0:0:0:
448,192,158920,1,0,0:0:0:0:
192,192,159034,1,0,0:0:0:0:
64,192,159149,1,0,0:0:0:0:
192,192,159263,1,0,0:0:0:0:
320,192,159378,1,0,0:0:0:0:
448,192,159454,1,0,0:0:0:0:
320,192,159530,1,0,0:0:0:0:
192,192,159607,1,0,0:0:0:0:
320,192,159683,1,0,0:0:0:0:
192,192,159759,1,0,0:0:0:0:
64,192,159836,1,0,0:0:0:0:
448,192,159836,1,0,0:0:0:0:
192,192,159950,1,0,0:0:0:0:
320,192,160065,1,0,0:0:0:0:
448,192,160065,1,0,0:0:0:0:
192,192,160179,1,0,0:0:0:0:
64,192,160294,1,0,0:0:0:0:
320,192,160294,1,0,0:0:0:0:
448,192,160408,1,0,0:0:0:0:
320,192,160523,1,0,0:0:0:0:
192,192,160523,1,0,0:0:0:0:
192,192,160637,1,0,0:0:0:0:
64,192,160637,1,0,0:0:0:0:
320,192,160752,1,0,0:0:0:0:
448,192,160752,1,0,0:0:0:0:
64,192,160752,1,0,0:0:0:0:
320,192,160866,1,0,0:0:0:0:
64,192,160981,1,0,0:0:0:0:
448,192,160981,1,0,0:0:0:0:
192,192,161095,1,0,0:0:0:0:
448,192,161210,1,0,0:0:0:0:
64,192,161324,1,0,0:0:0:0:
448,192,161324,1,0,0:0:0:0:
192,192,161439,1,0,0:0:0:0:
192,192,161553,1,0,0:0:0:0:
448,192,161668,1,0,0:0:0:0:
64,192,161668,1,0,0:0:0:0:
448,192,161782,1,0,0:0:0:0:
64,192,161897,1,0,0:0:0:0:
64,192,162011,1,0,0:0:0:0:
448,192,162126,1,0,0:0:0:0:
448,192,162240,1,0,0:0:0:0:
64,192,162355,1,0,0:0:0:0:
320,192,162355,1,0,0:0:0:0:
64,192,162469,1,0,0:0:0:0:
320,192,162584,1,0,0:0:0:0:
448,192,162584,1,0,0:0:0:0:
192,192,162641,1,0,0:0:0:0:
64,192,162813,1,0,0:0:0:0:
192,192,162870,1,0,0:0:0:0:
320,192,163042,1,0,0:0:0:0:
192,192,163099,1,0,0:0:0:0:
320,192,163271,1,0,0:0:0:0:
448,192,163328,1,0,0:0:0:0:
192,192,163500,1,0,0:0:0:0:
64,192,163500,1,0,0:0:0:0:
320,192,163576,1,0,0:0:0:0:
192,192,163653,1,0,0:0:0:0:
64,192,163729,1,0,0:0:0:0:
64,192,163843,1,0,0:0:0:0:
448,192,163843,1,0,0:0:0:0:
320,192,163958,1,0,0:0:0:0:
448,192,164034,1,0,0:0:0:0:
192,192,164111,1,0,0:0:0:0:
64,192,164187,1,0,0:0:0:0:
448,192,164187,1,0,0:0:0:0:
192,192,164263,1,0,0:0:0:0:
320,192,164340,1,0,0:0:0:0:
448,192,164416,128,0,164874:0:0:0:0:
64,192,164416,128,0,165103:0:0:0:0:
320,192,164988,1,0,0:0:0:0:
448,192,164988,1,0,0:0:0:0:
320,192,165103,1,0,0:0:0:0:
448,192,165103,1,0,0:0:0:0:
192,192,165217,1,0,0:0:0:0:
64,192,165217,1,0,0:0:0:0:
64,192,165332,1,0,0:0:0:0:
192,192,165332,1,0,0:0:0:0:
448,192,165332,1,0,0:0:0:0:
448,192,165790,1,0,0:0:0:0:
448,192,166248,1,0,0:0:0:0:
448,192,166706,1,0,0:0:0:0:
448,192,166935,1,0,0:0:0:0:
320,192,166935,1,0,0:0:0:0:
448,192,167164,1,0,0:0:0:0:
320,192,167164,1,0,0:0:0:0:
192,192,167164,1,0,0:0:0:0:
192,192,167622,1,0,0:0:0:0:
192,192,168080,1,0,0:0:0:0:
192,192,168538,1,0,0:0:0:0:
192,192,168767,1,0,0:0:0:0:
320,192,168882,1,0,0:0:0:0:
64,192,168996,1,0,0:0:0:0:
448,192,168996,1,0,0:0:0:0:
192,192,168996,128,0,169225:0:0:0:0:
320,192,169225,128,0,170485:0:0:0:0:
64,192,169454,128,0,169683:0:0:0:0:
192,192,169683,128,0,169912:0:0:0:0:
448,192,169912,128,0,170714:0:0:0:0:
64,192,169912,128,0,170256:0:0:0:0:
192,192,170141,128,0,170599:0:0:0:0:
64,192,170370,128,0,170828:0:0:0:0:
320,192,170599,128,0,170714:0:0:0:0:
192,192,170714,128,0,170828:0:0:0:0:
448,192,170828,128,0,171057:0:0:0:0:
320,192,170828,128,0,171172:0:0:0:0:
192,192,171057,128,0,171401:0:0:0:0:
448,192,171172,128,0,171286:0:0:0:0:
64,192,171172,128,0,171286:0:0:0:0:
320,192,171286,128,0,171630:0:0:0:0:
192,192,171515,128,0,171859:0:0:0:0:
64,192,171515,128,0,171859:0:0:0:0:
320,192,171744,128,0,171859:0:0:0:0:
448,192,171744,128,0,172202:0:0:0:0:
192,192,171973,128,0,172088:0:0:0:0:
320,192,171973,1,0,0:0:0:0:
64,192,172202,128,0,172317:0:0:0:0:
192,192,172202,1,0,0:0:0:0:
448,192,172317,1,0,0:0:0:0:
192,192,172431,128,0,172546:0:0:0:0:
320,192,172431,1,0,0:0:0:0:
448,192,172660,1,0,0:0:0:0:
64,192,172660,1,0,0:0:0:0:
320,192,172660,1,0,0:0:0:0:
320,192,172775,1,0,0:0:0:0:
448,192,172889,1,0,0:0:0:0:
64,192,172889,1,0,0:0:0:0:
64,192,173004,1,0,0:0:0:0:
320,192,173118,1,0,0:0:0:0:
448,192,173118,1,0,0:0:0:0:
192,192,173118,1,0,0:0:0:0:
448,192,173233,1,0,0:0:0:0:
192,192,173347,1,0,0:0:0:0:
64,192,173347,1,0,0:0:0:0:
192,192,173462,1,0,0:0:0:0:
64,192,173576,1,0,0:0:0:0:
320,192,173576,1,0,0:0:0:0:
448,192,173576,1,0,0:0:0:0:
448,192,173691,1,0,0:0:0:0:
320,192,173805,1,0,0:0:0:0:
64,192,173805,1,0,0:0:0:0:
64,192,173920,1,0,0:0:0:0:
192,192,174034,1,0,0:0:0:0:
320,192,174034,1,0,0:0:0:0:
448,192,174034,1,0,0:0:0:0:
192,192,174149,1,0,0:0:0:0:
64,192,174263,1,0,0:0:0:0:
448,192,174263,1,0,0:0:0:0:
448,192,174378,1,0,0:0:0:0:
192,192,174492,1,0,0:0:0:0:
64,192,174492,1,0,0:0:0:0:
320,192,174569,1,0,0:0:0:0:
192,192,174645,1,0,0:0:0:0:
64,192,174721,1,0,0:0:0:0:
448,192,174721,1,0,0:0:0:0:
192,192,174836,1,0,0:0:0:0:
320,192,174950,1,0,0:0:0:0:
448,192,174950,1,0,0:0:0:0:
192,192,175027,1,0,0:0:0:0:
320,192,175103,1,0,0:0:0:0:
448,192,175179,1,0,0:0:0:0:
64,192,175179,1,0,0:0:0:0:
320,192,175294,1,0,0:0:0:0:
192,192,175408,1,0,0:0:0:0:
64,192,175408,1,0,0:0:0:0:
320,192,175485,1,0,0:0:0:0:
192,192,175561,1,0,0:0:0:0:
64,192,175637,1,0,0:0:0:0:
448,192,175637,1,0,0:0:0:0:
192,192,175752,1,0,0:0:0:0:
320,192,175866,1,0,0:0:0:0:
64,192,175866,1,0,0:0:0:0:
448,192,175943,1,0,0:0:0:0:
320,192,176019,1,0,0:0:0:0:
192,192,176095,1,0,0:0:0:0:
64,192,176095,1,0,0:0:0:0:
320,192,176324,1,0,0:0:0:0:
448,192,176324,1,0,0:0:0:0:
192,192,176439,1,0,0:0:0:0:
64,192,176439,1,0,0:0:0:0:
320,192,176553,1,0,0:0:0:0:
448,192,176553,1,0,0:0:0:0:
192,192,176668,1,0,0:0:0:0:
64,192,176668,1,0,0:0:0:0:
320,192,176782,1,0,0:0:0:0:
448,192,176782,1,0,0:0:0:0:
192,192,176897,1,0,0:0:0:0:
64,192,176897,1,0,0:0:0:0:
320,192,177011,1,0,0:0:0:0:
448,192,177011,1,0,0:0:0:0:
192,192,177126,1,0,0:0:0:0:
64,192,177126,1,0,0:0:0:0:
320,192,177240,1,0,0:0:0:0:
448,192,177240,1,0,0:0:0:0:
320,192,177355,1,0,0:0:0:0:
448,192,177355,1,0,0:0:0:0:
192,192,177469,1,0,0:0:0:0:
64,192,177469,1,0,0:0:0:0:
64,192,177584,1,0,0:0:0:0:
192,192,177584,1,0,0:0:0:0:
320,192,177698,1,0,0:0:0:0:
448,192,177698,1,0,0:0:0:0:
320,192,177813,1,0,0:0:0:0:
448,192,177813,1,0,0:0:0:0:
192,192,177927,1,0,0:0:0:0:
64,192,177927,1,0,0:0:0:0:
64,192,178042,1,0,0:0:0:0:
192,192,178042,1,0,0:0:0:0:
320,192,178156,1,0,0:0:0:0:
448,192,178156,1,0,0:0:0:0:
64,192,178214,1,0,0:0:0:0:
192,192,178271,1,0,0:0:0:0:
448,192,178328,1,0,0:0:0:0:
320,192,178385,1,0,0:0:0:0:
64,192,178443,1,0,0:0:0:0:
448,192,178500,1,0,0:0:0:0:
192,192,178557,1,0,0:0:0:0:
64,192,178614,1,0,0:0:0:0:
448,192,178672,1,0,0:0:0:0:
320,192,178729,1,0,0:0:0:0:
64,192,178786,1,0,0:0:0:0:
448,192,178843,1,0,0:0:0:0:
192,192,178901,1,0,0:0:0:0:
64,192,178958,1,0,0:0:0:0:
448,192,179015,1,0,0:0:0:0:
320,192,179072,1,0,0:0:0:0:
192,192,179149,1,0,0:0:0:0:
320,192,179225,1,0,0:0:0:0:
192,192,179301,1,0,0:0:0:0:
320,192,179378,1,0,0:0:0:0:
192,192,179454,1,0,0:0:0:0:
64,192,179530,128,0,179874:0:0:0:0:
320,192,179530,128,0,179874:0:0:0:0:
448,192,179530,128,0,179874:0:0:0:0:
448,192,179988,5,0,0:0:0:0:
64,192,179988,1,0,0:0:0:0:
320,192,180080,5,0,0:0:0:0:
192,192,180172,1,0,0:0:0:0:
448,192,180217,1,0,0:0:0:0:
320,192,180294,1,0,0:0:0:0:
448,192,180370,1,0,0:0:0:0:
192,192,180447,1,0,0:0:0:0:
64,192,180447,1,0,0:0:0:0:
64,192,180561,1,0,0:0:0:0:
192,192,180676,1,0,0:0:0:0:
320,192,180676,1,0,0:0:0:0:
320,192,180790,1,0,0:0:0:0:
448,192,180905,1,0,0:0:0:0:
64,192,180905,1,0,0:0:0:0:
192,192,180996,1,0,0:0:0:0:
320,192,181088,1,0,0:0:0:0:
448,192,181179,1,0,0:0:0:0:
192,192,181248,1,0,0:0:0:0:
192,192,181363,1,0,0:0:0:0:
64,192,181363,1,0,0:0:0:0:
448,192,181477,1,0,0:0:0:0:
320,192,181592,1,0,0:0:0:0:
64,192,181592,1,0,0:0:0:0:
320,192,181706,1,0,0:0:0:0:
192,192,181706,1,0,0:0:0:0:
64,192,181821,1,0,0:0:0:0:
448,192,181821,1,0,0:0:0:0:
192,192,181897,1,0,0:0:0:0:
448,192,181973,1,0,0:0:0:0:
320,192,182050,1,0,0:0:0:0:
64,192,182050,1,0,0:0:0:0:
192,192,182164,1,0,0:0:0:0:
320,192,182164,1,0,0:0:0:0:
192,192,182279,1,0,0:0:0:0:
448,192,182279,1,0,0:0:0:0:
64,192,182355,1,0,0:0:0:0:
448,192,182431,1,0,0:0:0:0:
192,192,182508,1,0,0:0:0:0:
320,192,182584,1,0,0:0:0:0:
64,192,182660,1,0,0:0:0:0:
448,192,182737,1,0,0:0:0:0:
320,192,182737,1,0,0:0:0:0:
192,192,182851,1,0,0:0:0:0:
320,192,182966,128,0,183080:0:0:0:0:
448,192,182966,128,0,183080:0:0:0:0:
64,192,182966,128,0,183080:0:0:0:0:
448,192,183195,128,0,183309:0:0:0:0:
320,192,183195,128,0,183309:0:0:0:0:
64,192,183195,128,0,183309:0:0:0:0:
192,192,183309,1,0,0:0:0:0:
320,192,183424,1,0,0:0:0:0:
448,192,183424,1,0,0:0:0:0:
192,192,183538,1,0,0:0:0:0:
64,192,183538,1,0,0:0:0:0:
192,192,183653,1,0,0:0:0:0:
448,192,183653,1,0,0:0:0:0:
64,192,183744,1,0,0:0:0:0:
192,192,183836,1,0,0:0:0:0:
320,192,183927,1,0,0:0:0:0:
64,192,184111,1,0,0:0:0:0:
320,192,184111,1,0,0:0:0:0:
448,192,184187,1,0,0:0:0:0:
192,192,184263,1,0,0:0:0:0:
320,192,184340,1,0,0:0:0:0:
64,192,184454,1,0,0:0:0:0:
448,192,184454,1,0,0:0:0:0:
64,192,184569,1,0,0:0:0:0:
192,192,184569,1,0,0:0:0:0:
448,192,184645,1,0,0:0:0:0:
320,192,184721,1,0,0:0:0:0:
64,192,184798,1,0,0:0:0:0:
320,192,184874,1,0,0:0:0:0:
448,192,185027,1,0,0:0:0:0:
64,192,185027,1,0,0:0:0:0:
320,192,185103,1,0,0:0:0:0:
192,192,185179,1,0,0:0:0:0:
448,192,185256,1,0,0:0:0:0:
192,192,185332,1,0,0:0:0:0:
64,192,185485,1,0,0:0:0:0:
448,192,185485,1,0,0:0:0:0:
192,192,185561,1,0,0:0:0:0:
192,192,185714,1,0,0:0:0:0:
320,192,185828,1,0,0:0:0:0:
448,192,185828,1,0,0:0:0:0:
320,192,185943,1,0,0:0:0:0:
64,192,185943,1,0,0:0:0:0:
448,192,186019,1,0,0:0:0:0:
64,192,186095,1,0,0:0:0:0:
192,192,186172,1,0,0:0:0:0:
320,192,186248,1,0,0:0:0:0:
64,192,186324,1,0,0:0:0:0:
320,192,186401,1,0,0:0:0:0:
448,192,186401,1,0,0:0:0:0:
64,192,186477,1,0,0:0:0:0:
192,192,186553,1,0,0:0:0:0:
320,192,186630,1,0,0:0:0:0:
320,192,186744,1,0,0:0:0:0:
64,192,186859,128,0,187202:0:0:0:0:
192,192,186859,128,0,187202:0:0:0:0:
320,192,186859,128,0,187202:0:0:0:0:
448,192,186859,128,0,187202:0:0:0:0:
192,192,187317,1,0,0:0:0:0:
448,192,187317,1,0,0:0:0:0:
64,192,187317,1,0,0:0:0:0:
192,192,187431,1,0,0:0:0:0:
64,192,187431,1,0,0:0:0:0:
320,192,187546,1,0,0:0:0:0:
448,192,187546,1,0,0:0:0:0:
320,192,187660,1,0,0:0:0:0:
64,192,187660,1,0,0:0:0:0:
192,192,187775,1,0,0:0:0:0:
448,192,187775,1,0,0:0:0:0:
64,192,187866,1,0,0:0:0:0:
192,192,187958,1,0,0:0:0:0:
320,192,188050,1,0,0:0:0:0:
192,192,188141,1,0,0:0:0:0:
64,192,188233,1,0,0:0:0:0:
448,192,188233,1,0,0:0:0:0:
64,192,188347,1,0,0:0:0:0:
448,192,188347,1,0,0:0:0:0:
320,192,188462,1,0,0:0:0:0:
192,192,188538,1,0,0:0:0:0:
320,192,188614,1,0,0:0:0:0:
192,192,188691,1,0,0:0:0:0:
448,192,188691,1,0,0:0:0:0:
64,192,188691,1,0,0:0:0:0:
448,192,188805,1,0,0:0:0:0:
64,192,188920,1,0,0:0:0:0:
320,192,188920,1,0,0:0:0:0:
64,192,189034,1,0,0:0:0:0:
320,192,189149,1,0,0:0:0:0:
448,192,189149,1,0,0:0:0:0:
192,192,189225,1,0,0:0:0:0:
320,192,189301,1,0,0:0:0:0:
448,192,189378,1,0,0:0:0:0:
64,192,189378,1,0,0:0:0:0:
192,192,189492,1,0,0:0:0:0:
64,192,189607,1,0,0:0:0:0:
448,192,189607,1,0,0:0:0:0:
320,192,189683,1,0,0:0:0:0:
192,192,189759,1,0,0:0:0:0:
64,192,189836,1,0,0:0:0:0:
320,192,189836,1,0,0:0:0:0:
448,192,189912,1,0,0:0:0:0:
192,192,189988,1,0,0:0:0:0:
448,192,190065,1,0,0:0:0:0:
64,192,190065,1,0,0:0:0:0:
320,192,190141,1,0,0:0:0:0:
192,192,190217,1,0,0:0:0:0:
320,192,190294,128,0,190408:0:0:0:0:
448,192,190294,128,0,190408:0:0:0:0:
64,192,190294,128,0,190408:0:0:0:0:
64,192,190523,128,0,190637:0:0:0:0:
320,192,190523,128,0,190637:0:0:0:0:
448,192,190523,128,0,190637:0:0:0:0:
192,192,190752,1,0,0:0:0:0:
192,192,190866,1,0,0:0:0:0:
320,192,190866,1,0,0:0:0:0:
64,192,190981,1,0,0:0:0:0:
448,192,190981,1,0,0:0:0:0:
320,192,191057,1,0,0:0:0:0:
64,192,191134,1,0,0:0:0:0:
192,192,191210,1,0,0:0:0:0:
448,192,191210,1,0,0:0:0:0:
64,192,191286,1,0,0:0:0:0:
320,192,191324,1,0,0:0:0:0:
64,192,191439,1,0,0:0:0:0:
448,192,191439,1,0,0:0:0:0:
192,192,191553,1,0,0:0:0:0:
320,192,191668,1,0,0:0:0:0:
320,192,191782,1,0,0:0:0:0:
192,192,191782,1,0,0:0:0:0:
448,192,191897,1,0,0:0:0:0:
64,192,191897,1,0,0:0:0:0:
192,192,191973,1,0,0:0:0:0:
448,192,192050,1,0,0:0:0:0:
320,192,192126,1,0,0:0:0:0:
64,192,192126,1,0,0:0:0:0:
448,192,192202,1,0,0:0:0:0:
192,192,192240,1,0,0:0:0:0:
64,192,192355,1,0,0:0:0:0:
448,192,192355,1,0,0:0:0:0:
320,192,192469,1,0,0:0:0:0:
192,192,192584,1,0,0:0:0:0:
448,192,192660,1,0,0:0:0:0:
192,192,192737,1,0,0:0:0:0:
64,192,192813,1,0,0:0:0:0:
320,192,192813,128,0,192927:0:0:0:0:
448,192,192813,128,0,192927:0:0:0:0:
64,192,193042,1,0,0:0:0:0:
192,192,193042,128,0,193156:0:0:0:0:
320,192,193042,128,0,193156:0:0:0:0:
448,192,193271,1,0,0:0:0:0:
192,192,193271,128,0,193385:0:0:0:0:
64,192,193271,128,0,193385:0:0:0:0:
448,192,193500,1,0,0:0:0:0:
192,192,193500,128,0,193614:0:0:0:0:
320,192,193500,128,0,193614:0:0:0:0:
192,192,193729,1,0,0:0:0:0:
448,192,193729,128,0,194072:0:0:0:0:
64,192,193729,128,0,194072:0:0:0:0:
320,192,193843,1,0,0:0:0:0:
192,192,193958,1,0,0:0:0:0:
320,192,194072,1,0,0:0:0:0:
192,192,194187,128,0,194645:0:0:0:0:
448,192,194187,1,0,0:0:0:0:
64,192,194187,128,0,194645:0:0:0:0:
320,192,194645,1,0,0:0:0:0:
448,192,194645,1,0,0:0:0:0:
320,192,194874,1,0,0:0:0:0:
320,192,195103,1,0,0:0:0:0:
320,192,195332,1,0,0:0:0:0:
320,192,195561,1,0,0:0:0:0:
64,192,195561,1,0,0:0:0:0:
320,192,195790,1,0,0:0:0:0:
320,192,196019,1,0,0:0:0:0:
320,192,196248,1,0,0:0:0:0:
320,192,196477,1,0,0:0:0:0:
448,192,196477,1,0,0:0:0:0:
64,192,196477,1,0,0:0:0:0:
64,192,196706,1,0,0:0:0:0:
192,192,196935,1,0,0:0:0:0:
320,192,196935,1,0,0:0:0:0:
448,192,196935,1,0,0:0:0:0:
320,192,197164,1,0,0:0:0:0:
448,192,197221,1,0,0:0:0:0:
192,192,197279,1,0,0:0:0:0:
320,192,197336,1,0,0:0:0:0:
64,192,197393,1,0,0:0:0:0:
448,192,197393,1,0,0:0:0:0:
320,192,197469,1,0,0:0:0:0:
64,192,197546,1,0,0:0:0:0:
320,192,197622,1,0,0:0:0:0:
64,192,197698,1,0,0:0:0:0:
320,192,197775,1,0,0:0:0:0:
64,192,197851,1,0,0:0:0:0:
192,192,197851,1,0,0:0:0:0:
448,192,197927,1,0,0:0:0:0:
192,192,198004,1,0,0:0:0:0:
448,192,198080,1,0,0:0:0:0:
192,192,198156,1,0,0:0:0:0:
448,192,198233,1,0,0:0:0:0:
64,192,198309,5,0,0:0:0:0:
320,192,198309,1,0,0:0:0:0:
192,192,198309,1,0,0:0:0:0:
448,192,198401,1,0,0:0:0:0:
192,192,198492,1,0,0:0:0:0:
320,192,198584,1,0,0:0:0:0:
448,192,198767,1,0,0:0:0:0:
64,192,198767,1,0,0:0:0:0:
320,192,198859,1,0,0:0:0:0:
192,192,198950,1,0,0:0:0:0:
448,192,199042,1,0,0:0:0:0:
320,192,199225,1,0,0:0:0:0:
64,192,199225,1,0,0:0:0:0:
448,192,199317,1,0,0:0:0:0:
192,192,199408,1,0,0:0:0:0:
320,192,199500,1,0,0:0:0:0:
448,192,199683,1,0,0:0:0:0:
64,192,199683,1,0,0:0:0:0:
192,192,199683,1,0,0:0:0:0:
192,192,199798,1,0,0:0:0:0:
320,192,199798,1,0,0:0:0:0:
320,192,199912,1,0,0:0:0:0:
448,192,199912,1,0,0:0:0:0:
192,192,200027,1,0,0:0:0:0:
64,192,200027,1,0,0:0:0:0:
320,192,200141,1,0,0:0:0:0:
448,192,200141,1,0,0:0:0:0:
192,192,200233,1,0,0:0:0:0:
64,192,200324,1,0,0:0:0:0:
320,192,200416,1,0,0:0:0:0:
448,192,200599,1,0,0:0:0:0:
64,192,200599,1,0,0:0:0:0:
320,192,200691,1,0,0:0:0:0:
192,192,200782,1,0,0:0:0:0:
448,192,200874,1,0,0:0:0:0:
64,192,201057,1,0,0:0:0:0:
320,192,201057,1,0,0:0:0:0:
448,192,201172,1,0,0:0:0:0:
320,192,201286,1,0,0:0:0:0:
192,192,201363,1,0,0:0:0:0:
64,192,201439,1,0,0:0:0:0:
320,192,201515,1,0,0:0:0:0:
448,192,201515,1,0,0:0:0:0:
64,192,201592,1,0,0:0:0:0:
192,192,201668,1,0,0:0:0:0:
320,192,201744,1,0,0:0:0:0:
192,192,201859,1,0,0:0:0:0:
64,192,201973,1,0,0:0:0:0:
448,192,201973,1,0,0:0:0:0:
320,192,202065,1,0,0:0:0:0:
192,192,202156,1,0,0:0:0:0:
448,192,202248,1,0,0:0:0:0:
320,192,202431,1,0,0:0:0:0:
64,192,202431,1,0,0:0:0:0:
448,192,202523,1,0,0:0:0:0:
192,192,202614,1,0,0:0:0:0:
320,192,202706,1,0,0:0:0:0:
448,192,202889,1,0,0:0:0:0:
64,192,202889,1,0,0:0:0:0:
320,192,202981,1,0,0:0:0:0:
192,192,203072,1,0,0:0:0:0:
448,192,203164,1,0,0:0:0:0:
448,192,203347,1,0,0:0:0:0:
320,192,203347,1,0,0:0:0:0:
64,192,203347,1,0,0:0:0:0:
192,192,203462,1,0,0:0:0:0:
320,192,203462,1,0,0:0:0:0:
192,192,203576,1,0,0:0:0:0:
64,192,203576,1,0,0:0:0:0:
320,192,203691,1,0,0:0:0:0:
448,192,203691,1,0,0:0:0:0:
64,192,203805,1,0,0:0:0:0:
192,192,203805,1,0,0:0:0:0:
320,192,203897,1,0,0:0:0:0:
448,192,203988,1,0,0:0:0:0:
192,192,204080,1,0,0:0:0:0:
64,192,204263,1,0,0:0:0:0:
448,192,204263,1,0,0:0:0:0:
320,192,204355,1,0,0:0:0:0:
192,192,204447,1,0,0:0:0:0:
448,192,204538,1,0,0:0:0:0:
64,192,204721,1,0,0:0:0:0:
320,192,204721,1,0,0:0:0:0:
448,192,204798,1,0,0:0:0:0:
192,192,204874,1,0,0:0:0:0:
64,192,204950,1,0,0:0:0:0:
448,192,204950,1,0,0:0:0:0:
192,192,205027,1,0,0:0:0:0:
320,192,205103,1,0,0:0:0:0:
64,192,205179,1,0,0:0:0:0:
448,192,205179,1,0,0:0:0:0:
320,192,205256,1,0,0:0:0:0:
192,192,205332,1,0,0:0:0:0:
64,192,205408,1,0,0:0:0:0:
448,192,205408,1,0,0:0:0:0:
320,192,205485,1,0,0:0:0:0:
448,192,205637,1,0,0:0:0:0:
192,192,205637,1,0,0:0:0:0:
64,192,205729,1,0,0:0:0:0:
320,192,205821,1,0,0:0:0:0:
192,192,205912,1,0,0:0:0:0:
64,192,206095,1,0,0:0:0:0:
448,192,206095,1,0,0:0:0:0:
192,192,206187,1,0,0:0:0:0:
320,192,206279,1,0,0:0:0:0:
64,192,206370,1,0,0:0:0:0:
192,192,206553,1,0,0:0:0:0:
448,192,206553,1,0,0:0:0:0:
64,192,206645,1,0,0:0:0:0:
320,192,206737,1,0,0:0:0:0:
192,192,206828,1,0,0:0:0:0:
64,192,207011,1,0,0:0:0:0:
448,192,207011,1,0,0:0:0:0:
320,192,207011,1,0,0:0:0:0:
320,192,207126,1,0,0:0:0:0:
192,192,207126,1,0,0:0:0:0:
192,192,207240,1,0,0:0:0:0:
64,192,207240,1,0,0:0:0:0:
320,192,207355,1,0,0:0:0:0:
448,192,207355,1,0,0:0:0:0:
192,192,207469,1,0,0:0:0:0:
64,192,207469,1,0,0:0:0:0:
320,192,207561,1,0,0:0:0:0:
448,192,207653,1,0,0:0:0:0:
192,192,207744,1,0,0:0:0:0:
64,192,207927,1,0,0:0:0:0:
448,192,207927,1,0,0:0:0:0:
192,192,208019,1,0,0:0:0:0:
320,192,208111,1,0,0:0:0:0:
64,192,208202,1,0,0:0:0:0:
192,192,208385,1,0,0:0:0:0:
448,192,208385,1,0,0:0:0:0:
64,192,208500,1,0,0:0:0:0:
192,192,208614,1,0,0:0:0:0:
320,192,208691,1,0,0:0:0:0:
448,192,208767,1,0,0:0:0:0:
64,192,208843,1,0,0:0:0:0:
192,192,208843,1,0,0:0:0:0:
448,192,208920,1,0,0:0:0:0:
320,192,208996,1,0,0:0:0:0:
192,192,209072,1,0,0:0:0:0:
320,192,209187,1,0,0:0:0:0:
448,192,209301,1,0,0:0:0:0:
64,192,209301,1,0,0:0:0:0:
192,192,209393,1,0,0:0:0:0:
320,192,209485,1,0,0:0:0:0:
64,192,209576,1,0,0:0:0:0:
192,192,209759,1,0,0:0:0:0:
448,192,209759,1,0,0:0:0:0:
64,192,209851,1,0,0:0:0:0:
320,192,209943,1,0,0:0:0:0:
192,192,210034,1,0,0:0:0:0:
64,192,210217,1,0,0:0:0:0:
448,192,210217,1,0,0:0:0:0:
192,192,210309,1,0,0:0:0:0:
320,192,210401,1,0,0:0:0:0:
64,192,210492,1,0,0:0:0:0:
64,192,210676,1,0,0:0:0:0:
192,192,210676,1,0,0:0:0:0:
448,192,210676,1,0,0:0:0:0:
320,192,210790,1,0,0:0:0:0:
192,192,210790,1,0,0:0:0:0:
320,192,210905,1,0,0:0:0:0:
448,192,210905,1,0,0:0:0:0:
192,192,211019,1,0,0:0:0:0:
64,192,211019,1,0,0:0:0:0:
448,192,211134,1,0,0:0:0:0:
320,192,211134,1,0,0:0:0:0:
64,192,211210,1,0,0:0:0:0:
192,192,211286,1,0,0:0:0:0:
320,192,211363,1,0,0:0:0:0:
448,192,211439,1,0,0:0:0:0:
320,192,211515,1,0,0:0:0:0:
192,192,211592,128,0,211706:0:0:0:0:
64,192,211592,128,0,211821:0:0:0:0:
448,192,211592,1,0,0:0:0:0:
320,192,211821,1,0,0:0:0:0:
192,192,211897,1,0,0:0:0:0:
320,192,212050,128,0,212164:0:0:0:0:
448,192,212050,128,0,212279:0:0:0:0:
64,192,212050,1,0,0:0:0:0:
192,192,212279,1,0,0:0:0:0:
320,192,212355,1,0,0:0:0:0:
64,192,212508,128,0,213882:0:0:0:0:
192,192,212508,128,0,212737:0:0:0:0:
320,192,212508,128,0,212737:0:0:0:0:
448,192,212508,128,0,213882:0:0:0:0:
