osu file format v14

[General]
AudioFilename: audio.mp3
AudioLeadIn: 0
PreviewTime: 163171
Countdown: 0
SampleSet: Soft
StackLeniency: 0.5
Mode: 0
LetterboxInBreaks: 0
WidescreenStoryboard: 1

[Editor]
Bookmarks: 3303,5671,11987,25803,38434,51066,60539,92513,99224,111855,124487,136822,137118,163961,185276,200474,211329,223961,230276,236592,238171,251592,259487,260276,276855,281197,281592,282382,296789
DistanceSpacing: 0.6
BeatDivisor: 4
GridSize: 16
TimelineZoom: 2.6

[Metadata]
Title:Error
TitleUnicode:Error
Artist:GARNiDELiA
ArtistUnicode:GARNiDELiA
Creator:Yukiya
Version:Kowari x Xenon's Insane
Source:BEATLESS
Tags:MARiA Japanese Pop anime electronic full version opening toku bashe Kowari Xenon- Xehn Xen
BeatmapID:2401014
BeatmapSetID:1109353

[Difficulty]
HPDrainRate:5.6
CircleSize:4.2
OverallDifficulty:7.8
ApproachRate:9
SliderMultiplier:1.8
SliderTickRate:1

[Events]
//Background and Video events
0,0,"bg.jpg",0,0
//Break Periods
2,86804,98636
2,211541,223373
//Storyboard Layer 0 (Background)
//Storyboard Layer 1 (Fail)
//Storyboard Layer 2 (Pass)
//Storyboard Layer 3 (Foreground)
//Storyboard Layer 4 (Overlay)
//Storyboard Sound Samples

[TimingPoints]
552,394.736842105263,4,2,1,60,1,0
552,-166.666666666666,4,2,1,60,0,0
1538,-166.666666666666,4,2,1,80,0,0
1736,-166.666666666666,4,2,1,60,0,0
4695,-166.666666666666,4,2,1,80,0,0
4894,-166.666666666666,4,2,1,60,0,0
5584,-166.666666666666,4,2,1,80,0,0
5683,-125,4,2,1,60,0,0
5979,-125,4,2,1,80,0,0
6078,-100,4,2,1,40,0,0
6176,-100,4,2,1,80,0,0
6275,-100,4,2,1,40,0,0
6373,-100,4,2,1,80,0,0
6473,-100,4,2,1,50,0,0
6867,-100,4,2,1,60,0,0
11012,-100,4,2,1,80,0,0
11111,-100,4,2,1,60,0,0
11308,-100,4,2,1,80,0,0
11407,-100,4,2,1,60,0,0
11801,-100,4,2,1,80,0,0
11900,-100,4,2,1,60,0,0
12492,-100,4,2,1,80,0,0
12591,-100,4,2,1,60,0,0
13183,-200,4,2,1,60,0,0
14959,-200,4,2,1,80,0,0
15157,-200,4,2,1,60,0,0
15946,-142.857142857143,4,2,1,60,0,0
18315,-100,4,2,1,60,0,0
18611,-100,4,2,1,80,0,0
19005,-100,4,2,1,60,0,0
19104,-100,4,2,1,80,0,0
19400,-100,4,2,1,60,0,0
19499,-200,4,2,1,60,0,0
21275,-200,4,2,1,80,0,0
21473,-200,4,2,1,60,0,0
22262,-142.857142857143,4,2,1,60,0,0
24433,-142.857142857143,4,2,1,80,0,0
24630,-142.857142857143,4,2,1,60,0,0
24827,-142.857142857143,4,2,1,80,0,0
25025,-100,4,2,1,60,0,0
25321,-100,4,2,1,60,0,0
25420,-100,4,2,1,60,0,0
25519,-100,4,2,1,60,0,0
25617,-66.6666666666667,4,2,1,60,0,0
25716,-66.6666666666667,4,2,1,60,0,0
25815,-100,4,2,1,65,0,0
27788,-200,4,2,1,80,0,0
28577,-200,4,2,1,65,0,0
28973,-100,4,2,1,65,0,0
30946,-100,4,2,1,80,0,0
31637,-100,4,2,1,65,0,0
31736,-100,4,2,1,80,0,0
32032,-100,4,2,1,65,0,0
32130,-100,4,2,1,65,0,0
34104,-200,4,2,1,80,0,0
34893,-200,4,2,1,65,0,0
35288,-100,4,2,1,65,0,0
36078,-100,4,2,1,80,0,0
36275,-100,4,2,1,65,0,0
36670,-100,4,2,1,80,0,0
37064,-100,4,2,1,65,0,0
37262,-100,4,2,1,80,0,0
37459,-100,4,2,1,65,0,0
37657,-100,4,2,1,80,0,0
37953,-100,4,2,1,65,0,0
38051,-100,4,2,1,80,0,0
38347,-100,4,2,1,65,0,0
42196,-100,4,2,1,80,0,0
42394,-100,4,2,1,65,0,0
43775,-100,4,2,1,80,0,0
43973,-100,4,2,1,65,0,0
44959,-133.333333333333,4,2,1,65,0,0
47821,-133.333333333333,4,2,1,80,0,0
47920,-133.333333333333,4,2,1,65,0,0
48315,-100,4,2,1,65,0,0
48512,-100,4,2,1,80,0,0
48709,-100,4,2,1,65,0,0
50091,-100,4,2,1,80,0,0
50288,-80,4,2,1,65,0,0
51078,-83.3333333333333,4,2,1,75,0,0
51374,-83.3333333333333,4,2,1,80,0,0
51473,-83.3333333333333,4,2,1,75,0,0
52163,-83.3333333333333,4,2,1,80,0,0
52262,-83.3333333333333,4,2,1,75,0,0
52953,-83.3333333333333,4,2,1,80,0,0
53051,-83.3333333333333,4,2,1,75,0,0
53742,-83.3333333333333,4,2,1,80,0,0
53841,-83.3333333333333,4,2,1,75,0,0
54532,-83.3333333333333,4,2,1,80,0,0
54630,-83.3333333333333,4,2,1,75,0,0
55321,-83.3333333333333,4,2,1,80,0,0
55420,-83.3333333333333,4,2,1,75,0,0
56111,-83.3333333333333,4,2,1,80,0,0
56209,-83.3333333333333,4,2,1,75,0,0
56900,-83.3333333333333,4,2,1,80,0,0
56999,-83.3333333333333,4,2,1,75,0,0
57690,-83.3333333333333,4,2,1,80,0,0
57788,-83.3333333333333,4,2,1,75,0,0
57886,-83.3333333333333,4,2,1,80,0,0
57986,-83.3333333333333,4,2,1,75,0,0
58479,-83.3333333333333,4,2,1,80,0,0
58578,-83.3333333333333,4,2,1,75,0,0
58676,-83.3333333333333,4,2,1,80,0,0
58775,-83.3333333333333,4,2,1,75,0,0
59269,-83.3333333333333,4,2,1,80,0,0
59367,-83.3333333333333,4,2,1,75,0,0
59465,-83.3333333333333,4,2,1,80,0,0
59565,-83.3333333333333,4,2,1,75,0,0
60058,-83.3333333333333,4,2,1,80,0,0
60157,-83.3333333333333,4,2,1,75,0,0
60255,-83.3333333333333,4,2,1,80,0,0
60354,-83.3333333333333,4,2,1,75,0,0
64894,-83.3333333333333,4,2,1,80,0,0
65288,-71.4285714285714,4,2,1,90,0,1
67262,-133.333333333333,4,2,1,90,0,1
67558,-133.333333333333,4,2,1,80,0,1
67657,-62.5,4,2,1,90,0,1
68051,-66.6666666666667,4,2,1,90,0,1
68742,-133.333333333333,4,2,1,90,0,1
69038,-66.6666666666667,4,2,1,90,0,1
69236,-133.333333333333,4,2,1,90,0,1
69630,-133.333333333333,4,2,1,90,0,1
70025,-55.5555555555556,4,2,1,90,0,1
70815,-133.333333333333,4,2,1,90,0,1
71308,-133.333333333333,4,2,1,80,0,1
71407,-66.6666666666667,4,2,1,80,0,1
71505,-66.6666666666667,4,2,1,90,0,1
71604,-83.3333333333333,4,2,1,90,0,1
72394,-133.333333333333,4,2,1,90,0,1
72690,-133.333333333333,4,2,1,80,0,1
72788,-133.333333333333,4,2,1,90,0,1
73084,-133.333333333333,4,2,1,80,0,1
73183,-133.333333333333,4,2,1,90,0,1
73874,-133.333333333333,4,2,1,80,0,1
73973,-100,4,2,1,90,0,1
74269,-100,4,2,1,80,0,1
74367,-100,4,2,1,90,0,1
74630,-100,4,2,1,80,0,1
74762,-76.9230769230769,4,2,1,90,0,1
75551,-83.3333333333333,4,2,1,90,0,1
75946,-133.333333333333,4,2,1,90,0,1
76341,-66.6666666666667,4,2,1,90,0,1
76736,-111.111111111111,4,2,1,90,0,1
77130,-76.9230769230769,4,2,1,90,0,1
77261,-76.9230769230769,4,2,1,80,0,1
77525,-76.9230769230769,4,2,1,90,0,1
77624,-76.9230769230769,4,2,1,80,0,1
77821,-76.9230769230769,4,2,1,90,0,1
77920,-133.333333333333,4,2,1,90,0,1
78577,-133.333333333333,4,2,1,80,0,1
78709,-133.333333333333,4,2,1,90,0,1
79104,-71.4285714285714,4,2,1,90,0,1
79894,-133.333333333333,4,2,1,90,0,1
80190,-133.333333333333,4,2,1,80,0,1
80288,-66.6666666666667,4,2,1,90,0,1
81374,-133.333333333333,4,2,1,90,0,1
81670,-66.6666666666667,4,2,1,90,0,1
81867,-133.333333333333,4,2,1,90,0,1
82657,-55.5555555555556,4,2,1,90,0,1
83446,-133.333333333333,4,2,1,90,0,1
83841,-66.6666666666667,4,2,1,90,0,1
83939,-66.6666666666667,4,2,1,80,0,1
84136,-66.6666666666667,4,2,1,90,0,1
84236,-100,4,2,1,90,0,1
85272,-100,4,2,1,80,0,1
85321,-100,4,2,1,90,0,1
85469,-100,4,2,1,80,0,1
85617,-100,4,2,1,90,0,1
85666,-100,4,2,1,80,0,1
85815,-142.857142857143,4,2,1,80,0,0
86604,-111.111111111111,4,2,1,65,0,0
90946,-222.222222222222,4,2,1,80,0,0
92920,-111.111111111111,4,2,1,80,0,0
96078,-133.333333333334,4,2,1,80,0,0
97262,-142.857142857143,4,2,1,80,0,0
98644,-400.000000000002,4,2,1,80,0,0
99236,394.736842105263,4,2,1,70,1,0
99236,-83.3333333333333,4,2,1,70,0,0
102920,-83.3333333333333,4,2,1,80,0,0
103051,-83.3333333333333,4,2,1,70,0,0
106077,-83.3333333333333,4,2,1,80,0,0
106209,-83.3333333333333,4,2,1,70,0,0
109236,-83.3333333333333,4,2,1,80,0,0
109367,-83.3333333333333,4,2,1,70,0,0
113972,-83.3333333333333,4,2,1,80,0,0
114104,-83.3333333333333,4,2,1,70,0,0
115946,-83.3333333333333,4,2,1,80,0,0
116078,-83.3333333333333,4,2,1,70,0,0
117525,-83.3333333333333,4,2,1,80,0,0
117657,-83.3333333333333,4,2,1,70,0,0
118314,-83.3333333333333,4,2,1,80,0,0
118446,-83.3333333333333,4,2,1,70,0,0
119498,-83.3333333333333,4,2,1,80,0,0
119630,-83.3333333333333,4,2,1,70,0,0
120288,-83.3333333333333,4,2,1,80,0,0
120419,-83.3333333333333,4,2,1,70,0,0
120683,-83.3333333333333,4,2,1,80,0,0
120815,-83.3333333333333,4,2,1,70,0,0
121472,-83.3333333333333,4,2,1,80,0,0
121604,-83.3333333333333,4,2,1,70,0,0
124499,-100,4,2,1,60,0,0
126472,-200,4,2,1,80,0,0
127262,-200,4,2,1,60,0,0
127657,-100,4,2,1,60,0,0
129630,-100,4,2,1,80,0,0
130321,-100,4,2,1,60,0,0
130420,-100,4,2,1,80,0,0
130716,-100,4,2,1,60,0,0
130814,-100,4,2,1,60,0,0
132788,-200,4,2,1,80,0,0
133577,-200,4,2,1,60,0,0
133972,-100,4,2,1,60,0,0
135946,-100,4,2,1,80,0,0
136341,-100,4,2,1,60,0,0
136637,-100,4,2,1,65,0,0
136736,-100,4,2,1,80,0,0
137032,-100,4,2,1,65,0,0
140880,-100,4,2,1,80,0,0
141078,-100,4,2,1,65,0,0
142459,-100,4,2,1,80,0,0
142657,-100,4,2,1,65,0,0
143643,-133.333333333333,4,2,1,65,0,0
146505,-133.333333333333,4,2,1,80,0,0
146604,-133.333333333333,4,2,1,65,0,0
146999,-100,4,2,1,65,0,0
147196,-100,4,2,1,80,0,0
147394,-100,4,2,1,65,0,0
148775,-100,4,2,1,80,0,0
148972,-80,4,2,1,65,0,0
149762,-83.3333333333333,4,2,1,75,0,0
150058,-83.3333333333333,4,2,1,80,0,0
150157,-83.3333333333333,4,2,1,75,0,0
150847,-83.3333333333333,4,2,1,80,0,0
150946,-83.3333333333333,4,2,1,75,0,0
151637,-83.3333333333333,4,2,1,80,0,0
151736,-83.3333333333333,4,2,1,75,0,0
152426,-83.3333333333333,4,2,1,80,0,0
152525,-83.3333333333333,4,2,1,75,0,0
153216,-83.3333333333333,4,2,1,80,0,0
153315,-83.3333333333333,4,2,1,75,0,0
154005,-83.3333333333333,4,2,1,80,0,0
154104,-83.3333333333333,4,2,1,75,0,0
154794,-83.3333333333333,4,2,1,80,0,0
154893,-83.3333333333333,4,2,1,75,0,0
155584,-83.3333333333333,4,2,1,80,0,0
155682,-83.3333333333333,4,2,1,75,0,0
156374,-83.3333333333333,4,2,1,80,0,0
156473,-83.3333333333333,4,2,1,75,0,0
156571,-83.3333333333333,4,2,1,80,0,0
156670,-83.3333333333333,4,2,1,75,0,0
157163,-83.3333333333333,4,2,1,80,0,0
157262,-83.3333333333333,4,2,1,75,0,0
157360,-83.3333333333333,4,2,1,80,0,0
157459,-83.3333333333333,4,2,1,75,0,0
157953,-83.3333333333333,4,2,1,80,0,0
158051,-83.3333333333333,4,2,1,75,0,0
158149,-83.3333333333333,4,2,1,80,0,0
158249,-83.3333333333333,4,2,1,75,0,0
158742,-83.3333333333333,4,2,1,80,0,0
158841,-83.3333333333333,4,2,1,75,0,0
158939,-83.3333333333333,4,2,1,80,0,0
159038,-83.3333333333333,4,2,1,75,0,0
163578,-83.3333333333333,4,2,1,80,0,0
163972,-71.4285714285714,4,2,1,90,0,1
165946,-133.333333333333,4,2,1,90,0,1
166242,-133.333333333333,4,2,1,80,0,1
166341,-62.5,4,2,1,90,0,1
166736,-66.6666666666667,4,2,1,90,0,1
167426,-133.333333333333,4,2,1,90,0,1
167723,-66.6666666666667,4,2,1,90,0,1
167920,-133.333333333333,4,2,1,90,0,1
168315,-133.333333333333,4,2,1,90,0,1
168709,-55.5555555555556,4,2,1,90,0,1
169499,-133.333333333333,4,2,1,90,0,1
169992,-133.333333333333,4,2,1,80,0,1
170091,-66.6666666666667,4,2,1,80,0,1
170189,-66.6666666666667,4,2,1,90,0,1
170288,-83.3333333333333,4,2,1,90,0,1
171078,-133.333333333333,4,2,1,90,0,1
171374,-133.333333333333,4,2,1,80,0,1
171473,-133.333333333333,4,2,1,90,0,1
171769,-133.333333333333,4,2,1,80,0,1
171867,-133.333333333333,4,2,1,90,0,1
172558,-133.333333333333,4,2,1,80,0,1
172657,-100,4,2,1,90,0,1
172953,-100,4,2,1,80,0,1
173051,-100,4,2,1,90,0,1
173314,-100,4,2,1,80,0,1
173446,-76.9230769230769,4,2,1,90,0,1
174236,-83.3333333333333,4,2,1,90,0,1
174532,-83.3333333333333,4,2,1,80,0,1
174630,-133.333333333333,4,2,1,90,0,1
175025,-66.6666666666667,4,2,1,90,0,1
175420,-111.111111111111,4,2,1,90,0,1
175815,-76.9230769230769,4,2,1,90,0,1
175946,-76.9230769230769,4,2,1,80,0,1
176209,-76.9230769230769,4,2,1,90,0,1
176308,-76.9230769230769,4,2,1,80,0,1
176505,-76.9230769230769,4,2,1,90,0,1
176604,-133.333333333333,4,2,1,90,0,1
177261,-133.333333333333,4,2,1,80,0,1
177394,-133.333333333333,4,2,1,90,0,1
177788,-71.4285714285714,4,2,1,90,0,1
178578,-133.333333333333,4,2,1,90,0,1
178874,-133.333333333333,4,2,1,80,0,1
178973,-66.6666666666667,4,2,1,90,0,1
180058,-133.333333333333,4,2,1,90,0,1
180354,-66.6666666666667,4,2,1,90,0,1
180551,-133.333333333333,4,2,1,90,0,1
181341,-55.5555555555556,4,2,1,90,0,1
182130,-133.333333333333,4,2,1,90,0,1
182525,-66.6666666666667,4,2,1,90,0,1
182623,-66.6666666666667,4,2,1,80,0,1
182723,-66.6666666666667,4,2,1,90,0,1
182821,-66.6666666666667,4,2,1,80,0,1
182920,-100,4,2,1,90,0,1
183956,-100,4,2,1,80,0,1
184005,-100,4,2,1,90,0,1
184153,-100,4,2,1,80,0,1
184301,-100,4,2,1,90,0,1
184350,-100,4,2,1,80,0,1
184499,-100,4,2,1,90,0,1
184696,-66.6666666666667,4,2,1,90,0,1
184894,-83.3333333333333,4,2,1,90,0,1
185288,-181.818181818181,4,2,1,80,0,0
186078,-66.6666666666667,4,2,1,90,0,1
186867,-55.5555555555556,4,2,1,90,0,1
187262,-83.3333333333333,4,2,1,90,0,1
187854,-83.3333333333333,4,2,1,90,0,1
188051,-66.6666666666667,4,2,1,90,0,1
188249,-55.5555555555556,4,2,1,90,0,1
188644,-83.3333333333333,4,2,1,90,0,1
188841,-66.6666666666667,4,2,1,90,0,1
189038,-55.5555555555556,4,2,1,90,0,1
189236,-66.6666666666667,4,2,1,90,0,1
190420,-83.3333333333333,4,2,1,90,0,1
191407,-66.6666666666667,4,2,1,90,0,1
191999,-83.3333333333333,4,2,1,90,0,1
192196,-66.6666666666667,4,2,1,90,0,1
193578,-83.3333333333333,4,2,1,90,0,1
194367,-66.6666666666667,4,2,1,90,0,1
194565,-55.5555555555556,4,2,1,90,0,1
194959,-83.3333333333333,4,2,1,80,0,1
195057,-83.3333333333333,4,2,1,90,0,1
195157,-66.6666666666667,4,2,1,90,0,1
195354,-55.5555555555556,4,2,1,90,0,1
195551,-66.6666666666667,4,2,1,90,0,1
198315,-83.3333333333333,4,2,1,90,0,1
198446,-66.6666666666667,4,2,1,90,0,1
198578,-55.5555555555556,4,2,1,90,0,1
198709,-125,4,2,1,90,0,1
199104,-58.8235294117647,4,2,1,90,0,1
199301,-58.8235294117647,4,2,1,80,0,1
199400,-66.6666666666667,4,2,1,90,0,1
201571,-66.6666666666667,4,2,1,80,0,1
201768,-66.6666666666667,4,2,1,90,0,1
202064,-66.6666666666667,4,2,1,80,0,1
202163,-66.6666666666667,4,2,1,90,0,1
203051,-83.3333333333333,4,2,1,90,0,1
203248,-83.3333333333333,4,2,1,80,0,1
203348,-83.3333333333333,4,2,1,90,0,1
203643,-83.3333333333333,4,2,1,80,0,1
203742,-83.3333333333333,4,2,1,90,0,1
204630,-66.6666666666667,4,2,1,90,0,1
204728,-66.6666666666667,4,2,1,80,0,1
204828,-66.6666666666667,4,2,1,90,0,1
204877,-66.6666666666667,4,2,1,80,0,1
204926,-50,4,2,1,80,0,1
205025,-66.6666666666667,4,2,1,90,0,1
205321,-83.3333333333333,4,2,1,90,0,1
205815,-55.5555555555556,4,2,1,90,0,1
205913,-55.5555555555556,4,2,1,80,0,1
206012,-55.5555555555556,4,2,1,90,0,1
206505,-55.5555555555556,4,2,1,80,0,1
206604,-55.5555555555556,4,2,1,90,0,1
206999,-66.6666666666667,4,2,1,90,0,1
207196,-55.5555555555556,4,2,1,90,0,1
208183,-66.6666666666667,4,2,1,90,0,1
208380,-66.6666666666667,4,2,1,80,0,1
208479,-83.3333333333333,4,2,1,90,0,1
208973,-55.5555555555556,4,2,1,90,0,1
210354,-83.3333333333333,4,2,1,90,0,1
210485,-83.3333333333333,4,2,1,80,0,1
210551,-83.3333333333333,4,2,1,90,0,1
211341,-142.857142857143,4,2,1,60,0,0
216473,-100,4,2,1,80,0,0
223973,-125,4,2,1,65,0,0
233446,-125,4,2,1,20,0,0
233841,-125,4,2,1,30,0,0
234236,-125,4,2,1,50,0,0
234631,-125,4,2,1,75,0,0
235519,-125,4,2,1,80,0,0
235716,-125,4,2,1,75,0,0
235815,-83.3333333333333,4,2,1,75,0,0
236012,-83.3333333333333,4,2,1,80,0,0
236111,-83.3333333333333,4,2,1,75,0,0
236307,-83.3333333333333,4,2,1,80,0,0
236505,-83.3333333333333,4,2,1,75,0,0
236703,-83.3333333333333,4,2,1,80,0,0
238183,-71.4285714285714,4,2,1,90,0,1
240157,-133.333333333333,4,2,1,90,0,1
240453,-133.333333333333,4,2,1,80,0,1
240551,-62.5,4,2,1,90,0,1
240946,-66.6666666666667,4,2,1,90,0,1
241637,-133.333333333333,4,2,1,90,0,1
241933,-66.6666666666667,4,2,1,90,0,1
242131,-133.333333333333,4,2,1,90,0,1
242525,-133.333333333333,4,2,1,90,0,1
242920,-55.5555555555556,4,2,1,90,0,1
243709,-133.333333333333,4,2,1,90,0,1
244203,-133.333333333333,4,2,1,80,0,1
244301,-66.6666666666667,4,2,1,80,0,1
244399,-66.6666666666667,4,2,1,90,0,1
244499,-83.3333333333333,4,2,1,90,0,1
244894,-83.3333333333333,4,2,1,80,0,1
245091,-83.3333333333333,4,2,1,90,0,1
245289,-133.333333333333,4,2,1,90,0,1
245585,-133.333333333333,4,2,1,80,0,1
245683,-133.333333333333,4,2,1,90,0,1
245979,-133.333333333333,4,2,1,80,0,1
246078,-133.333333333333,4,2,1,90,0,1
246769,-133.333333333333,4,2,1,80,0,1
247163,-100,4,2,1,80,0,1
247262,-100,4,2,1,90,0,1
247525,-100,4,2,1,80,0,1
247657,-76.9230769230769,4,2,1,90,0,1
248446,-83.3333333333333,4,2,1,90,0,1
248742,-83.3333333333333,4,2,1,80,0,1
248841,-133.333333333333,4,2,1,90,0,1
249236,-66.6666666666667,4,2,1,90,0,1
249630,-111.111111111111,4,2,1,90,0,1
250025,-76.9230769230769,4,2,1,90,0,1
250156,-76.9230769230769,4,2,1,80,0,1
250420,-76.9230769230769,4,2,1,90,0,1
250519,-76.9230769230769,4,2,1,80,0,1
250815,-133.333333333333,4,2,1,90,0,1
251472,-133.333333333333,4,2,1,80,0,1
251604,-133.333333333333,4,2,1,90,0,1
251999,-71.4285714285714,4,2,1,90,0,1
252789,-133.333333333333,4,2,1,90,0,1
253085,-133.333333333333,4,2,1,80,0,1
253183,-66.6666666666667,4,2,1,90,0,1
254269,-133.333333333333,4,2,1,90,0,1
254565,-66.6666666666667,4,2,1,90,0,1
254762,-133.333333333333,4,2,1,90,0,1
255551,-55.5555555555556,4,2,1,90,0,1
256341,-133.333333333333,4,2,1,90,0,1
256736,-66.6666666666667,4,2,1,90,0,1
256834,-66.6666666666667,4,2,1,80,0,1
256933,-66.6666666666667,4,2,1,90,0,1
257031,-66.6666666666667,4,2,1,80,0,1
257130,-100,4,2,1,90,0,1
258167,-100,4,2,1,80,0,1
258216,-100,4,2,1,90,0,1
258364,-100,4,2,1,80,0,1
258512,-100,4,2,1,90,0,1
258561,-100,4,2,1,80,0,1
258709,-100,4,2,1,90,0,1
259499,-142.857142857143,4,2,1,60,0,0
260288,-83.3333333333333,4,2,1,90,0,1
260781,-83.3333333333333,4,2,1,80,0,1
260880,-66.6666666666667,4,2,1,90,0,1
260978,-66.6666666666667,4,2,1,80,0,1
261078,-66.6666666666667,4,2,1,90,0,1
261176,-66.6666666666667,4,2,1,80,0,1
261473,-83.3333333333333,4,2,1,90,0,1
261571,-83.3333333333333,4,2,1,80,0,1
261670,-66.6666666666667,4,2,1,80,0,1
261867,-55.5555555555556,4,2,1,90,0,1
261965,-55.5555555555556,4,2,1,80,0,1
262065,-55.5555555555556,4,2,1,90,0,1
262262,-83.3333333333333,4,2,1,90,0,1
262459,-66.6666666666667,4,2,1,90,0,1
262657,-55.5555555555556,4,2,1,90,0,1
262755,-55.5555555555556,4,2,1,80,0,1
263051,-55.5555555555556,4,2,1,90,0,1
263446,-83.3333333333333,4,2,1,90,0,1
263644,-83.3333333333333,4,2,1,80,0,1
263940,-83.3333333333333,4,2,1,90,0,1
264038,-66.6666666666667,4,2,1,90,0,1
264334,-66.6666666666667,4,2,1,80,0,1
264531,-66.6666666666667,4,2,1,90,0,1
264630,-133.333333333333,4,2,1,90,0,1
265025,-55.5555555555556,4,2,1,90,0,1
265715,-55.5555555555556,4,2,1,80,0,1
265815,-55.5555555555556,4,2,1,90,0,1
266308,-55.5555555555556,4,2,1,80,0,1
266407,-111.111111111111,4,2,1,80,0,1
266505,-111.111111111111,4,2,1,90,0,1
266604,-83.3333333333333,4,2,1,90,0,1
267196,-66.6666666666667,4,2,1,90,0,1
267492,-66.6666666666667,4,2,1,80,0,1
267689,-66.6666666666667,4,2,1,90,0,1
267788,-83.3333333333333,4,2,1,90,0,1
267986,-66.6666666666667,4,2,1,90,0,1
268084,-66.6666666666667,4,2,1,80,0,1
268183,-55.5555555555556,4,2,1,90,0,1
268578,-83.3333333333333,4,2,1,90,0,1
268775,-66.6666666666667,4,2,1,90,0,1
268973,-55.5555555555556,4,2,1,90,0,1
269071,-55.5555555555556,4,2,1,80,0,1
269170,-55.5555555555556,4,2,1,90,0,1
269614,-55.5555555555556,4,2,1,80,0,1
269762,-55.5555555555556,4,2,1,90,0,1
270650,-55.5555555555556,4,2,1,80,0,1
270847,-55.5555555555556,4,2,1,90,0,1
271736,-66.6666666666667,4,2,1,90,0,1
272032,-66.6666666666667,4,2,1,80,0,1
272130,-55.5555555555556,4,2,1,90,0,1
272525,-47.6190476190476,4,2,1,90,0,1
272623,-47.6190476190476,4,2,1,80,0,1
272920,-133.333333333333,4,2,1,90,0,1
273018,-133.333333333333,4,2,1,80,0,1
273117,-100,4,2,1,80,0,1
273215,-100,4,2,1,90,0,1
273315,-66.6666666666667,4,2,1,90,0,1
274104,-83.3333333333333,4,2,1,90,0,1
274202,-83.3333333333333,4,2,1,80,0,1
274301,-66.6666666666667,4,2,1,80,0,1
274399,-66.6666666666667,4,2,1,90,0,1
274499,-55.5555555555556,4,2,1,90,0,1
274597,-55.5555555555556,4,2,1,80,0,1
274696,-55.5555555555556,4,2,1,90,0,1
274894,-83.3333333333333,4,2,1,90,0,1
275091,-66.6666666666667,4,2,1,90,0,1
275288,-55.5555555555556,4,2,1,90,0,1
275386,-55.5555555555556,4,2,1,80,0,1
275584,-55.5555555555556,4,2,1,90,0,1
275781,-55.5555555555556,4,2,1,80,0,1
275978,-55.5555555555556,4,2,1,90,0,1
276078,-83.3333333333333,4,2,1,90,0,1
276670,-66.6666666666667,4,2,1,90,0,1
276867,-83.3333333333333,4,2,1,90,0,1
277163,-111.111111111111,4,2,1,90,0,1
277657,-55.5555555555555,4,2,1,80,0,1
277854,-55.5555555555555,4,2,1,90,0,1
278446,-100,4,2,1,90,0,1
278841,-50,4,2,1,90,0,1
279236,-100,4,2,1,90,0,1
279828,-71.4285714285714,4,2,1,90,0,1
280716,-71.4285714285714,4,2,1,80,0,1
280815,-83.3333333333333,4,2,1,90,0,1
280913,-83.3333333333333,4,2,1,80,0,1
281012,-83.3333333333333,4,2,1,90,0,1
281604,-294.117647058824,4,2,1,70,0,0
282393,-294.117647058824,4,2,1,40,0,0

[Colours]
Combo1 : 192,192,192
Combo2 : 128,255,255
SliderBorder : 250,255,253
SliderTrackOverride : 0,0,15

[HitObjects]
421,333,552,6,0,B|343:339|351:250|351:250|362:144|259:158,1,269.999991760254,2|0,0:0|0:0,0:0:0:0:
202,231,1736,6,0,B|352:279|358:136|358:136|362:3|501:29,1,431.999986816407,2|0,0:0|0:0,0:0:0:0:
1,53,3709,6,0,B|50:37|50:37|169:161|169:161|218:136,1,269.999991760254,2|0,0:0|0:0,0:0:0:0:
188,68,4894,2,0,B|148:62|148:62|78:151|78:151|20:139,1,188.999994232178,2|0,0:0|0:0,0:0:0:0:
7,212,5683,6,0,B|18:266|18:266|16:268|16:268|28:333,1,108,2|0,3:2|0:0,0:0:0:0:
80,366,6078,6,0,L|135:350,1,45,8|0,0:0|0:0,0:0:0:0:
184,311,6275,2,0,L|227:323,1,45,8|0,0:0|0:0,0:0:0:0:
297,355,6473,1,8,0:0:0:0:
305,357,6571,1,8,0:0:0:0:
312,355,6670,1,8,0:0:0:0:
320,353,6769,1,8,0:0:0:0:
326,347,6867,6,0,L|308:197,1,135,4|2,3:2|0:0,0:0:0:0:
304,253,7459,2,0,L|295:191,1,45,2|2,3:2|0:0,0:0:0:0:
284,92,7657,5,2,0:0:0:0:
451,37,7953,1,2,0:0:0:0:
344,9,8249,1,2,3:2:0:0:
402,111,8446,6,0,P|465:125|525:75,1,135,2|2,0:0|0:0,0:0:0:0:
477,105,9038,2,0,P|500:87|509:65,1,45,2|2,3:2|0:0,0:0:0:0:
475,2,9236,5,2,0:0:0:0:
383,100,9532,1,2,0:0:0:0:
412,201,9828,1,2,3:2:0:0:
354,255,10025,6,0,B|289:246|289:246|279:252|279:252|207:241,1,135,2|2,0:0|0:0,0:0:0:0:
25,328,10617,5,2,3:2:0:0:
29,333,10716,1,2,0:0:0:0:
33,338,10815,2,0,L|128:318,1,90,2|0,0:0|0:0,0:0:0:0:
138,321,11111,2,0,P|149:273|123:237,1,90,2|0,0:0|0:0,0:0:0:0:
113,236,11407,1,2,3:2:0:0:
31,183,11604,6,0,P|12:134|33:96,1,90,2|0,3:2|0:0,0:0:0:0:
95,64,11900,1,2,3:2:0:0:
103,74,11999,2,2,B|102:97|102:97|100:99|100:99|99:122,1,45,2|0,0:0|0:0,0:0:0:0:
163,202,12196,2,2,L|156:157,1,45,2|0,3:2|0:0,0:0:0:0:
229,74,12394,5,2,0:0:0:0:
235,71,12492,1,0,0:0:0:0:
243,70,12591,1,2,3:2:0:0:
250,74,12690,1,2,0:0:0:0:
262,95,12788,5,10,0:0:0:0:
223,114,12887,1,2,0:0:0:0:
189,90,12986,1,10,0:0:0:0:
193,40,13084,1,10,0:0:0:0:
204,32,13183,5,4,3:2:0:0:
367,101,13578,6,0,L|355:197,1,90,2|2,0:0|0:0,0:0:0:0:
341,207,14367,2,0,L|359:360,1,135,2|0,0:0|0:0,0:0:0:0:
426,368,15157,6,0,P|449:342|453:327,1,45,2|2,0:0|0:0,0:0:0:0:
505,287,15551,2,0,P|491:259|477:244,1,45,2|2,0:0|0:0,0:0:0:0:
416,222,15946,1,2,0:0:0:0:
157,322,16341,6,0,B|177:249|177:249|143:207,1,125.999996154785,2|2,0:0|0:0,0:0:0:0:
125,209,17130,2,0,P|130:152|206:132,1,125.999996154785,2|2,0:0|0:0,0:0:0:0:
253,167,17723,1,2,0:0:0:0:
297,105,17920,2,0,P|302:73|280:35,1,62.9999980773926,2|2,0:0|0:0,0:0:0:0:
225,15,18315,6,2,B|186:14|167:27|167:27|152:20|152:20|129:41|82:40,1,135,2|0,0:0|0:0,0:0:0:0:
41,82,18709,6,0,P|28:127|103:160,1,135,0|0,0:0|0:0,0:0:0:0:
8,140,19104,2,0,P|48:186|127:163,1,135,0|0,0:0|0:0,0:0:0:0:
153,113,19499,5,2,0:0:0:0:
274,303,19894,5,2,0:0:0:0:
347,246,20288,1,2,0:0:0:0:
439,263,20683,2,0,P|455:296|400:368,1,135,2|0,0:0|0:0,0:0:0:0:
346,327,21473,6,0,L|296:318,1,45,2|2,0:0|0:0,0:0:0:0:
251,262,21867,2,0,L|201:253,1,45,2|2,0:0|0:0,0:0:0:0:
135,248,22262,1,2,0:0:0:0:
195,29,22657,6,0,B|235:-4|259:56|236:103|197:113,1,125.999996154785,2|2,0:0|0:0,0:0:0:0:
205,121,23446,2,0,B|285:108|248:165|341:140,1,125.999996154785,2|2,0:0|0:0,0:0:0:0:
400,25,24236,6,0,B|395:56|395:56|398:59|398:59|393:97,1,62.9999980773926,2|0,0:0|0:0,0:0:0:0:
323,143,24630,2,0,B|328:174|328:174|325:177|325:177|330:215,1,62.9999980773926,2|0,0:0|0:0,0:0:0:0:
368,318,25025,6,0,P|407:313|364:313,1,135,2|0,0:0|0:0,0:0:0:0:
301,370,25420,6,2,B|284:367|284:367|272:367|272:367|250:359,1,45,2|0,0:0|0:0,0:0:0:0:
181,295,25617,2,2,B|155:298|155:298|140:307|140:307|108:309,1,67.5000025749208,2|0,0:0|0:0,0:0:0:0:
23,258,25815,6,0,B|111:213|111:213|63:385,1,270,4|2,3:2|0:0,0:0:0:0:
299,146,26999,2,0,B|211:101|211:101|259:273,1,270,2|2,3:2|0:0,0:0:0:0:
200,346,27788,6,0,P|171:329|205:329,2,90,0|0|0,0:0|0:0|0:0,0:0:0:0:
489,178,28973,6,0,P|428:170|384:356,1,270,2|2,3:2|0:0,0:0:0:0:
107,38,30157,2,0,P|168:30|212:216,1,270,2|2,3:2|0:0,0:0:0:0:
170,234,30946,1,0,0:0:0:0:
170,234,31341,6,0,P|126:251|122:342,1,135,0|0,0:0|0:0,0:0:0:0:
101,236,31736,2,0,P|76:286|116:361,1,135,0|0,0:0|0:0,0:0:0:0:
175,381,32130,6,0,B|260:380|252:294|252:294|240:193|335:194,1,270,2|2,3:2|0:0,0:0:0:0:
485,297,33315,2,0,B|400:296|408:210|408:210|420:109|325:110,1,270,2|2,3:2|0:0,0:0:0:0:
268,99,34104,6,0,B|279:56|279:56|276:52|276:52|289:-2,2,90,0|0|0,0:0|0:0|0:0,0:0:0:0:
58,0,35288,6,0,B|64:64|64:64|83:86|83:86|72:113|72:113|81:199,1,180,2|0,3:2|0:0,0:0:0:0:
142,271,35880,5,2,0:0:0:0:
142,271,36078,2,0,L|53:259,1,90,0|0,0:0|0:0,0:0:0:0:
282,288,36473,5,2,3:2:0:0:
234,232,36670,2,0,P|169:257|180:381,1,180,0|2,0:0|0:0,0:0:0:0:
302,376,37262,6,0,B|346:368|346:368|352:370|352:370|397:361,1,90,0|0,0:0|0:0,0:0:0:0:
461,302,37657,6,0,P|436:243|346:237,1,135,0|0,0:0|0:0,0:0:0:0:
465,233,38051,2,0,P|416:197|342:207,1,135,0|0,0:0|0:0,0:0:0:0:
296,262,38446,6,0,L|287:310,2,45,8|2|2,0:1|0:0|0:0,0:0:0:0:
206,175,38841,2,0,L|215:273,1,90,8|2,0:1|0:0,0:0:0:0:
52,303,39236,6,0,L|61:255,2,45,8|2|2,0:1|0:0|0:0,0:0:0:0:
145,384,39630,2,0,L|136:286,1,90,8|2,0:1|0:0,0:0:0:0:
296,262,40025,6,0,B|291:283|291:283|291:288|291:288|287:310,2,45,8|2|2,0:1|0:0|0:0,0:0:0:0:
206,175,40420,2,0,B|211:221|211:221|209:225|209:225|215:273,1,90,8|2,0:1|0:0,0:0:0:0:
52,303,40815,6,0,B|57:281|57:281|56:277|56:277|61:255,2,45,8|2|2,0:1|0:0|0:0,0:0:0:0:
145,384,41209,2,0,B|140:338|140:338|142:334|142:334|136:286,1,90,8|2,0:1|0:0,0:0:0:0:
36,155,41604,5,8,0:1:0:0:
31,158,41703,1,2,0:0:0:0:
26,161,41801,1,2,0:0:0:0:
39,60,41999,2,0,P|71:90|115:93,1,90,8|0,0:1|0:0,0:0:0:0:
275,6,42394,5,8,0:1:0:0:
280,3,42492,1,2,0:0:0:0:
285,0,42591,1,2,0:0:0:0:
271,100,42788,2,0,P|238:69|194:66,1,90,8|2,0:1|0:0,0:0:0:0:
36,155,43183,5,8,0:1:0:0:
31,158,43282,1,2,0:0:0:0:
26,161,43380,1,2,0:0:0:0:
39,60,43578,2,0,P|71:90|115:93,1,90,8|0,0:1|0:0,0:0:0:0:
275,6,43973,5,8,0:1:0:0:
280,3,44071,1,2,0:0:0:0:
285,0,44170,1,2,0:0:0:0:
271,100,44367,2,0,B|270:92|270:92|238:56|187:68,1,90,8|2,0:1|0:0,0:0:0:0:
272,191,44762,5,8,0:1:0:0:
272,191,44959,2,0,L|357:178,2,67.5000025749208,2|8|2,0:0|0:1|0:0,0:0:0:0:
465,274,45551,5,8,0:1:0:0:
465,274,45749,2,0,L|380:261,2,67.5000025749208,2|8|2,0:0|0:1|0:0,0:0:0:0:
272,191,46341,5,8,0:1:0:0:
272,191,46538,2,0,L|357:178,1,67.5000025749208,2|8,0:0|0:1,0:0:0:0:
465,274,46933,6,0,L|380:261,1,67.5000025749208,2|8,0:0|0:1,0:0:0:0:
451,361,47328,2,0,L|366:348,1,67.5000025749208,2|8,0:0|0:1,0:0:0:0:
275,312,47723,6,0,L|233:323,1,33.7500012874604,2|0,0:0|0:0,0:0:0:0:
174,344,47920,1,8,0:1:0:0:
168,346,48019,1,2,0:0:0:0:
162,348,48117,1,2,0:0:0:0:
23,264,48315,6,0,B|68:274|68:274|73:280|73:280|115:290,1,90,8|0,0:1|0:0,0:0:0:0:
175,250,48709,1,8,0:1:0:0:
181,252,48808,1,2,0:0:0:0:
187,254,48907,1,2,0:0:0:0:
322,171,49104,6,0,P|272:170|231:209,1,90,8|2,0:1|0:0,0:0:0:0:
167,168,49499,1,8,0:1:0:0:
161,170,49598,1,2,0:0:0:0:
155,172,49696,1,2,0:0:0:0:
25,67,49894,6,0,B|77:75|57:104|113:113,1,90,8|0,0:1|0:0,0:0:0:0:
176,82,50288,6,0,B|197:77|197:77|213:80|213:80|234:75,1,56.25,8|2,0:1|0:0,0:0:0:0:
301,39,50486,2,0,B|318:43|318:43|334:40|334:40|355:45,1,56.25,2|2,0:0|0:0,0:0:0:0:
439,68,50683,5,8,0:1:0:0:
450,59,50782,1,2,0:0:0:0:
458,48,50880,1,2,0:0:0:0:
461,34,50979,1,2,0:0:0:0:
458,21,51078,6,0,L|438:188,1,161.999995056153,2|0,3:2|0:0,0:0:0:0:
459,253,51473,2,0,P|516:232|493:178,1,107.999996704102,10|2,0:0|0:0,0:0:0:0:
311,132,51867,6,0,L|331:299,1,161.999995056153,2|0,3:2|0:0,0:0:0:0:
310,364,52262,2,0,P|253:343|276:289,1,107.999996704102,10|0,0:0|0:0,0:0:0:0:
507,287,52657,6,0,P|500:352|412:343,1,161.999995056153,2|0,3:2|0:0,0:0:0:0:
399,275,53051,2,0,L|420:165,1,107.999996704102,10|0,0:0|0:0,0:0:0:0:
211,146,53446,6,0,P|218:211|306:202,1,161.999995056153,2|0,3:2|0:0,0:0:0:0:
318,134,53841,2,0,L|297:24,1,107.999996704102,10|0,0:0|0:0,0:0:0:0:
77,20,54236,5,2,3:2:0:0:
144,60,54532,1,0,0:0:0:0:
140,69,54630,1,10,0:0:0:0:
203,114,54828,1,2,0:0:0:0:
35,102,55025,5,2,3:2:0:0:
102,142,55321,1,0,0:0:0:0:
98,151,55420,1,10,0:0:0:0:
161,196,55617,1,0,0:0:0:0:
236,238,55815,5,2,3:2:0:0:
167,279,56111,1,0,0:0:0:0:
175,288,56209,1,10,0:0:0:0:
160,363,56407,1,0,0:0:0:0:
161,196,56604,5,2,3:2:0:0:
92,237,56900,1,0,0:0:0:0:
100,246,56999,1,10,0:0:0:0:
85,321,57196,1,0,0:0:0:0:
245,373,57394,6,0,B|297:362|297:362|306:366|306:366|360:356,1,107.999996704102,2|0,3:2|0:0,0:0:0:0:
414,311,57690,1,0,0:0:0:0:
422,314,57788,2,0,L|483:327,1,53.9999983520508,10|0,0:0|0:0,0:0:0:0:
248,260,57986,1,2,0:0:0:0:
248,260,58183,6,0,B|300:249|300:249|309:253|309:253|363:243,1,107.999996704102,2|0,3:2|0:0,0:0:0:0:
413,198,58479,1,0,0:0:0:0:
421,201,58578,2,0,L|482:214,1,53.9999983520508,10|0,0:0|0:0,0:0:0:0:
308,48,58775,1,0,0:0:0:0:
308,48,58973,6,0,P|262:93|280:158,1,107.999996704102,2|0,3:2|0:0,0:0:0:0:
331,168,59269,1,0,0:0:0:0:
339,165,59367,2,0,P|348:143|335:114,1,53.9999983520508,10|0,0:0|0:0,0:0:0:0:
136,24,59565,1,0,0:0:0:0:
136,24,59762,6,0,P|182:69|164:134,1,107.999996704102,2|0,3:2|0:0,0:0:0:0:
113,144,60058,1,0,0:0:0:0:
105,141,60157,2,0,P|96:119|109:90,1,53.9999983520508,10|0,0:0|0:0,0:0:0:0:
240,246,60354,1,0,0:0:0:0:
37,281,60551,5,2,3:2:0:0:
29,265,60749,1,2,0:0:0:0:
107,298,60946,5,10,0:0:0:0:
108,226,61144,1,2,0:0:0:0:
178,334,61341,5,2,3:2:0:0:
210,238,61538,1,2,0:0:0:0:
247,379,61736,5,10,0:0:0:0:
313,260,61933,1,2,0:0:0:0:
451,365,62130,5,2,3:2:0:0:
306,334,62328,1,2,0:0:0:0:
479,229,62525,5,10,0:0:0:0:
298,257,62723,1,0,0:0:0:0:
468,113,62920,5,2,3:2:0:0:
253,196,63117,1,2,0:0:0:0:
406,10,63315,5,10,0:0:0:0:
195,145,63512,1,2,0:0:0:0:
256,192,63709,12,2,64894,0:0:0:0:
95,62,65288,6,0,B|55:44|55:44|97:137,1,125.999996154785,6|0,3:2|0:0,0:0:0:0:
102,190,65584,2,0,B|142:208|142:208|100:115,1,125.999996154785,2|0,0:0|0:0,0:0:0:0:
22,157,65880,1,2,3:2:0:0:
116,296,66078,5,10,0:0:0:0:
116,296,66275,1,2,0:0:0:0:
300,319,66473,6,0,P|310:272|285:300,1,125.999996154785,2|0,3:2|0:0,0:0:0:0:
235,363,66769,2,0,P|191:380|219:342,1,125.999996154785,2|0,0:0|0:0,0:0:0:0:
215,266,67065,1,2,3:2:0:0:
323,179,67262,6,0,B|365:185|365:185|386:195|386:195|430:201,1,101.250003862381,2|0,3:2|0:0,0:0:0:0:
485,154,67657,6,2,B|458:160|458:160|452:166|452:166|413:179,1,72,10|0,0:0|0:0,0:0:0:0:
299,257,67854,2,2,B|273:251|273:251|267:245|267:245|232:233,1,72,2|0,0:0|0:0,0:0:0:0:
169,115,68051,6,2,P|195:109|180:125,1,67.5000025749208,2|0,0:0|0:0,0:0:0:0:
96,266,68249,2,2,P|70:272|85:256,1,67.5000025749208,2|0,0:0|0:0,0:0:0:0:
133,191,68446,5,2,3:2:0:0:
33,48,68644,1,2,3:2:0:0:
26,54,68742,2,0,L|42:148,1,67.5000025749208,2|0,0:0|0:0,0:0:0:0:
14,193,69038,6,0,B|7:220|7:220|9:233|9:233|0:260,1,67.5000025749208,2|2,3:2|3:2,0:0:0:0:
23,335,69236,6,0,P|72:347|103:309,1,101.250003862381,10|0,0:0|0:0,0:0:0:0:
165,262,69630,2,0,P|116:274|85:236,1,101.250003862381,4|0,3:2|0:0,0:0:0:0:
127,171,70025,6,2,B|171:160|171:160|181:164|181:164|216:156|216:156|268:182|236:266,1,161.999995056153,2|2,3:2|3:2,0:0:0:0:
390,165,70420,5,2,3:2:0:0:
379,162,70519,2,0,B|331:162|339:218|339:218|346:274|302:281,1,161.999995056153,2|2,0:0|3:2,0:0:0:0:
239,314,70815,6,0,B|244:345|244:345|242:351|242:351|248:385,1,67.5000025749208,10|2,0:0|3:2,0:0:0:0:
449,215,71209,1,2,0:0:0:0:
443,246,71308,1,0,0:0:0:0:
439,278,71407,2,0,B|434:309|434:309|436:315|436:315|430:349,1,67.5000025749208,0|0,0:0|0:0,0:0:0:0:
269,105,71604,6,0,B|343:80|343:80|330:132|330:132|334:147|334:147|322:155|322:155|309:210,1,215.999993408203,4|0,3:2|0:0,0:0:0:0:
169,51,72196,1,2,3:2:0:0:
169,51,72394,2,0,L|193:162,1,101.250003862381,10|0,0:0|0:0,0:0:0:0:
143,212,72788,6,2,P|97:185|111:135,1,101.250003862381,2|0,3:2|0:0,0:0:0:0:
115,138,73183,1,0,0:0:0:0:
251,326,73380,1,0,3:2:0:0:
251,326,73578,2,0,P|291:308|279:256,1,101.250003862381,0|0,3:2|0:0,0:0:0:0:
187,279,73973,6,0,B|137:287|137:287|112:307|112:307|52:317,1,135,10|0,0:0|0:0,0:0:0:0:
0,273,74367,2,0,P|-5:254|12:261,1,45,2|2,0:0|0:0,0:0:0:0:
91,126,74565,2,0,L|53:135,2,30,2|0|0,3:2|0:0|0:0,0:0:0:0:
111,116,74762,6,2,P|152:164|206:162,1,116.999994644165,2|0,3:2|0:0,0:0:0:0:
254,63,75058,2,2,P|213:15|159:17,1,116.999994644165,2|0,3:2|0:0,0:0:0:0:
181,88,75354,1,2,3:2:0:0:
308,152,75551,6,2,B|357:147|353:97|353:97|348:47|399:39,1,161.999995056153,10|0,0:2|0:0,0:0:0:0:
463,76,75946,6,0,B|454:122|454:122|456:134|456:134|444:194,1,101.250003862381,2|2,3:2|0:0,0:0:0:0:
440,253,76341,6,0,P|475:254|506:229,1,67.5000025749208,2|2,0:0|0:0,0:0:0:0:
334,302,76538,2,2,P|363:322|376:355,1,67.5000025749208,2|0,3:2|0:0,0:0:0:0:
202,260,76736,6,2,P|251:237|246:171,1,121.499996292114,2|2,3:2|3:2,0:0:0:0:
183,147,77130,6,0,B|150:152|150:152|140:160|140:160|99:166,2,77.9999964294435,10|0|0,0:2|0:0|0:0,0:0:0:0:
234,87,77525,1,6,3:2:0:0:
240,95,77624,2,0,B|290:102|290:102|310:116|310:116|362:123,1,116.999994644165,0|0,0:0|0:0,0:0:0:0:
419,76,77920,6,2,B|436:61|454:60|454:60|431:48|395:62,1,101.250003862381,0|2,0:0|0:0,0:0:0:0:
428,156,78315,1,0,0:0:0:0:
315,314,78512,6,0,L|324:275,2,22.5000008583069,2|0|0,3:2|0:0|0:0,0:0:0:0:
341,223,78709,5,2,3:2:0:0:
341,223,78907,1,2,0:0:0:0:
116,232,79104,6,0,B|90:179|90:179|150:209,1,125.999996154785,2|0,3:2|0:0,0:0:0:0:
203,284,79400,2,0,B|228:336|228:336|168:306,1,125.999996154785,2|0,0:2|0:0,0:0:0:0:
92,313,79696,1,2,3:2:0:0:
244,188,79894,6,0,P|271:144|257:90,1,101.250003862381,2|0,3:2|0:0,0:0:0:0:
181,65,80288,6,2,P|180:98|196:132,1,67.5000025749208,10|0,0:0|0:0,0:0:0:0:
328,206,80486,2,2,P|329:239|313:273,1,67.5000025749208,0|0,0:0|0:0,0:0:0:0:
220,349,80683,6,2,B|190:331|190:331|220:321,1,67.5000025749208,2|0,0:0|0:0,0:0:0:0:
374,341,80880,2,2,B|404:359|404:359|374:369,1,67.5000025749208,2|0,0:0|0:0,0:0:0:0:
293,356,81078,5,2,3:2:0:0:
398,267,81275,1,2,0:0:0:0:
403,273,81374,2,0,L|493:293,1,67.5000025749208,2|0,0:0|0:0,0:0:0:0:
512,190,81670,6,0,B|473:186|480:207|425:203,1,67.5000025749208,2|2,3:2|3:2,0:0:0:0:
318,253,81867,6,0,B|271:242|291:213|222:205,1,101.250003862381,10|0,0:0|0:0,0:0:0:0:
158,225,82262,2,0,B|218:218|198:189|245:178,1,101.250003862381,4|0,3:2|0:0,0:0:0:0:
323,132,82657,6,2,B|276:115|279:54|279:54|248:103|155:98,1,161.999995056153,2|2,0:0|3:2,0:0:0:0:
0,87,83051,5,2,3:2:0:0:
8,83,83150,2,0,B|31:74|31:74|108:139|108:139|151:123,1,161.999995056153,0|2,0:0|3:2,0:0:0:0:
205,171,83446,6,0,P|213:202|201:242,1,67.5000025749208,10|0,0:0|0:0,0:0:0:0:
142,281,83742,5,2,0:0:0:0:
131,278,83841,2,2,B|101:270|101:270|94:271|94:271|60:264,1,67.5000025749208,2|0,3:2|0:0,0:0:0:0:
262,354,84038,2,0,B|233:359|233:359|226:358|226:358|196:366,1,67.5000025749208,0|0,0:0|0:0,0:0:0:0:
413,272,84236,6,0,B|439:296|439:296|288:271,1,180,2|2,3:2|0:0,0:0:0:0:
443,107,84828,5,2,3:2:0:0:
276,158,85025,1,10,0:0:0:0:
341,75,85223,6,2,L|350:117,2,22.5,10|0|0,3:2|0:0|0:0,0:0:0:0:
375,199,85420,2,0,L|366:157,8,22.5,4|0|0|0|0|0|0|0|0,3:2|0:0|0:0|0:0|0:0|0:0|0:0|0:0|0:0,0:0:0:0:
357,131,86604,5,4,0:0:0:0:
45,24,99236,6,0,L|56:136,1,71.9999978027344,2|2,3:2|0:0,0:0:0:0:
101,163,99499,1,2,0:0:0:0:
101,163,99630,2,0,P|31:207|34:280,1,143.999995605469,2|2,0:0|3:2,0:0:0:0:
97,326,100025,2,0,B|185:305|185:305|198:326|234:340,1,143.999995605469,10|8,0:0|0:0,0:0:0:0:
319,319,100420,6,0,L|306:407,2,71.9999978027344,2|2|2,0:0|0:0|0:0,0:0:0:0:
268,242,100815,2,0,L|257:170,2,71.9999978027344,2|2|2,0:0|3:2|3:2,0:0:0:0:
361,239,101209,1,2,3:2:0:0:
361,239,101341,2,0,P|395:218|444:220,1,71.9999978027344,2|2,0:0|0:0,0:0:0:0:
505,293,101604,5,10,0:0:0:0:
466,360,101736,1,2,3:2:0:0:
421,296,101867,1,2,3:2:0:0:
464,317,101999,5,10,0:0:0:0:
462,31,102394,5,2,3:2:0:0:
462,31,102525,2,0,L|446:115,1,71.9999978027344,0|0,0:0|0:0,0:0:0:0:
363,150,102788,5,2,0:0:0:0:
290,150,102920,1,0,0:0:0:0:
246,90,103051,1,2,3:2:0:0:
215,14,103183,6,0,B|172:11|173:62|173:62|172:109|95:104,1,143.999995605469,10|10,0:0|0:0,0:0:0:0:
42,72,103578,1,2,3:2:0:0:
42,72,103709,2,0,L|56:-2,1,71.9999978027344,2|0,3:2|0:0,0:0:0:0:
139,174,103973,1,2,0:0:0:0:
139,174,104104,2,0,L|125:100,1,71.9999978027344,2|2,3:2|3:2,0:0:0:0:
66,222,104367,5,2,3:2:0:0:
50,295,104499,1,2,3:2:0:0:
32,368,104630,1,2,0:0:0:0:
110,353,104762,6,2,B|145:348|145:348|147:346|147:346|189:342,2,71.9999978027344,8|0|0,3:2|0:0|0:0,0:0:0:0:
245,273,105157,2,2,B|280:278|280:278|282:280|282:280|324:284,2,71.9999978027344,2|0|0,0:0|0:0|0:0,0:0:0:0:
370,360,105551,6,0,B|400:366|400:366|454:298|454:298|485:307,1,143.999995605469,2|0,3:2|0:0,0:0:0:0:
512,214,105946,2,0,P|486:195|426:208,1,71.9999978027344,2|0,0:0|0:0,0:0:0:0:
366,226,106209,1,2,3:2:0:0:
366,226,106341,2,0,L|357:69,1,143.999995605469,10|10,0:0|0:0,0:0:0:0:
280,12,106736,6,0,P|245:0|192:9,2,71.9999978027344,2|2|0,3:2|3:2|0:0,0:0:0:0:
194,114,107130,2,0,P|229:126|282:117,2,71.9999978027344,2|2|2,0:0|3:2|3:2,0:0:0:0:
106,49,107525,1,2,3:2:0:0:
106,49,107657,2,0,L|21:42,1,71.9999978027344,0|2,0:0|0:0,0:0:0:0:
10,139,107920,5,10,0:0:0:0:
78,178,108051,1,2,3:2:0:0:
59,255,108183,1,2,3:2:0:0:
42,264,108315,5,10,0:0:0:0:
462,31,108709,5,2,3:2:0:0:
462,31,108841,2,0,L|446:115,1,71.9999978027344,2|2,0:0|0:0,0:0:0:0:
502,202,109104,5,2,0:0:0:0:
433,177,109236,1,0,0:0:0:0:
371,218,109367,1,2,3:2:0:0:
337,285,109499,6,0,B|294:288|295:237|295:237|294:190|217:195,1,143.999995605469,10|10,0:0|0:0,0:0:0:0:
149,281,109894,1,2,3:2:0:0:
149,281,110025,2,0,L|223:267,1,71.9999978027344,2|2,3:2|0:0,0:0:0:0:
122,126,110288,1,2,0:0:0:0:
122,126,110420,2,0,L|196:140,1,71.9999978027344,2|2,3:2|3:2,0:0:0:0:
176,30,110683,5,2,3:2:0:0:
103,48,110815,1,2,3:2:0:0:
30,64,110946,1,2,0:0:0:0:
19,80,111078,6,2,B|24:45|24:45|26:43|26:43|30:1,2,71.9999978027344,10|2|0,0:0|0:0|0:0,0:0:0:0:
98,195,111473,2,2,B|94:161|94:161|92:159|92:159|87:124,2,71.9999978027344,0|0|0,0:0|0:0|0:0,0:0:0:0:
295,102,112920,5,2,3:2:0:0:
295,102,113051,2,0,P|217:99|182:177,1,143.999995605469,4|0,3:2|0:0,0:0:0:0:
92,74,113446,5,2,0:0:0:0:
105,153,113578,1,0,3:2:0:0:
118,232,113709,1,0,3:2:0:0:
62,289,113841,6,0,B|31:272|31:272|-3:279,2,71.9999978027344,2|0|0,0:0|0:0|0:0,0:0:0:0:
198,224,114236,5,10,0:0:0:0:
198,224,114367,2,0,L|324:201,1,71.9999978027344,0|0,3:2|3:2,0:0:0:0:
340,321,114630,2,0,P|338:250|378:191,1,143.999995605469,10|0,0:0|0:0,0:0:0:0:
414,346,115025,2,0,P|454:287|452:216,1,143.999995605469,2|2,3:2|0:0,0:0:0:0:
338,122,115420,2,0,P|305:121|264:166,1,71.9999978027344,2|0,0:0|0:0,0:0:0:0:
239,3,115683,1,2,3:2:0:0:
239,3,115815,6,0,L|222:97,1,71.9999978027344,10|0,0:0|0:0,0:0:0:0:
113,50,116078,1,2,3:2:0:0:
113,50,116209,2,0,P|153:108|151:179,1,143.999995605469,2|0,3:2|0:0,0:0:0:0:
14,254,116604,5,2,0:0:0:0:
86,218,116736,1,2,3:2:0:0:
156,255,116867,1,2,3:2:0:0:
178,249,116999,6,0,L|165:319,2,71.9999978027344,0|2|0,3:2|3:2|0:0,0:0:0:0:
248,183,117394,2,2,L|260:253,2,71.9999978027344,10|0|0,0:0|0:0|0:0,0:0:0:0:
173,102,117788,2,2,P|217:155|286:147,1,143.999995605469,2|0,0:0|0:0,0:0:0:0:
395,233,118183,2,0,P|366:211|330:211,2,71.9999978027344,2|0|2,3:2|0:0|0:0,0:0:0:0:
447,363,118578,5,2,3:2:0:0:
460,284,118709,1,0,0:0:0:0:
473,205,118841,1,0,0:0:0:0:
416,149,118973,5,10,0:0:0:0:
280,270,119236,1,10,0:0:0:0:
280,270,119367,2,0,P|251:248|215:248,2,71.9999978027344,2|0|0,3:2|0:0|0:0,0:0:0:0:
338,153,119762,2,0,P|302:153|274:174,2,71.9999978027344,2|2|2,3:2|0:0|0:0,0:0:0:0:
421,244,120157,1,2,3:2:0:0:
421,244,120288,2,0,L|336:229,1,71.9999978027344,0|2,0:0|0:0,0:0:0:0:
198,173,120551,5,10,0:0:0:0:
130,134,120683,1,0,0:0:0:0:
149,57,120815,1,2,0:0:0:0:
166,48,120946,5,10,0:0:0:0:
51,242,121341,2,0,L|64:130,2,71.9999978027344,10|0|2,0:0|0:0|3:2,0:0:0:0:
63,366,121736,5,10,0:0:0:0:
102,298,121867,1,2,3:2:0:0:
179,317,121999,1,2,3:2:0:0:
188,334,122130,5,10,3:2:0:0:
318,358,122394,1,2,3:2:0:0:
318,358,122525,2,0,P|282:358|254:379,2,71.9999978027344,10|0|10,0:0|3:2|0:0,0:0:0:0:
254,287,122920,5,10,0:0:0:0:
272,214,123051,1,8,0:0:0:0:
288,141,123183,1,10,0:0:0:0:
302,151,123315,5,10,0:0:0:0:
341,83,123446,1,8,0:0:0:0:
418,102,123578,1,8,0:0:0:0:
427,119,123709,5,8,0:1:0:0:
103,177,124499,6,0,B|151:183|191:222|191:222|143:50,1,270,2|2,0:0|0:0,0:0:0:0:
344,269,125683,2,0,B|296:275|256:314|256:314|304:142,1,270,2|2,0:0|0:0,0:0:0:0:
198,148,126473,2,0,B|184:129|204:107|204:107|228:124|220:145,2,90,0|0|0,0:0|0:0|0:0,0:0:0:0:
25,196,127657,6,0,P|86:204|130:18,1,270,2|2,0:0|0:0,0:0:0:0:
153,266,128841,2,0,B|284:222|262:375|394:331,1,270,2|2,0:0|0:0,0:0:0:0:
462,371,129630,1,0,0:0:0:0:
462,371,130025,6,0,P|412:329|423:266,1,135,0|0,0:0|0:0,0:0:0:0:
497,243,130420,2,0,P|432:243|399:187,1,135,0|0,0:0|0:0,0:0:0:0:
470,152,130815,6,0,B|338:195|360:42|228:86,1,270,2|2,0:0|0:0,0:0:0:0:
1,37,131999,2,0,P|62:29|106:215,1,270,2|2,0:0|0:0,0:0:0:0:
64,255,132788,6,0,B|54:215|54:215|57:211|57:211|46:168,2,90,0|0|0,0:0|0:0|0:0,0:0:0:0:
212,330,133973,6,0,B|237:209|237:209|228:188|228:188|251:64,1,270,2|2,0:0|0:0,0:0:0:0:
477,0,135157,2,0,P|416:-8|372:178,1,270,2|2,0:0|0:0,0:0:0:0:
383,239,135946,6,0,B|344:231|344:231|338:233|338:233|294:225,1,90,0|0,0:0|0:0,0:0:0:0:
111,288,136341,6,0,P|152:238|215:249,1,135,0|0,0:0|0:0,0:0:0:0:
239,322,136736,2,0,P|238:257|294:224,1,135,0|0,0:0|0:0,0:0:0:0:
222,164,137130,6,0,L|231:116,2,45,2|2|2,3:2|0:0|0:0,0:0:0:0:
304,57,137525,2,0,L|312:146,1,90,2|0,3:2|0:0,0:0:0:0:
160,242,137920,6,0,L|151:194,2,45,2|2|2,3:2|0:0|0:0,0:0:0:0:
78,135,138315,2,0,L|69:224,1,90,2|0,3:2|0:0,0:0:0:0:
237,284,138709,6,0,B|242:263|242:263|242:258|242:258|246:236,2,45,2|2|2,3:2|0:0|0:0,0:0:0:0:
327,371,139104,2,0,B|322:325|322:325|324:321|324:321|318:273,1,90,2|0,3:2|0:0,0:0:0:0:
487,293,139499,6,0,B|482:315|482:315|483:319|483:319|478:341,2,45,2|2|2,3:2|0:0|0:0,0:0:0:0:
394,212,139894,2,0,B|399:258|399:258|397:262|397:262|403:310,1,90,2|0,3:2|0:0,0:0:0:0:
426,104,140288,5,2,3:2:0:0:
431,101,140387,1,0,0:0:0:0:
436,98,140486,1,0,0:0:0:0:
350,147,140683,2,0,P|313:123|269:127,1,90,2|0,3:2|0:0,0:0:0:0:
204,7,141078,5,2,3:2:0:0:
209,4,141176,1,2,0:0:0:0:
214,1,141275,1,2,0:0:0:0:
195,93,141473,2,0,P|154:109|132:147,1,90,2|0,3:2|0:0,0:0:0:0:
182,294,141867,5,2,3:2:0:0:
177,297,141966,1,2,0:0:0:0:
172,300,142065,1,2,0:0:0:0:
191,208,142262,2,0,P|231:191|253:153,1,90,2|0,3:2|0:0,0:0:0:0:
388,190,142657,5,0,3:2:0:0:
393,193,142755,1,2,0:2:0:0:
398,196,142854,1,2,0:2:0:0:
330,127,143051,2,0,P|339:84|320:44,1,90,2|0,3:2|0:0,0:0:0:0:
484,110,143446,5,8,0:1:0:0:
484,110,143644,2,0,L|399:123,2,67.5000025749208,2|8|2,0:0|0:1|0:0,0:0:0:0:
347,191,144236,5,8,0:1:0:0:
347,191,144433,2,0,L|432:204,2,67.5000025749208,2|8|2,0:0|0:1|0:0,0:0:0:0:
475,274,145025,5,8,0:1:0:0:
475,274,145223,2,0,L|390:287,1,67.5000025749208,2|8,0:0|0:1,0:0:0:0:
233,292,145617,6,0,L|246:207,1,67.5000025749208,2|8,0:0|0:1,0:0:0:0:
320,306,146012,2,0,L|333:221,1,67.5000025749208,2|8,0:0|0:1,0:0:0:0:
159,331,146407,6,0,L|148:289,1,33.7500012874604,2|0,0:0|0:0,0:0:0:0:
127,230,146604,1,8,0:1:0:0:
125,224,146703,1,2,0:0:0:0:
123,218,146801,1,2,0:0:0:0:
197,70,146999,6,0,B|187:115|187:115|181:120|181:120|171:162,1,90,8|0,0:1|0:0,0:0:0:0:
211,222,147394,1,8,0:1:0:0:
209,228,147492,1,2,0:0:0:0:
207,234,147591,1,2,0:0:0:0:
290,369,147788,6,0,P|291:319|252:278,1,90,8|2,0:1|0:0,0:0:0:0:
293,214,148183,1,8,0:1:0:0:
291,208,148282,1,2,0:0:0:0:
289,202,148380,1,2,0:0:0:0:
438,291,148578,6,0,B|393:281|393:281|388:275|388:275|352:266,1,90,8|0,0:1|0:0,0:0:0:0:
423,207,148973,6,0,B|418:186|418:186|421:170|421:170|416:149,1,56.25,8|2,0:1|0:0,0:0:0:0:
292,314,149170,2,0,B|297:335|297:335|294:351|294:351|298:368,1,56.25,2|2,0:0|0:0,0:0:0:0:
214,193,149367,5,8,0:1:0:0:
228,215,149466,1,2,0:0:0:0:
222,241,149565,1,2,0:0:0:0:
233,253,149663,1,2,0:0:0:0:
228,268,149762,6,0,L|248:101,1,161.999995056153,4|0,3:2|0:0,0:0:0:0:
217,38,150157,2,0,P|269:35|311:67,1,107.999996704102,10|2,0:0|0:0,0:0:0:0:
385,0,150551,6,0,L|405:167,1,161.999995056153,2|0,3:2|0:0,0:0:0:0:
374,230,150946,2,0,P|426:232|468:200,1,107.999996704102,10|0,0:0|0:0,0:0:0:0:
439,312,151341,6,0,P|375:263|296:267,1,161.999995056153,2|0,3:2|0:0,0:0:0:0:
253,207,151736,2,0,L|274:317,1,107.999996704102,10|0,0:0|0:0,0:0:0:0:
10,220,152130,6,0,P|73:268|152:264,1,161.999995056153,2|0,3:2|0:0,0:0:0:0:
196,325,152525,2,0,L|175:215,1,107.999996704102,10|0,0:0|0:0,0:0:0:0:
306,330,152920,5,2,3:2:0:0:
263,263,153216,1,0,0:0:0:0:
267,254,153315,1,10,0:0:0:0:
327,201,153512,1,2,0:0:0:0:
456,216,153709,5,2,3:2:0:0:
499,149,154005,1,0,0:0:0:0:
495,140,154104,1,10,0:0:0:0:
435,87,154301,1,0,0:0:0:0:
302,49,154499,5,2,3:2:0:0:
228,73,154794,1,0,0:0:0:0:
218,76,154893,1,10,0:0:0:0:
144,100,155091,1,0,0:0:0:0:
28,142,155288,5,2,3:2:0:0:
102,166,155584,1,0,0:0:0:0:
112,169,155682,1,10,0:0:0:0:
186,193,155880,1,0,0:0:0:0:
242,260,156078,6,0,B|190:271|190:271|181:267|181:267|127:277,1,107.999996704102,2|0,3:2|0:0,0:0:0:0:
78,328,156374,1,0,0:0:0:0:
70,325,156473,2,0,L|9:312,1,53.9999983520508,10|0,0:0|0:0,0:0:0:0:
188,348,156670,1,2,0:0:0:0:
188,348,156867,6,0,B|240:359|240:359|249:355|249:355|303:365,1,107.999996704102,2|0,3:2|0:0,0:0:0:0:
348,306,157163,1,0,0:0:0:0:
356,303,157262,2,0,L|417:290,1,53.9999983520508,10|0,0:0|0:0,0:0:0:0:
338,168,157459,1,0,0:0:0:0:
338,168,157657,6,0,P|292:213|310:278,1,107.999996704102,2|0,3:2|0:0,0:0:0:0:
219,289,157953,1,0,0:0:0:0:
229,294,158051,2,0,P|241:322|269:333,1,53.9999983520508,10|0,0:0|0:0,0:0:0:0:
116,287,158249,1,0,0:0:0:0:
116,287,158446,6,0,P|162:242|144:177,1,107.999996704102,2|0,3:2|0:0,0:0:0:0:
235,166,158742,1,0,0:0:0:0:
225,161,158841,2,0,P|212:132|184:121,1,53.9999983520508,10|0,0:0|0:0,0:0:0:0:
342,238,159038,1,0,0:0:0:0:
383,158,159236,5,2,3:2:0:0:
388,174,159433,1,2,0:0:0:0:
331,75,159630,5,10,0:0:0:0:
305,142,159828,1,2,0:0:0:0:
200,28,160025,5,2,3:2:0:0:
232,111,160223,1,2,0:0:0:0:
125,0,160420,5,10,0:0:0:0:
83,107,160617,1,2,0:0:0:0:
236,8,160815,5,2,3:2:0:0:
55,36,161012,1,2,0:0:0:0:
248,6,161209,5,10,0:0:0:0:
42,37,161407,1,2,0:0:0:0:
214,175,161604,5,2,3:2:0:0:
15,145,161801,1,2,0:0:0:0:
228,177,161999,5,10,0:0:0:0:
1,142,162196,1,2,0:0:0:0:
256,192,162394,12,0,163578,0:0:0:0:
247,177,163973,6,0,P|209:226|218:286,1,125.999996154785,4|0,3:2|0:0,0:0:0:0:
321,202,164269,2,0,P|330:263|292:311,1,125.999996154785,2|0,0:0|0:0,0:0:0:0:
234,362,164565,1,2,3:2:0:0:
410,283,164762,5,10,0:0:0:0:
410,283,164959,1,2,0:0:0:0:
315,125,165157,6,0,P|325:78|300:106,1,125.999996154785,2|0,3:2|0:0,0:0:0:0:
250,169,165453,2,0,P|206:186|234:148,1,125.999996154785,2|0,0:0|0:0,0:0:0:0:
230,72,165749,1,2,3:2:0:0:
158,246,165946,6,0,B|116:240|116:240|95:230|95:230|51:224,1,101.250003862381,2|0,3:2|0:0,0:0:0:0:
0,272,166341,6,0,B|75:261,1,72,10|0,0:0|0:0,0:0:0:0:
150,168,166538,2,2,B|221:178,1,72,2|0,0:0|0:0,0:0:0:0:
16,15,166736,6,2,P|38:0|29:20,1,67.5000025749208,2|0,0:0|0:0,0:0:0:0:
97,112,166933,2,2,P|92:79|111:48,1,67.5000025749208,2|0,0:0|0:0,0:0:0:0:
173,6,167130,5,2,3:2:0:0:
303,87,167328,1,2,3:2:0:0:
296,94,167426,2,0,L|202:110,1,67.5000025749208,2|0,0:0|0:0,0:0:0:0:
208,180,167723,6,0,B|216:154|216:154|214:141|214:141|221:114,1,67.5000025749208,2|2,3:2|3:2,0:0:0:0:
328,279,167920,2,0,L|227:291,1,101.250003862381,10|0,0:0|0:0,0:0:0:0:
148,268,168315,2,0,P|197:256|228:294,1,101.250003862381,4|0,3:2|0:0,0:0:0:0:
110,347,168709,2,2,B|119:268|119:268|116:265|116:265|126:186,1,161.999995056153,2|2,0:0|3:2,0:0:0:0:
0,167,169104,5,2,3:2:0:0:
8,160,169203,2,0,P|86:170|147:120,1,161.999995056153,2|2,0:0|3:2,0:0:0:0:
227,137,169499,6,0,B|222:106|222:106|224:100|224:100|218:66,1,67.5000025749208,10|2,0:2|3:2,0:0:0:0:
372,10,169894,1,2,0:0:0:0:
366,41,169992,1,0,0:0:0:0:
362,74,170091,2,0,P|332:90|299:85,1,67.5000025749208,0|0,0:0|0:0,0:0:0:0:
512,67,170288,6,0,B|474:62|442:31|442:31|480:167,1,215.999993408203,4|0,3:2|0:0,0:0:0:0:
377,271,170880,1,2,3:2:0:0:
377,271,171078,2,0,L|401:160,1,101.250003862381,10|0,0:0|0:0,0:0:0:0:
330,136,171473,6,2,P|350:92|398:95,1,101.250003862381,2|0,3:2|0:0,0:0:0:0:
398,172,171867,1,0,0:0:0:0:
263,79,172065,1,2,3:2:0:0:
263,79,172262,2,0,P|235:39|188:50,1,101.250003862381,2|0,3:2|0:0,0:0:0:0:
114,43,172657,6,0,B|164:35|164:35|189:15|189:15|249:5,1,135,10|0,0:0|0:0,0:0:0:0:
315,65,173051,2,0,P|310:46|298:60,1,45,2|2,0:0|0:0,0:0:0:0:
272,175,173249,2,0,L|234:166,2,30,2|0|0,3:2|0:0|0:0,0:0:0:0:
291,179,173446,6,2,B|336:141|336:141|392:157,1,116.999994644165,2|0,3:2|0:0,0:0:0:0:
422,278,173742,2,2,B|376:315|376:315|320:299,1,116.999994644165,2|0,3:2|0:0,0:0:0:0:
357,228,174038,1,2,3:2:0:0:
115,290,174236,6,2,B|194:316|180:223|260:250,1,161.999995056153,10|0,3:2|0:0,0:0:0:0:
319,199,174630,6,0,B|310:153|310:153|312:141|312:141|303:99,1,101.250003862381,2|2,3:2|0:0,0:0:0:0:
372,60,175025,6,0,P|371:25|396:-6,1,67.5000025749208,2|2,0:0|0:0,0:0:0:0:
464,21,175223,2,2,P|465:56|440:87,1,67.5000025749208,2|0,3:2|0:0,0:0:0:0:
291,23,175420,6,2,P|238:34|228:99,1,121.499996292114,2|2,3:2|3:2,0:0:0:0:
190,164,175815,6,0,B|158:168|158:168|148:176|148:176|115:181,2,77.9999964294435,10|0|0,0:0|0:0|0:0,0:0:0:0:
253,226,176209,1,12,0:0:0:0:
247,217,176308,2,0,B|297:224|297:224|317:238|317:238|369:245,1,116.999994644165,0|0,0:0|0:0,0:0:0:0:
408,305,176604,6,2,B|412:289|374:270|374:270|383:291|373:320,1,101.250003862381,2|2,0:2|0:0,0:0:0:0:
417,382,176999,1,2,0:0:0:0:
464,240,177196,6,0,L|473:201,2,22.5000008583069,2|0|0,3:2|0:0|0:0,0:0:0:0:
491,146,177394,5,10,0:0:0:0:
491,146,177591,1,2,0:0:0:0:
389,57,177788,6,0,B|450:70|450:70|404:113,1,125.999996154785,2|0,3:2|0:0,0:0:0:0:
325,128,178084,2,0,B|263:114|263:114|309:71,1,125.999996154785,2|0,0:0|0:0,0:0:0:0:
337,0,178380,1,2,3:2:0:0:
206,168,178578,6,0,P|157:161|119:192,1,101.250003862381,2|0,3:2|0:0,0:0:0:0:
42,183,178973,2,2,P|39:150|59:120,1,67.5000025749208,10|0,0:0|0:0,0:0:0:0:
145,265,179170,2,2,P|178:268|202:290,1,67.5000025749208,2|0,0:0|0:0,0:0:0:0:
231,94,179367,6,2,B|258:74|258:74|291:80,1,67.5000025749208,2|0,0:0|0:0,0:0:0:0:
325,214,179565,2,2,B|298:234|298:234|266:229,1,67.5000025749208,2|0,0:0|0:0,0:0:0:0:
278,154,179762,5,2,3:2:0:0:
385,265,179959,1,2,3:2:0:0:
393,273,180058,2,0,L|483:293,1,67.5000025749208,2|0,0:0|0:0,0:0:0:0:
403,352,180354,6,0,B|369:348|376:369|337:365,1,67.5000025749208,2|2,3:2|3:2,0:0:0:0:
352,199,180551,6,0,P|303:205|265:174,1,101.250003862381,10|0,0:0|0:0,0:0:0:0:
186,177,180946,2,0,P|153:140|156:91,1,101.250003862381,4|0,3:2|0:0,0:0:0:0:
93,45,181341,6,2,B|172:54|172:54|175:51|175:51|254:61,1,161.999995056153,2|2,0:0|3:2,0:0:0:0:
413,118,181736,5,2,3:2:0:0:
405,125,181834,2,0,P|327:115|266:165,1,161.999995056153,0|2,0:0|3:2,0:0:0:0:
183,151,182130,6,2,B|188:179|188:179|187:186|187:186|195:216,1,67.5000025749208,10|0,0:0|0:0,0:0:0:0:
161,289,182426,5,0,3:0:0:0:
152,282,182525,2,2,P|169:253|167:220,1,67.5000025749208,0|0,0:0|0:0,0:0:0:0:
92,199,182723,2,0,P|74:227|76:260,1,67.5000025749208,0|0,0:0|0:0,0:0:0:0:
118,373,182920,6,0,P|174:306|262:302,1,180,2|2,3:2|0:0,0:0:0:0:
290,120,183512,5,2,3:2:0:0:
341,287,183709,1,2,3:2:0:0:
258,222,183907,6,2,L|300:213,2,22.5,2|0|2,3:2|0:0|0:0,0:0:0:0:
382,188,184104,2,0,L|340:197,7,22.5,2|0|0|0|0|0|0|0,3:2|0:0|0:0|0:0|0:0|0:0|0:0|0:0,0:0:0:0:
402,183,184499,5,2,0:0:0:0:
483,270,184696,2,0,B|454:264|454:264|447:265|447:265|417:257,1,67.5000025749208,2|2,3:2|0:0,0:0:0:0:
318,362,184894,2,0,P|311:308|345:266,1,107.999996704102,2|2,3:2|0:0,0:0:0:0:
111,109,186078,5,6,3:2:0:0:
118,120,186176,2,0,L|94:267,1,135.000005149842,2|2,0:0|0:0,0:0:0:0:
151,335,186473,1,2,0:0:0:0:
158,334,186571,1,0,0:0:0:0:
165,330,186670,2,2,P|193:291|195:249,1,67.5000025749208,2|0,3:2|0:0,0:0:0:0:
236,142,186867,5,10,0:0:0:0:
229,149,186966,2,0,B|200:176|200:176|346:154,1,161.999995056153,0|2,0:0|0:0,0:0:0:0:
307,25,187262,6,2,B|312:4|338:-1|338:-1|304:-17|263:10|266:51|285:77,1,161.999995056153,2|0,3:2|0:0,0:0:0:0:
290,80,187657,1,2,0:0:0:0:
491,69,187854,6,2,L|423:62,1,53.9999983520508,2|0,3:2|0:0,0:0:0:0:
491,158,188051,2,2,B|420:151,1,67.5000025749208,2|0,3:2|0:0,0:0:0:0:
484,244,188249,2,2,B|444:239|444:239|441:240|441:240|403:236,1,80.9999975280763,2|0,0:0|0:0,0:0:0:0:
227,214,188446,5,10,0:0:0:0:
281,292,188644,6,2,B|307:301|307:301|293:247,1,53.9999983520508,2|0,0:0|0:0,0:0:0:0:
136,232,188841,2,2,B|109:251|109:251|168:264,1,67.5000025749208,2|0,0:0|0:0,0:0:0:0:
273,128,189038,2,2,B|272:90|272:90|228:140,1,80.9999975280763,2|0,3:2|0:0,0:0:0:0:
97,56,189236,6,0,B|70:18|136:-18|187:20|185:83|151:122|113:142,1,202.500007724762,4|2,3:2|0:0,0:0:0:0:
43,183,189630,6,2,L|29:111,1,67.5000025749208,2|0,0:0|0:0,0:0:0:0:
172,259,189828,2,2,L|186:187,1,67.5000025749208,2|0,3:2|0:0,0:0:0:0:
43,280,190025,5,10,0:0:0:0:
52,276,190124,2,0,B|98:277|91:327|91:327|84:373|146:372,1,135.000005149842,0|2,0:0|0:0,0:0:0:0:
326,238,190420,6,2,B|284:224|284:224|213:325|213:325|153:298,1,215.999993408203,2|2,3:2|0:0,0:0:0:0:
278,87,191011,5,2,3:2:0:0:
288,86,191110,1,0,0:0:0:0:
296,90,191209,2,2,P|318:111|327:142,1,53.9999983520508,2|0,0:0|0:0,0:0:0:0:
420,120,191407,2,2,P|420:154|403:185,1,67.5000025749208,2|0,0:0|0:0,0:0:0:0:
326,238,191604,5,10,0:0:0:0:
326,238,191801,1,10,0:0:0:0:
326,132,191999,6,2,P|315:107|296:90,1,53.9999983520508,2|0,0:0|0:0,0:0:0:0:
227,155,192196,2,0,P|206:145|183:142,2,45.0000017166138,0|0|0,3:2|3:2|3:2,3:2:0:0:
107,187,192394,6,0,B|140:189|163:211|163:211|152:158|152:158|159:148|159:148|149:142|149:142|133:58,1,202.500007724762,4|2,3:2|0:0,0:0:0:0:
54,20,192788,1,2,0:0:0:0:
50,28,192887,1,0,0:0:0:0:
47,36,192986,2,2,L|60:115,1,67.5000025749208,2|0,3:2|0:0,0:0:0:0:
7,237,193183,5,10,0:0:0:0:
11,228,193282,2,0,P|79:214|100:286,1,135.000005149842,0|2,0:0|0:0,0:0:0:0:
227,318,193578,6,2,B|187:308|187:308|164:335|164:335|159:333|159:333|134:360|134:360|78:345,1,161.999995056153,2|0,3:2|0:0,0:0:0:0:
71,341,193973,1,2,0:0:0:0:
212,202,194170,6,0,P|202:177|185:157,1,53.9999983520508,2|2,3:2|0:0,0:0:0:0:
285,255,194367,2,2,P|299:225|303:192,1,67.5000025749208,10|0,0:0|3:2,0:0:0:0:
298,347,194565,2,2,P|337:339|366:311,1,80.9999975280763,2|0,0:0|0:0,0:0:0:0:
396,143,194762,5,10,0:0:0:0:
318,82,194959,6,0,P|303:78|317:96,1,53.9999983520508,0|0,0:0|0:0,0:0:0:0:
480,90,195157,2,2,P|492:77|465:82,1,67.5000025749208,2|0,0:0|0:0,0:0:0:0:
403,224,195354,2,2,P|401:245|414:220,1,80.9999975280763,2|0,3:2|0:0,0:0:0:0:
271,185,195551,6,0,B|213:190|234:265|234:265|258:341|171:343,1,202.500007724762,2|2,3:2|0:0,0:0:0:0:
119,289,195946,6,2,B|127:255|127:255|126:251|126:251|135:213,1,67.5000025749208,2|0,0:0|0:0,0:0:0:0:
341,315,196144,2,2,B|333:281|333:281|334:277|334:277|325:239,1,67.5000025749208,2|0,3:2|0:0,0:0:0:0:
287,81,196341,5,10,0:0:0:0:
280,88,196440,2,0,P|208:83|191:18,1,135.000005149842,2|0,0:0|0:0,0:0:0:0:
79,37,196736,6,2,B|97:43|97:43|194:7|194:7|250:42|205:107,1,202.500007724762,2|2,3:2|0:0,0:0:0:0:
147,133,197130,6,2,P|125:169|126:205,1,67.5000025749208,2|0,0:0|0:0,0:0:0:0:
244,236,197328,2,2,P|266:200|265:164,1,67.5000025749208,2|0,3:2|0:0,0:0:0:0:
159,280,197525,1,10,0:0:0:0:
156,290,197624,1,2,3:2:0:0:
154,300,197723,1,2,0:0:0:0:
370,368,197920,5,10,0:0:0:0:
388,275,198051,1,10,0:0:0:0:
404,184,198183,1,10,0:0:0:0:
344,122,198315,6,0,L|359:77,1,35.9999989013672,2|2,0:0|0:0,0:0:0:0:
258,130,198446,2,0,L|265:190,1,45.0000017166138,2|2,0:0|0:0,0:0:0:0:
169,130,198578,2,0,L|181:74,1,53.9999983520508,2|2,0:0|0:0,0:0:0:0:
82,167,198709,6,0,L|103:301,1,108,2|2,0:0|0:0,0:0:0:0:
61,355,199104,6,0,P|107:286|198:314,1,153.000002918243,4|0,3:2|0:0,0:0:0:0:
239,338,199400,1,2,3:2:0:0:
245,347,199499,2,2,B|262:366|290:375|290:375|243:395|202:340,1,135.000005149842,2|10,0:0|0:0,0:0:0:0:
456,285,199894,6,2,B|447:301|447:301|322:285,1,135.000005149842,2|2,3:2|0:0,0:0:0:0:
326,292,200190,1,2,0:0:0:0:
321,298,200288,1,2,3:2:0:0:
226,174,200486,1,2,0:0:0:0:
228,181,200584,1,2,0:0:0:0:
231,188,200683,1,2,3:2:0:0:
360,43,200880,5,0,0:0:0:0:
366,49,200979,1,0,0:0:0:0:
369,55,201078,2,2,P|306:71|256:13,1,135.000005149842,10|2,0:0|0:0,0:0:0:0:
58,97,201374,2,0,P|121:113|171:55,1,135.000005149842,8|0,0:0|0:0,0:0:0:0:
238,201,201670,6,0,B|237:167|237:167|233:162|233:162|231:123,1,67.5000025749208,0|0,0:0|0:0,0:0:0:0:
57,264,201867,6,2,B|32:285|32:285|161:268,1,135.000005149842,2|0,3:2|0:0,0:0:0:0:
139,278,202163,1,0,0:0:0:0:
144,285,202262,1,10,0:0:0:0:
318,183,202459,1,2,0:0:0:0:
314,192,202558,1,2,0:0:0:0:
310,201,202657,1,2,3:2:0:0:
199,89,202854,1,10,0:0:0:0:
353,12,203051,6,2,P|400:64|386:114,1,107.999996704102,2|0,3:2|0:0,0:0:0:0:
478,119,203348,1,0,3:2:0:0:
479,130,203446,2,2,P|435:185|389:184,1,107.999996704102,2|0,3:2|0:0,0:0:0:0:
331,148,203742,1,0,0:0:0:0:
323,150,203841,2,0,L|290:158,4,26.9999991760254,0|0|0|0|0,3:0|3:0|3:0|3:0|3:0,3:0:0:0:
229,304,204236,5,8,0:0:0:0:
140,285,204367,1,8,0:0:0:0:
51,272,204499,1,8,0:0:0:0:
3,198,204630,6,0,P|6:166|41:122,1,67.5000025749208,8|0,0:0|0:0,0:0:0:0:
141,45,204828,2,0,L|134:85,1,33.7500012874604
150,46,204926,2,0,L|141:98,1,45
159,48,205025,2,2,L|131:192,1,135.000005149842,2|0,3:2|0:0,0:0:0:0:
173,265,205321,5,2,3:2:0:0:
179,272,205420,2,2,P|223:265|245:237,1,53.9999983520508,10|0,0:0|0:0,0:0:0:0:
310,106,205617,2,2,P|266:113|244:141,1,53.9999983520508,2|0,3:2|0:0,0:0:0:0:
295,315,205815,6,0,P|319:278|316:243,1,80.9999975280763,2|0,3:2|0:0,0:0:0:0:
196,67,206012,2,0,P|171:106|174:138,1,80.9999975280763,10|2,0:0|0:0,0:0:0:0:
403,72,206209,6,2,P|355:58|419:132,1,242.999992584229,2|0,3:2|0:0,0:0:0:0:
467,132,206604,1,2,3:2:0:0:
249,190,206801,5,2,0:0:0:0:
240,196,206900,1,2,0:0:0:0:
233,202,206999,2,2,P|210:241|207:286,1,67.5000025749208,10|0,0:2|0:0,0:0:0:0:
298,285,207196,2,0,P|309:328|343:367,1,80.9999975280763,2|2,0:0|0:0,0:0:0:0:
439,337,207394,5,10,0:0:0:0:
436,147,207591,5,2,3:2:0:0:
413,144,207690,1,2,3:2:0:0:
392,148,207788,2,2,P|358:184|342:223,1,80.9999975280763,10|0,0:0|0:0,0:0:0:0:
260,267,207986,2,2,P|247:229|248:189,1,80.9999975280763,10|0,0:0|3:0,0:0:0:0:
321,37,208183,6,2,P|273:87|195:55,1,135.000005149842,2|0,3:2|0:0,0:0:0:0:
104,13,208479,5,0,0:0:0:0:
112,21,208578,2,2,L|124:92,1,53.9999983520508,2|0,3:2|0:0,0:0:0:0:
11,224,208775,2,2,L|19:170,1,53.9999983520508,2|0,0:0|0:0,0:0:0:0:
203,19,208973,6,0,L|221:122,1,80.9999975280763,2|2,3:2|0:0,0:0:0:0:
94,281,209170,2,2,L|112:178,1,80.9999975280763,10|0,0:2|0:0,0:0:0:0:
244,183,209367,6,2,B|327:159|327:159|300:229|300:229|303:243|303:243|290:255|290:255|250:365,1,242.999992584229,2|2,3:2|0:0,0:0:0:0:
225,364,209762,1,2,3:2:0:0:
227,371,209861,1,10,0:2:0:0:
230,378,209959,1,2,3:2:0:0:
98,189,210157,1,10,0:0:0:0:
230,208,210354,6,2,L|201:274,1,53.9999983520508,10|0,3:2|0:0,0:0:0:0:
151,359,210551,5,8,0:0:0:0:
68,354,210684,1,8,0:0:0:0:
26,269,210814,1,8,0:0:0:0:
39,256,210945,5,2,3:2:0:0:
94,112,211144,2,2,P|41:114|36:162,1,107.999996704102,2|4,0:0|0:0,0:0:0:0:
472,363,223973,5,10,0:0:0:0:
411,324,224367,1,10,0:0:0:0:
340,310,224762,1,10,0:0:0:0:
273,336,225157,1,10,0:0:0:0:
205,361,225551,1,10,0:0:0:0:
135,342,225946,1,10,0:0:0:0:
88,287,226341,1,10,0:0:0:0:
84,215,226736,1,10,0:0:0:0:
116,150,227130,5,10,0:0:0:0:
172,233,227525,1,10,0:0:0:0:
271,246,227920,1,10,0:0:0:0:
362,203,228315,1,10,0:0:0:0:
405,12,228709,5,10,0:0:0:0:
304,5,229104,1,10,0:0:0:0:
233,76,229499,1,10,0:0:0:0:
265,171,229894,1,10,0:0:0:0:
500,47,230288,5,10,0:0:0:0:
500,47,230486,1,2,0:0:0:0:
434,4,230683,5,10,0:0:0:0:
429,17,230880,1,2,0:0:0:0:
344,2,231078,5,10,0:0:0:0:
350,35,231275,1,0,0:0:0:0:
250,11,231473,5,10,0:0:0:0:
279,77,231670,1,0,0:0:0:0:
154,57,231867,5,10,0:0:0:0:
219,131,232065,1,2,0:0:0:0:
66,148,232262,5,10,0:0:0:0:
181,205,232459,1,0,0:0:0:0:
26,260,232657,5,10,0:0:0:0:
200,283,232854,1,2,0:0:0:0:
49,377,233051,5,10,0:0:0:0:
249,344,233249,1,0,0:0:0:0:
446,308,233446,5,0,0:0:0:0:
438,273,233544,1,0,0:0:0:0:
413,248,233643,1,0,0:0:0:0:
378,242,233742,1,0,0:0:0:0:
346,257,233841,2,8,L|352:307,3,36,0|0|0|0,0:0|0:0|0:0|0:0,0:0:0:0:
161,197,234236,5,0,0:0:0:0:
169,163,234334,1,0,0:0:0:0:
194,138,234433,1,0,0:0:0:0:
229,132,234532,1,0,0:0:0:0:
261,147,234631,2,2,L|256:197,3,36,10|0|2|0,0:0|0:0|0:0|0:0,0:0:0:0:
100,65,235025,5,10,0:0:0:0:
102,73,235124,1,0,0:0:0:0:
105,80,235223,2,0,L|48:95,1,36,2|2,0:0|0:0,0:0:0:0:
246,4,235420,1,10,3:2:0:0:
243,12,235519,1,0,0:0:0:0:
241,19,235618,2,0,L|298:34,1,36,0|0,0:0|0:0,0:0:0:0:
411,141,235815,6,2,P|449:89|428:43,1,107.999996704102,10|0,3:2|0:0,0:0:0:0:
363,15,236111,5,0,0:0:0:0:
359,23,236209,2,2,L|371:79,1,53.9999983520508,10|0,3:2|0:0,0:0:0:0:
502,160,236407,2,0,L|490:216,1,53.9999983520508,0|0,0:0|0:0,0:0:0:0:
465,313,236604,1,0,0:0:0:0:
256,192,236703,12,2,237788,0:0:0:0:
72,275,238183,6,0,B|30:275|7:294|7:294|17:249|77:228,1,125.999996154785,4|0,3:2|0:0,0:0:0:0:
128,214,238479,2,0,B|170:214|193:233|193:233|183:188|123:167,1,125.999996154785,2|0,0:0|0:0,0:0:0:0:
78,138,238775,1,2,3:2:0:0:
231,310,238973,5,10,0:0:0:0:
231,310,239170,1,2,0:0:0:0:
227,111,239367,6,0,P|290:136|291:199,1,125.999996154785,2|0,3:2|0:0,0:0:0:0:
346,266,239664,2,0,P|283:241|282:178,1,125.999996154785,2|0,0:0|0:0,0:0:0:0:
374,158,239959,1,2,3:2:0:0:
430,335,240157,6,0,B|436:293|436:293|446:272|446:272|452:228,1,101.250003862381,2|0,3:2|0:0,0:0:0:0:
510,165,240551,6,2,P|485:142|435:132,1,72,10|0,0:0|0:0,0:0:0:0:
372,24,240749,2,2,P|347:47|297:57,1,72,2|0,0:0|0:0,0:0:0:0:
204,178,240946,6,2,P|230:184|215:168,1,67.5000025749208,2|0,0:0|0:0,0:0:0:0:
147,24,241144,2,2,P|121:18|136:34,1,67.5000025749208,2|0,0:0|0:0,0:0:0:0:
161,106,241341,5,2,3:2:0:0:
20,220,241539,1,2,3:2:0:0:
26,227,241637,2,0,B|56:224|56:224|66:219|66:219|120:211,1,67.5000025749208,2|0,0:0|0:0,0:0:0:0:
162,253,241933,6,0,P|158:290|133:315,1,67.5000025749208,2|2,3:2|3:2,0:0:0:0:
280,384,242131,6,0,P|244:351|257:304,1,101.250003862381,10|0,0:0|0:0,0:0:0:0:
360,361,242525,2,0,P|372:314|337:281,1,101.250003862381,4|0,3:2|0:0,0:0:0:0:
274,207,242920,6,2,B|256:176|269:139|269:139|252:144|252:144|265:93|243:43,1,161.999995056153,2|2,0:0|3:2,0:0:0:0:
485,55,243315,5,2,3:2:0:0:
475,52,243413,2,0,B|443:45|443:45|398:135|398:135|356:126,1,161.999995056153,2|2,0:0|3:2,0:0:0:0:
402,228,243709,6,0,P|441:222|462:202,1,67.5000025749208,10|2,0:0|3:2,0:0:0:0:
230,300,244104,1,2,0:0:0:0:
254,291,244203,1,0,0:0:0:0:
281,297,244301,2,0,P|316:330|323:355,1,67.5000025749208,0|0,0:0|0:0,0:0:0:0:
143,153,244499,6,0,B|116:115|183:76|233:117|231:180|197:219|159:239,1,215.999993408203,4|0,3:2|0:0,0:0:0:0:
6,236,245091,1,2,3:2:0:0:
6,236,245289,2,0,P|52:229|83:285,1,101.250003862381,10|0,0:0|0:0,0:0:0:0:
164,271,245683,6,2,B|153:314|153:314|158:329|158:329|145:379,1,101.250003862381,2|0,3:2|0:0,0:0:0:0:
146,382,246078,1,0,0:0:0:0:
281,169,246275,1,2,3:2:0:0:
281,169,246473,2,0,B|292:212|292:212|287:227|287:227|300:277,1,101.250003862381,2|0,3:2|0:0,0:0:0:0:
367,323,246867,6,0,P|400:272|453:271,1,101.250003862381,10|0,0:0|0:0,0:0:0:0:
486,343,247262,6,0,B|480:351|480:351|436:340,1,45,2|2,0:0|0:0,0:0:0:0:
389,180,247460,2,0,L|351:189,2,30,2|0|0,0:0|0:0|0:0,0:0:0:0:
417,175,247657,6,2,B|451:167|451:167|436:49,1,116.999994644165,2|0,3:2|0:0,0:0:0:0:
307,22,247953,2,2,B|273:30|273:30|288:148,1,116.999994644165,2|0,3:2|0:0,0:0:0:0:
362,96,248249,1,2,3:2:0:0:
229,207,248446,6,2,B|206:216|206:216|184:175|184:175|187:170|187:170|165:120|165:120|118:137,1,161.999995056153,10|0,0:0|0:0,0:0:0:0:
55,143,248841,6,0,P|44:91|90:65,1,101.250003862381,2|2,3:2|0:0,0:0:0:0:
107,234,249236,6,0,B|77:241|77:241|73:246|73:246|30:254,1,67.5000025749208,2|2,0:0|0:0,0:0:0:0:
203,364,249433,2,2,B|173:358|173:358|169:353|169:353|139:346,1,67.5000025749208,2|0,3:2|0:0,0:0:0:0:
366,219,249630,6,2,B|314:230|314:230|301:226|301:226|227:243,1,121.499996292114,2|2,3:2|0:0,0:0:0:0:
252,310,250025,2,0,P|288:325|336:286,2,77.9999964294435,2|0|0,3:2|0:0|0:0,0:0:0:0:
426,355,250420,5,2,3:2:0:0:
414,364,250519,2,0,P|368:354|343:286,1,116.999994644165,0|0,0:0|0:0,0:0:0:0:
406,204,250815,6,2,B|450:227|450:227|398:242,1,101.250003862381,2|2,0:0|0:0,0:0:0:0:
319,210,251210,1,2,0:0:0:0:
427,21,251407,6,2,L|422:43,2,22.5000008583069,2|0|0,3:2|0:0|0:0,0:0:0:0:
404,122,251604,5,10,0:0:0:0:
404,122,251802,1,2,0:0:0:0:
238,22,251999,6,2,P|267:12|280:85,1,125.999996154785,2|0,3:2|0:0,0:0:0:0:
183,175,252295,2,0,P|154:185|141:112,1,125.999996154785,2|0,0:0|0:0,0:0:0:0:
211,101,252591,1,2,3:2:0:0:
270,223,252789,6,0,B|261:269|261:269|263:276|263:276|249:343,1,101.250003862381,2|0,3:2|0:0,0:0:0:0:
182,372,253183,6,2,B|154:365|154:365|148:367|148:367|106:358,1,67.5000025749208,10|0,0:0|0:0,0:0:0:0:
346,279,253380,2,2,B|374:272|374:272|380:274|380:274|422:265,1,67.5000025749208,2|0,0:0|0:0,0:0:0:0:
339,113,253578,6,2,P|320:134|334:176,1,67.5000025749208,2|0,0:0|0:0,0:0:0:0:
498,199,253775,2,2,P|517:178|503:136,1,67.5000025749208,2|0,0:0|0:0,0:0:0:0:
420,154,253973,5,2,3:2:0:0:
350,14,254170,1,2,3:2:0:0:
345,20,254269,2,0,L|255:40,1,67.5000025749208,2|0,0:0|0:0,0:0:0:0:
175,21,254565,6,0,P|208:48|205:91,1,67.5000025749208,2|2,3:2|3:2,0:0:0:0:
268,211,254762,2,0,P|282:151|326:137,1,101.250003862381,10|0,0:0|0:0,0:0:0:0:
147,240,255157,2,0,P|189:277|179:334,1,101.250003862381,4|0,3:2|0:0,0:0:0:0:
97,339,255551,6,2,B|108:274|108:274|104:269|104:269|119:163,1,161.999995056153,2|2,0:0|3:2,0:0:0:0:
2,73,255946,5,2,3:2:0:0:
10,82,256045,2,0,B|37:102|87:103|87:103|134:77|147:24,1,161.999995056153,0|2,0:0|3:2,0:0:0:0:
211,1,256341,6,2,B|242:8|242:8|246:12|246:12|288:23,1,67.5000025749208,10|0,0:0|0:0,0:0:0:0:
346,60,256638,5,2,3:2:0:0:
357,65,256736,2,2,P|362:106|352:139,1,67.5000025749208,2|0,0:0|0:0,0:0:0:0:
222,166,256933,2,0,P|217:125|227:92,1,67.5000025749208,0|0,0:0|0:0,0:0:0:0:
384,285,257130,6,0,B|362:218|291:216|291:216|264:254|206:249,1,180,2|2,3:2|0:0,0:0:0:0:
53,113,257723,5,2,3:2:0:0:
220,164,257920,1,10,0:0:0:0:
155,81,258118,6,2,L|146:123,2,22.5,2|0|0,0:0|0:0|0:0,0:0:0:0:
121,205,258315,2,2,L|130:163,7,22.5,2|0|0|0|2|0|0|0,3:2|0:0|0:0|0:0|3:2|0:0|0:0|0:0,0:0:0:0:
115,230,258709,6,0,B|318:325|361:107|210:129|208:263|272:299,1,360,2|2,0:0|0:0,0:0:0:0:
427,41,260288,6,0,B|340:17|340:17|364:95|364:95|361:112|361:112|374:121|374:121|402:201,1,269.999991760254,2|0,3:2|0:0,0:0:0:0:
469,234,260880,6,0,P|481:204|476:157,1,67.5000025749208,2|0,3:2|0:0,0:0:0:0:
334,264,261078,1,10,0:0:0:0:
343,267,261176,2,0,P|402:320|383:384,1,135.000005149842,0|0,0:0|0:0,0:0:0:0:
299,349,261473,6,0,B|316:334|324:342|324:342|324:360|300:359,1,53.9999983520508,2|0,3:2|0:0,0:0:0:0:
223,258,261670,2,0,B|223:237|243:231|243:231|248:252|232:272,1,67.5000025749208,0|0,0:0|0:0,0:0:0:0:
104,271,261867,2,0,B|89:250|98:232|98:232|116:244|119:269,1,80.9999975280763,0|0,0:0|0:0,0:0:0:0:
151,74,262065,5,2,3:2:0:0:
71,9,262262,6,2,P|47:33|57:58,1,53.9999983520508,2|0,3:2|0:0,0:0:0:0:
249,38,262459,2,2,P|239:3|212:0,1,67.5000025749208,2|0,0:0|0:0,0:0:0:0:
137,171,262657,2,2,P|178:182|199:155,1,80.9999975280763,10|0,0:0|0:0,0:0:0:0:
354,82,262854,5,0,0:0:0:0:
451,193,263051,2,2,P|390:186|369:160,1,80.9999975280763,2|0,0:0|0:0,0:0:0:0:
441,45,263249,2,2,B|460:60|460:60|431:119,1,80.9999975280763,2|0,0:0|0:0,0:0:0:0:
301,6,263446,5,2,3:2:0:0:
294,10,263545,1,0,0:0:0:0:
287,14,263644,2,0,B|251:31|251:31|290:178,1,161.999995056153,0|2,0:0|0:0,0:0:0:0:
235,215,264038,6,0,B|205:208|205:208|198:210|198:210|153:200,1,67.5000025749208,2|2,3:2|3:2,0:0:0:0:
33,284,264236,5,10,0:2:0:0:
41,277,264334,2,0,P|133:287|148:336,1,135.000005149842,0|0,0:0|0:0,0:0:0:0:
210,380,264630,6,0,P|260:367|285:315,1,101.250003862381,4|0,3:2|0:0,0:0:0:0:
381,340,265025,6,2,B|365:261|365:261|360:257|360:257|333:130,1,161.999995056153,2|2,0:0|3:2,0:0:0:0:
486,57,265420,5,2,3:2:0:0:
472,57,265519,1,2,0:0:0:0:
462,62,265617,2,0,P|439:97|435:153,1,80.9999975280763,2|0,3:2|0:0,0:0:0:0:
314,75,265815,5,10,0:0:0:0:
229,185,266012,6,0,P|222:145|199:111,1,80.9999975280763,2|2,3:2|0:0,0:0:0:0:
52,48,266209,1,2,3:2:0:0:
56,55,266308,1,0,0:0:0:0:
60,62,266407,2,0,L|123:50,1,40.4999987640381,0|0,0:0|0:0,0:0:0:0:
137,231,266604,6,0,B|174:287|87:324|35:282|38:204|65:155|132:129,1,269.999991760254,4|0,3:2|0:0,0:0:0:0:
199,111,267196,6,2,L|286:127,1,67.5000025749208,2|0,3:2|0:0,0:0:0:0:
422,73,267394,1,10,0:0:0:0:
427,64,267492,2,0,B|448:30|448:30|346:71,1,135.000005149842,0|0,0:0|0:0,0:0:0:0:
345,164,267788,6,2,P|343:196|357:226,1,53.9999983520508,2|0,3:2|0:0,0:0:0:0:
279,263,267986,2,0,P|301:288|335:301,1,67.5000025749208,2|0,3:2|0:0,0:0:0:0:
303,382,268183,2,2,P|346:384|387:365,1,80.9999975280763,2|0,0:0|0:0,0:0:0:0:
462,171,268380,5,2,3:2:0:0:
432,275,268578,2,2,P|431:297|440:277,1,53.9999983520508,2|0,3:2|0:0,0:0:0:0:
351,191,268775,2,2,P|329:193|355:209,1,67.5000025749208,2|0,0:0|0:0,0:0:0:0:
387,78,268973,2,0,P|367:63|377:93,1,80.9999975280763,10|0,0:0|0:0,0:0:0:0:
186,160,269170,5,2,0:0:0:0:
226,26,269367,2,2,B|241:60|241:60|238:68|238:68|255:115,1,80.9999975280763,2|0,0:0|0:0,0:0:0:0:
108,203,269565,2,0,B|96:255,2,53.9999983520508,2|0|0,3:2|0:0|0:0,0:0:0:0:
92,272,269762,6,0,P|158:271|188:362,1,161.999995056153,2|0,3:2|0:0,0:0:0:0:
380,229,270058,2,0,P|304:210|274:301,1,161.999995056153,2|0,3:2|0:0,0:0:0:0:
205,183,270354,1,2,3:2:0:0:
394,306,270551,5,10,0:0:0:0:
404,308,270650,2,0,B|458:320|452:260|452:260|448:192|527:202,1,161.999995056153,0|0,0:0|0:0,0:0:0:0:
504,207,270946,1,2,3:2:0:0:
384,31,271144,5,2,0:0:0:0:
385,41,271242,1,2,0:0:0:0:
387,51,271341,1,2,0:0:0:0:
388,61,271440,1,0,0:0:0:0:
390,72,271538,2,2,B|397:115|397:115|396:121|396:121|402:153,1,80.9999975280763,2|0,3:2|0:0,0:0:0:0:
318,197,271736,6,2,L|148:170,1,135.000005149842,2|2,3:2|3:2,0:0:0:0:
77,235,272032,5,0,0:0:0:0:
87,231,272131,2,2,P|130:243|143:292,1,80.9999975280763,10|0,0:0|0:0,0:0:0:0:
283,49,272328,1,8,0:0:0:0:
276,43,272426,1,8,0:0:0:0:
267,41,272525,2,2,P|218:54|202:101,1,94.499997116089,2|0,3:2|0:0,0:0:0:0:
184,175,272723,5,0,0:0:0:0:
66,65,272920,6,2,L|107:61,1,33.7500012874604,2|0,0:0|0:0,0:0:0:0:
60,139,273117,2,0,B|80:139|80:139|85:137|85:137|112:136,1,45,0|0,0:0|0:0,0:0:0:0:
302,234,273315,6,0,B|295:230|295:230|248:249|248:249|230:234,1,67.5000025749208,2|2,0:0|0:0,0:0:0:0:
49,361,273512,5,2,3:2:0:0:
55,365,273611,1,2,0:0:0:0:
64,369,273709,2,0,P|139:333|117:216,1,202.500007724762,4|0,3:2|0:0,0:0:0:0:
54,231,274104,6,0,L|64:287,1,53.9999983520508,2|0,3:2|0:0,0:0:0:0:
215,156,274301,2,0,L|227:225,1,67.5000025749208,0|0,0:0|0:0,0:0:0:0:
367,105,274499,2,0,L|382:189,1,80.9999975280763,2|0,0:0|0:0,0:0:0:0:
411,362,274696,5,2,3:2:0:0:
296,328,274894,6,2,B|319:325|318:313|353:313,1,53.9999983520508,2|0,3:2|0:0,0:0:0:0:
512,236,275091,2,2,B|480:233|486:218|444:218,1,67.5000025749208,2|0,0:0|0:0,0:0:0:0:
289,125,275288,2,2,B|326:121|319:104|366:104,1,80.9999975280763,10|0,0:2|0:0,0:0:0:0:
483,112,275486,5,0,0:0:0:0:
490,103,275584,1,0,0:0:0:0:
492,89,275683,2,0,P|475:45|440:18,1,80.9999975280763,0|0,0:2|0:0,0:0:0:0:
301,4,275880,2,0,B|281:17|283:41|283:41|311:40|317:11,1,80.9999975280763,0|0,0:0|0:0,0:0:0:0:
254,199,276078,6,2,B|178:195|193:104|193:104|210:5|108:13,1,269.999991760254,2|2,3:2|0:0,0:0:0:0:
31,63,276670,6,2,P|61:71|88:115,1,67.5000025749208,2|0,3:2|0:0,0:0:0:0:
176,169,276867,2,2,P|130:195|123:247,1,107.999996704102,10|2,0:0|0:0,0:0:0:0:
154,318,277163,5,2,0:0:0:0:
158,324,277262,2,2,B|177:342|177:342|297:315,1,121.499996292114,2|2,3:2|0:0,0:0:0:0:
365,349,277657,6,0,P|292:314|290:215,1,161.999995056153,0|2,0:0|3:2,0:0:0:0:
417,157,278051,5,2,3:2:0:0:
420,165,278150,1,0,0:0:0:0:
423,173,278249,2,2,B|431:184|431:184|487:162|487:162|501:183,1,80.9999975280763,2|0,3:2|0:0,0:0:0:0:
366,50,278446,6,2,P|322:78|317:124,1,90,10|0,0:0|0:0,0:0:0:0:
233,177,278742,1,2,0:0:0:0:
242,170,278841,2,2,P|239:117|202:90,1,90,2|0,3:2|0:0,0:0:0:0:
197,0,279038,2,2,P|243:24|285:5,1,90,2|0,0:0|0:0,0:0:0:0:
157,153,279236,6,0,P|80:133|63:277,1,225,4|0,3:2|0:0,0:0:0:0:
104,292,279828,6,2,P|121:262|96:222,1,62.9999980773926,2|2,0:2|0:0,0:0:0:0:
237,343,280025,2,2,P|227:309|181:299,1,62.9999980773926,10|0,0:2|0:0,0:0:0:0:
364,281,280223,2,2,P|334:264|293:288,1,62.9999980773926,2|0,0:0|0:0,0:0:0:0:
421,370,280420,5,2,3:2:0:0:
504,225,280617,1,2,3:2:0:0:
497,230,280716,1,0,0:0:0:0:
490,237,280815,2,0,B|496:267|496:267|494:272|494:272|501:301,1,53.9999983520508,2|0,3:2|0:0,0:0:0:0:
397,129,281012,2,2,B|391:159|391:159|392:164|392:164|386:193,1,53.9999983520508,2|0,3:2|0:0,0:0:0:0:
466,43,281209,5,2,3:2:0:0:
466,43,281407,1,2,3:2:0:0:
300,97,281604,5,8,0:0:0:0:
300,97,282394,1,2,0:0:0:0:
