osu file format v14

[General]
AudioFilename: audio.mp3
AudioLeadIn: 0
PreviewTime: 163171
Countdown: 0
SampleSet: Soft
StackLeniency: 0.3
Mode: 0
LetterboxInBreaks: 0
WidescreenStoryboard: 0

[Editor]
Bookmarks: 3303,5671,11987,25803,38434,51066,60539,92513,99224,111855,124487,136822,137118,163961,185276,200474,211329,223961,230276,236592,238171,251592,259487,260276,276855,281197,281592,282382,296789
DistanceSpacing: 1.3
BeatDivisor: 8
GridSize: 4
TimelineZoom: 1.6

[Metadata]
Title:Error
TitleUnicode:Error
Artist:GARNiDELiA
ArtistUnicode:GARNiDELiA
Creator:Yukiya
Version:Glitch
Source:BEATLESS
Tags:MARiA Japanese Pop anime electronic full version opening toku bashe Kowari Xenon- Xehn Xen
BeatmapID:2318237
BeatmapSetID:1109353

[Difficulty]
HPDrainRate:6
CircleSize:3.8
OverallDifficulty:8.8
ApproachRate:9.3
SliderMultiplier:2.3
SliderTickRate:1

[Events]
//Background and Video events
0,0,"bg.jpg",0,0
//Break Periods
//Storyboard Layer 0 (Background)
//Storyboard Layer 1 (Fail)
//Storyboard Layer 2 (Pass)
//Storyboard Layer 3 (Foreground)
//Storyboard Layer 4 (Overlay)
//Storyboard Sound Samples

[TimingPoints]
552,394.736842105263,4,2,1,60,1,0
552,-111.111111111111,4,2,1,60,0,0
1736,-166.666666666666,4,2,1,60,0,0
3709,-249.999999999999,4,2,1,60,0,0
4894,-333.333333333331,4,2,1,60,0,0
5683,-66.6666666666667,4,2,1,60,0,0
6078,-142.857142857143,4,2,1,40,0,0
6473,-142.857142857143,4,2,1,50,0,0
6867,-142.857142857143,4,2,1,60,0,0
13183,-200,4,2,1,60,0,0
15946,-142.857142857143,4,2,1,60,0,0
18315,-66.6666666666667,4,2,1,60,0,0
19499,-200,4,2,1,60,0,0
22262,-142.857142857143,4,2,1,60,0,0
22657,-200,4,2,1,60,0,0
25025,-142.857142857143,4,2,1,60,0,0
25815,-100,4,2,1,65,0,0
27591,-111.111111111111,4,2,1,65,0,0
28973,-100,4,2,1,65,0,0
31440,-150.00000000015,4,2,1,65,0,0
31834,-100,4,2,1,65,0,0
33907,-166.666666666667,4,2,1,65,0,0
35288,-100,4,2,1,65,0,0
37755,-150.00000000015,4,2,1,65,0,0
38150,-100,4,2,1,65,0,0
38446,-100,4,2,1,65,0,0
51078,-83.3333333333333,4,2,1,75,0,0
64696,-83.3333333333333,4,2,1,5,0,0
64894,-83.3333333333333,4,2,1,80,0,0
65288,-83.3333333333333,4,2,1,90,0,1
68051,-66.6666666666667,4,2,1,90,0,1
70025,-55.5555555555556,4,2,1,90,0,1
71604,-83.3333333333333,4,2,1,90,0,1
74762,-55.5555555555556,4,2,1,90,0,1
75551,-83.3333333333333,4,2,1,90,0,1
77920,-55.5555555555556,4,2,1,90,0,1
83841,-83.3333333333333,4,2,1,90,0,1
84236,-55.5555555555556,4,2,1,90,0,1
85815,-142.857142857143,4,2,1,60,0,0
86604,-111.111111111111,4,2,1,65,0,0
89367,-111.111111111111,4,2,1,35,0,0
89762,-111.111111111111,4,2,1,65,0,0
90946,-222.222222222222,4,2,1,65,0,0
92920,-111.111111111111,4,2,1,65,0,0
95683,-111.111111111111,4,2,1,35,0,0
96078,-121.951219512195,4,2,1,65,0,0
97262,-142.857142857143,4,2,1,65,0,0
98644,-400.000000000002,4,2,1,60,0,0
99236,394.736842105263,4,2,1,70,1,0
99236,-125,4,2,1,70,0,0
122130,-100,4,2,1,70,0,0
123709,-285.714285714286,4,2,1,70,0,0
124499,-100,4,2,1,60,0,0
126275,-158.730158730159,4,2,1,60,0,0
127657,-100,4,2,1,60,0,0
130124,-150.00000000015,4,2,1,60,0,0
130519,-100,4,2,1,60,0,0
132591,-158.730158730159,4,2,1,60,0,0
133973,-100,4,2,1,60,0,0
135749,-149.253731343284,4,2,1,60,0,0
136834,-100,4,2,1,65,0,0
149762,-83.3333333333333,4,2,1,75,0,0
163380,-83.3333333333333,4,2,1,5,0,0
163578,-83.3333333333333,4,2,1,80,0,0
163972,-83.3333333333333,4,2,1,90,0,1
166736,-66.6666666666667,4,2,1,90,0,1
168709,-55.5555555555556,4,2,1,90,0,1
170288,-83.3333333333333,4,2,1,90,0,1
173446,-55.5555555555556,4,2,1,90,0,1
175223,-83.3333333333333,4,2,1,90,0,1
176604,-55.5555555555556,4,2,1,90,0,1
185288,-181.818181818181,4,2,1,60,0,0
186078,-66.6666666666667,4,2,1,90,0,1
199104,-58.8235294117647,4,2,1,90,0,1
203051,-83.3333333333333,4,2,1,90,0,1
205025,-55.5555555555556,4,2,1,90,0,1
211341,-142.857142857143,4,2,1,60,0,0
216473,-100,4,2,1,60,0,0
216966,-150.00000000015,4,2,1,60,0,0
218051,-100,4,2,1,60,0,0
220815,-125,4,2,1,60,0,0
223973,-83.3333333333333,4,2,1,65,0,0
233446,-83.3333333333333,4,2,1,20,0,0
233841,-83.3333333333333,4,2,1,30,0,0
234236,-83.3333333333333,4,2,1,50,0,0
234630,-83.3333333333333,4,2,1,75,0,0
237196,-83.3333333333333,4,2,1,5,0,0
237394,-83.3333333333333,4,2,1,80,0,0
238183,-55.5555555555556,4,2,1,90,0,1
244499,-83.3333333333333,4,2,1,90,0,1
245683,-66.6666666666667,4,2,1,90,0,1
247657,-55.5555555555556,4,2,1,90,0,1
259499,-142.857142857143,4,2,1,60,0,0
260288,-83.3333333333333,4,2,1,90,0,1
278446,-100,4,2,1,90,0,1
280815,-83.3333333333333,4,2,1,90,0,1
281604,-294.117647058824,4,2,1,70,0,0
282393,-294.117647058824,4,2,1,45,0,0

[Colours]
Combo1 : 192,192,192
Combo2 : 128,255,255
SliderBorder : 250,255,253
SliderTrackOverride : 0,0,15

[HitObjects]
335,127,552,6,0,B|568:192|594:20|410:-28|327:32|425:177|482:187|516:269|483:356|380:326,1,569.249982627869,2|0,0:0|0:0,0:0:0:0:
345,252,1736,2,0,B|330:211|295:197|210:239|45:333|98:-50|502:-24|295:301|233:356|159:358|109:307,1,551.999983154297,2|0,0:0|0:0,0:0:0:0:
35,86,3709,2,0,P|109:35|96:151,1,253,2|0,0:0|0:0,0:0:0:0:
59,262,4894,2,0,P|19:261|51:239,1,103.499996841431,2|0,0:0|0:0,0:0:0:0:
140,336,5683,6,0,P|202:329|265:233,1,172.500006580353,2|0,3:2|0:0,0:0:0:0:
221,137,6078,1,8,0:0:0:0:
264,246,6275,1,8,0:0:0:0:
277,39,6473,1,8,0:0:0:0:
244,32,6571,1,8,0:0:0:0:
210,31,6670,1,8,0:0:0:0:
176,37,6769,1,8,0:0:0:0:
146,52,6867,5,4,3:2:0:0:
13,23,7163,1,2,0:0:0:0:
62,137,7459,1,2,3:2:0:0:
73,137,7558,1,2,0:0:0:0:
84,137,7657,5,2,0:0:0:0:
94,252,7953,1,2,0:0:0:0:
14,361,8249,2,0,L|79:338,1,40.2499987716675,2|0,3:2|0:0,0:0:0:0:
186,312,8446,5,2,0:0:0:0:
327,286,8742,1,2,0:0:0:0:
491,375,9038,1,2,3:2:0:0:
474,376,9137,1,2,0:0:0:0:
457,375,9236,5,2,0:0:0:0:
366,279,9532,1,2,0:0:0:0:
277,157,9828,2,0,L|266:217,1,40.2499987716675,2|0,3:2|0:0,0:0:0:0:
241,325,10025,5,2,0:0:0:0:
160,214,10321,1,2,0:0:0:0:
236,89,10617,1,2,3:2:0:0:
260,89,10716,1,2,0:0:0:0:
284,89,10815,5,2,0:0:0:0:
422,194,11111,1,2,0:0:0:0:
487,62,11407,2,0,L|422:44,1,40.2499987716675,2|0,3:2|0:0,0:0:0:0:
300,19,11604,5,2,3:2:0:0:
363,133,11900,1,2,3:2:0:0:
253,234,11999,2,2,L|274:162,1,40.2499987716675,2|0,0:0|0:0,0:0:0:0:
224,52,12196,2,2,L|177:67,1,40.2499987716675,2|0,3:2|0:0,0:0:0:0:
64,99,12394,1,2,0:0:0:0:
27,261,12591,5,2,3:2:0:0:
60,295,12690,1,2,0:0:0:0:
110,307,12788,1,10,0:0:0:0:
161,298,12887,1,2,0:0:0:0:
206,264,12986,1,10,0:0:0:0:
261,256,13084,1,10,0:0:0:0:
308,294,13183,5,4,3:2:0:0:
308,294,13578,2,0,P|343:254|350:209,1,86.25,2|0,0:0|0:0,0:0:0:0:
412,134,13973,2,0,P|447:173|459:218,1,86.25,2|0,0:0|0:0,0:0:0:0:
312,94,14367,2,0,P|365:36|492:62,1,201.25,2|0,0:0|0:0,0:0:0:0:
312,94,15157,5,2,0:0:0:0:
189,22,15354,1,2,0:0:0:0:
52,66,15551,1,2,0:0:0:0:
189,22,15749,1,2,0:0:0:0:
28,153,15946,1,2,0:0:0:0:
128,229,16341,6,0,P|78:270|-2:275,1,120.749996315003,2|0,0:0|0:0,0:0:0:0:
122,355,16736,2,0,P|185:341|239:282,1,120.749996315003,2|0,0:0|0:0,0:0:0:0:
296,219,17130,2,0,P|331:273|328:353,1,120.749996315003,2|0,0:0|0:0,0:0:0:0:
296,219,17525,1,2,0:0:0:0:
484,209,17723,1,2,0:0:0:0:
334,327,17920,5,2,0:0:0:0:
248,155,18117,1,2,0:0:0:0:
437,161,18315,2,2,P|459:54|432:-2,1,172.500006580353,2|0,0:0|0:0,0:0:0:0:
317,146,18808,2,2,B|301:191|301:191|326:255|326:255|306:326,1,172.500006580353,2|0,0:0|0:0,0:0:0:0:
195,146,19203,2,2,B|211:191|211:191|186:255|186:255|206:326,1,172.500006580353,2|0,0:0|0:0,0:0:0:0:
195,146,19499,5,2,0:0:0:0:
103,37,19894,2,0,P|68:78|55:124,1,86.25,2|0,0:0|0:0,0:0:0:0:
117,200,20289,2,0,P|152:160|166:118,1,86.25,2|0,0:0|0:0,0:0:0:0:
146,318,20683,2,0,P|68:310|-2:198,1,201.25,2|0,0:0|0:0,0:0:0:0:
146,318,21473,5,2,0:0:0:0:
9,362,21670,1,2,0:0:0:0:
91,237,21867,1,2,0:0:0:0:
9,362,22065,1,2,0:0:0:0:
206,212,22262,2,0,P|248:252|263:329,1,120.749996315003,2|0,0:0|0:0,0:0:0:0:
206,212,22657,5,2,0:0:0:0:
465,312,23052,2,0,P|460:259|436:220,1,86.25,2|0,0:0|0:0,0:0:0:0:
341,295,23446,2,0,P|345:349|367:387,1,86.25,2|0,0:0|0:0,0:0:0:0:
473,110,23841,2,0,P|431:76|387:65,1,86.25,2|0,0:0|0:0,0:0:0:0:
374,197,24236,6,0,P|394:220|408:253,1,57.5,2|0,0:0|0:0,0:0:0:0:
357,329,24532,2,0,P|324:299|311:262,1,57.5,2|0,0:0|0:0,0:0:0:0:
280,221,24828,1,0,0:0:0:0:
120,311,25025,2,0,L|117:387,1,40.2499987716675
24,299,25223,2,2,L|25:249,1,40.2499987716675,2|0,0:0|0:0,0:0:0:0:
120,179,25420,2,2,L|118:230,1,40.2499987716675,2|0,0:0|0:0,0:0:0:0:
18,111,25617,2,2,L|20:62,1,40.2499987716675,2|0,0:0|0:0,0:0:0:0:
165,0,25815,6,0,P|169:90|299:116,1,230,4|0,3:2|0:0,0:0:0:0:
458,13,26407,2,0,P|514:124|454:208,1,230,2|0,0:0|0:0,0:0:0:0:
317,334,26999,2,0,P|247:238|305:134,1,230,2|0,3:2|0:0,0:0:0:0:
42,149,27591,2,0,B|-4:172|2:240|18:333|328:534|353:129|-28:78|64:242|129:291|92:362|46:376,1,517.499984207154,2|0,0:0|0:0,0:0:0:0:
146,45,28973,6,0,P|257:16|378:52,1,230,2|0,3:2|0:0,0:0:0:0:
366,246,29565,2,0,P|247:275|143:245,1,230,2|0,0:0|0:0,0:0:0:0:
146,45,30157,2,0,B|91:144|91:144|146:247,1,230,2|0,3:2|0:0,0:0:0:0:
366,247,30749,2,0,B|421:144|421:144|363:40,1,230,2|0,0:0|0:0,0:0:0:0:
211,191,31440,2,2,B|174:139|174:139|198:95,1,115,2|0,0:0|0:0,0:0:0:0:
300,191,31834,2,2,B|338:139|338:139|314:95,1,115,2|0,0:0|0:0,0:0:0:0:
214,262,32130,6,0,P|299:303|405:214,1,230,2|0,3:2|0:0,0:0:0:0:
136,364,32723,2,0,P|86:264|156:142,1,230,2|0,0:0|0:0,0:0:0:0:
382,160,33315,2,0,P|425:263|376:364,1,230,2|0,0:0|0:0,0:0:0:0:
129,160,33907,2,0,B|256:277|256:277|388:155,1,344.999989471436,2|0,0:0|0:0,0:0:0:0:
148,316,35288,6,0,B|256:352|256:352|376:312,1,230,2|0,3:2|0:0,0:0:0:0:
366,92,35880,2,0,B|256:55|256:55|148:91,1,230,2|0,0:0|0:0,0:0:0:0:
255,258,36473,2,0,B|365:221|365:221|473:257,1,230,2|0,3:2|0:0,0:0:0:0:
257,126,37065,2,0,B|146:162|146:162|38:126,1,230,2|0,0:0|0:0,0:0:0:0:
201,219,37755,2,2,B|147:236|147:236|91:219,1,115,2|0,0:0|0:0,0:0:0:0:
310,164,38150,2,2,B|365:148|365:148|421:165,1,115,2|0,0:0|0:0,0:0:0:0:
421,165,38446,5,8,0:1:0:0:
421,165,38545,1,2,0:0:0:0:
421,165,38644,1,2,0:0:0:0:
342,263,38841,2,0,P|411:300|471:297,1,115,8|2,0:1|0:0,0:0:0:0:
315,358,39236,2,0,L|237:341,2,57.5,8|2|2,0:1|0:0|0:0,0:0:0:0:
237,244,39630,2,0,P|261:191|327:157,1,115,8|2,0:1|0:0,0:0:0:0:
435,145,40025,5,8,0:1:0:0:
435,145,40124,1,2,0:0:0:0:
435,145,40223,1,2,0:0:0:0:
298,59,40420,2,0,P|353:51|408:-6,1,115,8|2,0:1|0:0,0:0:0:0:
480,98,40815,2,0,L|492:174,2,57.5,8|2|2,0:1|0:0|0:0,0:0:0:0:
282,167,41209,2,0,P|224:138|195:91,1,115,8|2,0:1|0:0,0:0:0:0:
58,66,41604,6,0,L|81:14,2,57.5,8|2|2,0:1|0:0|0:0,0:0:0:0:
114,192,41999,1,8,0:1:0:0:
337,127,42394,1,8,0:1:0:0:
337,127,42492,1,2,0:0:0:0:
337,127,42591,1,2,0:0:0:0:
219,81,42788,2,0,P|215:159|245:215,1,115,8|2,0:1|0:0,0:0:0:0:
361,270,43183,6,0,L|413:247,2,57.5,8|2|2,0:1|0:0|0:0,0:0:0:0:
271,357,43578,1,8,0:1:0:0:
80,357,43973,1,8,0:1:0:0:
80,357,44071,1,2,0:0:0:0:
80,357,44170,1,2,0:0:0:0:
75,229,44367,2,0,P|146:248|190:302,1,115,8|2,0:1|0:0,0:0:0:0:
382,377,44762,5,8,0:1:0:0:
382,377,44861,1,2,0:0:0:0:
382,377,44960,1,2,0:0:0:0:
260,299,45157,2,0,P|319:245|378:233,1,115,8|2,0:1|0:0,0:0:0:0:
130,180,45551,2,0,L|136:102,2,57.5,8|2|2,0:1|0:0|0:0,0:0:0:0:
73,42,45946,2,0,P|127:21|198:44,1,115,8|2,0:1|0:0,0:0:0:0:
293,113,46341,5,8,0:1:0:0:
293,113,46440,1,2,0:0:0:0:
293,113,46539,1,2,0:0:0:0:
435,105,46736,2,0,P|421:47|368:-7,1,115,8|2,0:1|0:0,0:0:0:0:
469,196,47130,2,0,L|460:252,2,57.5,8|2|2,0:1|0:0|0:0,0:0:0:0:
378,314,47525,2,0,P|425:348|483:352,1,115,8|2,0:1|0:0,0:0:0:0:
283,365,47920,6,0,L|229:343,2,57.5,8|2|2,0:1|0:0|0:0,0:0:0:0:
480,352,48315,1,8,0:1:0:0:
103,267,48710,1,8,0:1:0:0:
103,267,48808,1,2,0:0:0:0:
103,267,48907,1,2,0:0:0:0:
240,314,49104,2,0,P|243:234|217:178,1,115,8|2,0:1|0:0,0:0:0:0:
44,149,49499,6,0,L|96:126,2,57.5,8|2|2,0:1|0:0|0:0,0:0:0:0:
232,202,49894,1,8,0:1:0:0:
378,28,50289,1,8,0:1:0:0:
398,26,50387,1,2,0:0:0:0:
421,27,50486,1,2,0:0:0:0:
443,24,50584,1,2,0:0:0:0:
477,22,50683,5,8,0:1:0:0:
439,38,50782,1,2,0:0:0:0:
401,53,50880,1,2,0:0:0:0:
364,71,50979,1,2,0:0:0:0:
322,95,51078,6,0,P|270:119|175:86,1,137.999995788574,2|2,3:2|0:0,0:0:0:0:
131,57,51374,1,2,0:0:0:0:
108,21,51473,1,10,0:0:0:0:
253,11,51670,1,2,0:0:0:0:
401,167,51867,2,0,P|431:116|422:36,1,137.999995788574,2|0,3:2|0:0,0:0:0:0:
502,125,52163,1,2,0:0:0:0:
488,164,52262,2,0,P|446:222|373:258,1,137.999995788574,10|0,0:0|0:0,0:0:0:0:
168,189,52657,6,0,P|116:222|75:307,1,137.999995788574,2|0,3:2|0:0,0:0:0:0:
77,159,52953,1,2,0:0:0:0:
112,138,53051,2,0,P|179:117|245:141,1,137.999995788574,10|0,0:0|0:0,0:0:0:0:
6,36,53446,2,0,P|-16:90|9:173,1,137.999995788574,2|0,3:2|0:0,0:0:0:0:
84,255,53742,1,2,0:0:0:0:
117,231,53841,2,0,P|139:177|114:94,1,137.999995788574,10|0,0:0|0:0,0:0:0:0:
204,309,54236,6,0,P|231:224|284:189,1,137.999995788574,2|0,3:2|0:0,0:0:0:0:
340,175,54532,1,2,0:0:0:0:
379,186,54630,1,10,0:0:0:0:
314,297,54828,1,2,0:0:0:0:
110,212,55025,2,0,P|80:263|89:343,1,137.999995788574,2|0,3:2|0:0,0:0:0:0:
10,252,55321,1,0,0:0:0:0:
19,212,55419,2,0,P|71:147|128:122,1,137.999995788574,10|0,0:0|0:0,0:0:0:0:
362,171,55815,6,0,P|379:94|362:33,1,137.999995788574,2|0,3:2|0:0,0:0:0:0:
245,104,56111,1,2,0:0:0:0:
233,142,56210,2,0,P|248:219|339:250,1,137.999995788574,10|0,0:0|0:0,0:0:0:0:
58,129,56604,2,0,P|28:78|37:-2,1,137.999995788574,2|0,3:2|0:0,0:0:0:0:
138,79,56900,1,2,0:0:0:0:
150,118,56999,2,0,P|129:193|36:218,1,137.999995788574,10|0,0:0|0:0,0:0:0:0:
326,297,57394,6,0,P|278:268|197:281,1,137.999995788574,2|0,3:2|0:0,0:0:0:0:
126,324,57690,1,0,0:0:0:0:
97,354,57789,1,10,0:0:0:0:
252,368,57986,1,2,0:0:0:0:
401,217,58183,2,0,P|431:268|422:348,1,137.999995788574,2|0,3:2|0:0,0:0:0:0:
508,166,58479,1,2,0:0:0:0:
494,126,58578,2,0,P|430:85|341:106,1,137.999995788574,10|0,0:0|0:0,0:0:0:0:
209,236,58973,6,0,P|257:282|353:291,1,137.999995788574,2|0,3:2|0:0,0:0:0:0:
284,140,59269,1,2,0:0:0:0:
244,129,59367,2,0,P|176:127|120:166,1,137.999995788574,10|0,0:0|0:0,0:0:0:0:
201,371,59762,2,0,P|268:372|324:333,1,137.999995788574,2|0,3:2|0:0,0:0:0:0:
478,231,60058,1,2,0:0:0:0:
474,272,60157,2,0,P|424:226|417:158,1,137.999995788574,10|0,0:0|0:0,0:0:0:0:
358,0,60551,5,2,3:2:0:0:
266,57,60749,1,2,0:0:0:0:
27,77,60946,1,10,0:0:0:0:
120,2,61144,1,2,0:0:0:0:
123,197,61341,5,2,3:2:0:0:
196,118,61539,1,2,0:0:0:0:
428,117,61736,1,10,0:0:0:0:
319,69,61934,1,2,0:0:0:0:
85,125,62130,5,2,3:2:0:0:
28,326,62328,1,2,0:0:0:0:
30,67,62525,1,10,0:0:0:0:
176,222,62723,1,0,0:0:0:0:
319,69,62920,5,2,3:2:0:0:
206,299,63118,1,2,0:0:0:0:
373,140,63315,1,10,0:0:0:0:
83,30,63513,1,2,0:0:0:0:
256,192,63709,12,0,64696,0:0:0:0:
0,247,64894,5,2,0:0:0:0:
15,285,64992,1,2,0:0:0:0:
61,326,65091,1,2,0:0:0:0:
136,333,65190,1,2,0:0:0:0:
202,285,65288,6,0,P|241:230|234:162,1,137.999995788574,6|0,3:2|0:0,0:0:0:0:
177,34,65584,2,0,P|263:24|317:61,1,137.999995788574,2|0,0:0|0:0,0:0:0:0:
370,139,65880,1,2,3:2:0:0:
177,34,66078,1,10,0:0:0:0:
125,123,66275,1,2,0:0:0:0:
195,268,66473,2,0,P|250:226|282:148,1,137.999995788574,2|0,3:2|0:0,0:0:0:0:
80,218,66769,2,0,P|70:283|110:361,1,137.999995788574,2|0,0:0|0:0,0:0:0:0:
213,376,67065,1,2,3:2:0:0:
363,243,67262,6,0,P|391:181|375:103,1,137.999995788574,2|0,3:2|0:0,0:0:0:0:
264,28,67657,2,2,B|295:40|295:40|330:26,1,68.9999978942872,10|0,0:0|0:0,0:0:0:0:
495,52,67854,2,2,B|463:39|463:39|428:53,1,68.9999978942872,2|0,0:0|0:0,0:0:0:0:
308,116,68051,2,2,B|270:130|270:130|222:112,1,86.2500032901765,2|0,0:0|0:0,0:0:0:0:
47,144,68249,2,2,B|89:130|89:130|131:154,1,86.2500032901765,2|0,0:0|0:0,0:0:0:0:
168,50,68446,6,0,P|131:42|70:56,1,86.2500032901765,2|0,3:2|0:0,0:0:0:0:
52,231,68644,1,2,3:2:0:0:
52,231,68742,2,0,P|103:258|211:218,1,172.500006580353,2|0,0:0|0:0,0:0:0:0:
347,113,69038,1,2,3:2:0:0:
381,88,69137,1,2,3:2:0:0:
434,84,69236,2,0,P|431:152|262:147,1,258.75000987053,10|0,0:0|0:0,0:0:0:0:
479,19,69630,2,0,P|509:122|434:252,1,258.75000987053,4|0,3:2|0:0,0:0:0:0:
309,379,70025,6,2,B|289:327|289:327|306:283,1,103.499996841431,2|0,3:2|0:0,0:0:0:0:
215,159,70223,2,2,B|232:203|232:203|212:255,1,103.499996841431,2|0,3:2|0:0,0:0:0:0:
137,308,70420,1,2,3:2:0:0:
75,319,70519,1,2,0:0:0:0:
20,291,70617,1,2,3:2:0:0:
12,229,70716,1,2,3:2:0:0:
40,173,70815,1,10,0:0:0:0:
50,354,71012,1,2,3:2:0:0:
153,227,71209,2,2,B|139:135|302:133|276:254|348:264|462:181|382:104,1,310.499990524292,2|0,0:0|0:0,0:0:0:0:
217,101,71604,6,0,P|96:162|145:323,1,275.999991577149,4|0,3:2|0:0,0:0:0:0:
206,344,72196,1,2,3:2:0:0:
217,101,72394,1,10,0:0:0:0:
98,59,72591,1,2,0:0:0:0:
334,55,72788,2,2,P|340:123|166:218,1,275.999991577149,2|0,3:2|0:0,0:0:0:0:
125,150,73380,1,0,3:2:0:0:
302,278,73578,2,0,P|369:226|401:168,1,137.999995788574,0|0,3:2|0:0,0:0:0:0:
512,10,73973,2,0,P|424:-1|359:19,1,137.999995788574,10|0,0:0|0:0,0:0:0:0:
264,149,74367,5,2,0:0:0:0:
298,192,74466,1,2,0:0:0:0:
372,216,74565,1,2,3:2:0:0:
458,192,74663,1,2,3:2:0:0:
499,112,74762,6,2,P|418:112|409:266,1,206.999993682861,2|0,3:2|0:0,0:0:0:0:
280,342,75058,2,2,P|183:297|147:202,1,206.999993682861,2|0,3:2|0:0,0:0:0:0:
110,107,75354,2,2,P|60:140|40:207,1,103.499996841431,2|0,3:2|0:0,0:0:0:0:
78,337,75551,2,2,B|138:390|231:302|314:357,1,206.999993682861,2|0,3:2|0:0,0:0:0:0:
373,302,75946,5,2,3:2:0:0:
340,257,76045,1,2,0:0:0:0:
287,240,76144,1,2,0:0:0:0:
233,250,76242,1,2,0:0:0:0:
178,240,76341,5,2,0:0:0:0:
154,189,76440,1,2,0:0:0:0:
173,137,76538,2,2,P|198:105|251:96,1,68.9999978942872,2|0,3:2|0:0,0:0:0:0:
339,247,76736,2,2,P|314:279|261:288,1,68.9999978942872,2|0,3:2|0:0,0:0:0:0:
173,137,76933,5,2,0:0:0:0:
211,97,77031,1,2,3:2:0:0:
265,87,77130,1,10,0:2:0:0:
317,112,77229,1,2,0:0:0:0:
365,138,77328,5,2,3:2:0:0:
420,132,77427,1,2,3:2:0:0:
443,82,77525,2,2,P|447:41|325:58,1,206.999993682861,6|0,3:2|0:0,0:0:0:0:
260,176,77920,6,2,P|192:199|197:85,1,206.999993682861
359,133,78216,1,2,0:0:0:0:
359,133,78315,2,2,P|368:179|352:232,1,103.499996841431,0|2,0:0|0:0,0:0:0:0:
160,232,78512,2,0,P|144:183|153:133,1,103.499996841431,2|0,3:2|0:0,0:0:0:0:
351,232,78709,2,2,P|312:266|263:278,1,103.499996841431,2|0,3:2|0:0,0:0:0:0:
153,132,78907,2,0,P|191:97|240:85,1,103.499996841431,2|0,0:0|0:0,0:0:0:0:
426,237,79104,6,0,P|369:315|254:349,1,206.999993682861,2|0,3:2|0:0,0:0:0:0:
58,188,79400,2,0,P|46:108|131:24,1,206.999993682861,2|0,0:2|0:0,0:0:0:0:
242,28,79696,1,2,3:2:0:0:
344,198,79894,2,0,P|426:123|405:22,1,206.999993682861,2|0,3:2|0:0,0:0:0:0:
445,227,80288,2,2,B|426:273|426:273|446:323,1,103.499996841431,10|0,0:0|0:0,0:0:0:0:
311,375,80486,2,2,B|330:327|330:327|310:279,1,103.499996841431
67,227,80683,2,2,B|86:273|86:273|66:323,1,103.499996841431,2|0,0:0|0:0,0:0:0:0:
201,375,80880,2,2,B|182:327|182:327|202:279,1,103.499996841431,2|0,0:0|0:0,0:0:0:0:
309,79,81078,6,0,B|356:61|356:61|404:81,1,103.499996841431,2|0,3:2|0:0,0:0:0:0:
453,228,81276,1,2,0:0:0:0:
453,228,81374,2,0,B|358:264|358:264|247:221,1,206.999993682861,2|0,0:0|0:0,0:0:0:0:
159,50,81670,1,2,3:2:0:0:
118,57,81769,1,2,3:2:0:0:
77,92,81868,2,0,P|134:139|229:-10,1,310.499990524292,10|0,0:0|0:0,0:0:0:0:
0,77,82262,2,0,P|52:172|257:180,1,310.499990524292,4|0,3:2|0:0,0:0:0:0:
403,71,82657,6,2,B|451:51|451:51|498:68,1,103.499996841431,2|0,0:0|0:0,0:0:0:0:
434,183,82854,2,2,B|385:202|385:202|338:185,1,103.499996841431,2|0,3:2|0:0,0:0:0:0:
157,71,83051,2,2,B|204:53|204:53|252:73,1,103.499996841431,2|0,3:2|0:0,0:0:0:0:
365,278,83249,1,2,3:2:0:0:
394,307,83348,1,2,3:2:0:0:
409,356,83446,2,0,P|314:352|285:240,1,206.999993682861,10|0,0:0|0:0,0:0:0:0:
392,73,83742,1,2,0:0:0:0:
392,73,83841,2,2,P|320:-1|225:15,1,206.999993682861,2|0,3:2|0:0,0:0:0:0:
49,149,84236,5,2,3:2:0:0:
81,202,84335,1,2,0:0:0:0:
139,223,84434,1,2,0:0:0:0:
200,214,84532,1,2,0:0:0:0:
260,228,84631,5,2,0:0:0:0:
284,285,84730,1,2,0:0:0:0:
246,334,84828,2,2,P|208:350|145:330,1,103.499996841431,2|0,3:2|0:0,0:0:0:0:
235,123,85025,2,2,P|280:121|341:159,1,103.499996841431,10|0,0:0|0:0,0:0:0:0:
246,334,85223,2,2,P|208:350|145:330,1,103.499996841431,10|0,3:2|0:0,0:0:0:0:
186,68,85420,2,0,P|306:55|393:112,1,206.999993682861,4|0,3:2|0:0,0:0:0:0:
114,188,86209,6,0,P|123:124|98:65,1,120.749996315003,2|0,0:0|0:0,0:0:0:0:
27,72,86604,6,0,B|43:34|135:31|176:134|157:208|62:222|-12:371|70:431|254:383|228:211|0:275,2,620.999981048584,4|0|8,0:0|0:0|0:1,0:0:0:0:
11,148,89367,2,2,L|41:151,6,25.8749992103577
48,230,89762,2,0,B|46:299|102:345|215:312|246:278|150:175|152:119|320:74|307:207,1,413.999987365723,2|8,0:0|0:1,0:0:0:0:
319,274,90749,1,2,0:0:0:0:
372,167,90946,2,0,B|367:90|292:36|219:38|158:82|130:117|118:236,1,413.999987365723,2|0,0:0|0:0,0:0:0:0:
255,203,92920,6,0,B|318:430|146:456|98:272|158:189|307:264|321:359|395:378|498:337|495:245|458:228,2,620.999981048584,2|0|8,0:0|0:0|0:1,0:0:0:0:
196,94,95683,2,2,L|156:117,6,25.8749992103577
269,144,96078,2,0,B|302:101|312:-10|201:-34|69:-63|152:103|105:147|-55:77|0:-2,1,471.500007194519,2|0,0:0|0:0,0:0:0:0:
196,94,97262,2,0,B|176:137|114:279|427:331|396:142|363:47|337:-10,1,482.99998526001,2|0,0:0|0:0,0:0:0:0:
269,144,98644,2,2,L|269:104,2,28.75
172,262,99236,6,0,P|153:297|147:322,2,61.3333333333333,2|2|2,3:2|0:0|0:0,0:0:0:0:
288,348,99630,2,0,P|307:311|315:253,1,92,2|0,0:0|0:0,0:0:0:0:
301,183,99894,1,2,3:2:0:0:
421,47,100025,2,0,P|437:79|442:127,1,61.3333333333333,10|0,0:0|0:0,0:0:0:0:
428,214,100288,1,8,0:0:0:0:
416,321,100420,2,0,P|461:318|496:294,2,61.3333333333333,2|2|2,0:0|0:0|0:0,0:0:0:0:
308,295,100815,5,2,0:0:0:0:
222,226,100946,1,2,3:2:0:0:
213,115,101078,1,2,3:2:0:0:
97,10,101209,2,0,P|80:42|76:90,1,61.3333333333333,2|2,3:2|0:0,0:0:0:0:
76,157,101473,1,2,0:0:0:0:
169,353,101604,2,0,P|186:319|188:270,1,61.3333333333333,10|2,0:0|3:2,0:0:0:0:
189,208,101867,1,2,3:2:0:0:
39,322,101999,2,0,P|10:294|-10:191,1,122.666666666667,10|0,0:0|0:0,0:0:0:0:
189,208,102393,6,0,P|154:189|129:183,2,61.3333333333333,2|0|0,3:2|0:0|0:0,0:0:0:0:
316,238,102788,2,0,P|355:264|412:277,1,92,2|0,0:0|0:0,0:0:0:0:
472,230,103052,1,2,3:2:0:0:
277,327,103183,2,0,P|241:300|226:271,1,61.3333333333333,10|0,0:0|0:0,0:0:0:0:
185,166,103446,1,10,0:0:0:0:
287,105,103578,2,0,P|261:74|239:60,2,61.3333333333333,2|2|0,3:2|3:2|0:0,0:0:0:0:
461,143,103973,6,0,P|467:98|457:67,1,61.3333333333333,2|2,0:0|3:2,0:0:0:0:
334,8,104236,1,2,3:2:0:0:
186,153,104367,2,0,P|209:185|231:201,2,61.3333333333333,2|2|2,3:2|3:2|0:0,0:0:0:0:
62,0,104762,2,2,B|39:23|39:23|19:80,2,61.3333333333333,8|0|0,3:2|0:0|0:0,0:0:0:0:
262,0,105157,2,2,B|287:22|287:22|301:67,2,61.3333333333333,2|0|0,0:0|0:0|0:0,0:0:0:0:
163,103,105551,6,0,P|128:125|102:131,2,61.3333333333333,2|0|0,3:2|0:0|0:0,0:0:0:0:
260,24,105946,2,0,P|282:61|282:119,1,92,2|0,0:0|0:0,0:0:0:0:
271,194,106209,1,2,3:2:0:0:
241,325,106341,2,0,P|207:312|170:281,1,61.3333333333333,10|0,0:0|0:0,0:0:0:0:
118,209,106603,1,10,0:0:0:0:
51,125,106735,2,0,P|21:158|13:200,2,61.3333333333333,2|2|0,3:2|3:2|0:0,0:0:0:0:
166,83,107130,5,2,0:0:0:0:
272,145,107261,1,2,3:2:0:0:
260,268,107393,1,2,3:2:0:0:
272,145,107525,2,0,P|255:112|250:65,1,61.3333333333333,2|0,3:2|0:0,0:0:0:0:
357,78,107788,1,2,0:0:0:0:
471,237,107919,2,0,P|489:271|491:320,1,61.3333333333333,10|2,0:0|3:2,0:0:0:0:
387,306,108182,1,2,3:2:0:0:
495,144,108315,2,0,P|431:148|388:189,1,122.666666666667,10|0,0:0|0:0,0:0:0:0:
219,281,108709,6,0,P|227:251|241:224,2,61.3333333333333,2|2|2,3:2|0:0|0:0,0:0:0:0:
243,116,109103,2,0,P|196:125|150:167,1,92,2|0,0:0|0:0,0:0:0:0:
116,228,109367,1,2,3:2:0:0:
73,101,109498,2,0,P|91:76|117:60,1,61.3333333333333,10|0,0:0|0:0,0:0:0:0:
237,34,109761,1,10,0:0:0:0:
257,185,109894,2,0,P|236:221|208:242,2,61.3333333333333,2|2|2,3:2|3:2|0:0,0:0:0:0:
275,330,110288,6,0,P|307:333|341:327,1,61.3333333333333,2|2,0:0|3:2,0:0:0:0:
449,288,110551,1,2,3:2:0:0:
401,151,110683,2,0,P|372:163|349:183,2,61.3333333333333,2|2|2,3:2|3:2|0:0,0:0:0:0:
498,81,111078,2,2,B|481:57|481:57|445:39,2,61.3333333333333,10|2|0,0:0|0:0|0:0,0:0:0:0:
331,53,111473,2,2,B|306:72|306:72|288:109,2,61.3333333333333
234,189,111867,6,0,P|187:116|195:56,1,122.666666666667,2|0,0:0|0:0,0:0:0:0:
217,0,112262,1,2,0:0:0:0:
128,248,112525,1,2,0:0:0:0:
196,303,112657,2,0,P|230:310|261:306,1,61.3333333333333,2|0,0:0|0:0,0:0:0:0:
364,126,112920,1,2,3:2:0:0:
266,73,113051,2,0,P|227:68|196:75,2,61.3333333333333,4|0|0,3:2|0:0|0:0,0:0:0:0:
364,126,113446,6,0,B|379:97|379:97|373:41,2,61.3333333333333,2|0|0,0:0|3:2|3:2,0:0:0:0:
451,9,113841,2,0,P|496:67|508:128,1,122.666666666667,2|0,0:0|0:0,0:0:0:0:
474,218,114236,2,0,P|443:204|421:180,2,61.3333333333333,10|0|0,0:0|3:2|3:2,0:0:0:0:
332,349,114630,2,0,P|352:312|340:210,1,122.666666666667,10|0,0:0|0:0,0:0:0:0:
180,349,115025,6,0,P|160:312|165:237,1,92,2|0,3:2|0:0,0:0:0:0:
196,184,115288,1,2,0:0:0:0:
101,105,115420,2,0,P|83:132|76:164,2,61.3333333333333,2|0|2,0:0|0:0|3:2,0:0:0:0:
255,29,115815,2,0,P|297:22|366:50,1,92,10|0,0:0|0:0,0:0:0:0:
422,77,116078,1,2,3:2:0:0:
335,236,116209,2,0,P|287:202|254:143,1,122.666666666667,2|0,3:2|0:0,0:0:0:0:
255,29,116604,5,2,0:0:0:0:
366,122,116736,1,2,3:2:0:0:
146,122,116867,1,2,3:2:0:0:
256,209,116999,2,0,L|256:137,2,61.3333333333333,0|2|0,3:2|3:2|0:0,0:0:0:0:
146,122,117394,2,2,B|167:169|167:169|151:241,1,122.666666666667,10|0,0:0|0:0,0:0:0:0:
360,238,117788,2,2,B|345:169|345:169|366:122,1,122.666666666667,2|0,0:0|0:0,0:0:0:0:
449,30,118183,6,0,P|487:94|488:134,1,92,2|0,3:2|0:0,0:0:0:0:
463,195,118446,1,2,0:0:0:0:
360,238,118578,2,0,P|381:271|412:294,2,61.3333333333333,2|0|0,3:2|0:0|0:0,0:0:0:0:
259,194,118973,2,0,P|306:142|352:130,1,92,10|0,0:0|0:0,0:0:0:0:
427,118,119236,1,10,0:0:0:0:
188,112,119367,2,0,P|156:159|163:244,1,122.666666666667,2|0,3:2|0:0,0:0:0:0:
227,322,119762,5,2,3:2:0:0:
301,223,119894,1,2,0:0:0:0:
154,223,120025,1,2,0:0:0:0:
301,223,120157,2,0,P|367:232|399:260,1,92,2|0,3:2|0:0,0:0:0:0:
473,248,120420,1,2,0:0:0:0:
486,42,120551,2,0,P|504:83|503:145,1,92,10|0,0:0|0:0,0:0:0:0:
473,248,120814,1,2,0:0:0:0:
321,102,120946,2,0,P|244:115|185:191,1,153.333333333333,10|0,0:0|0:0,0:0:0:0:
145,266,121341,6,0,P|187:278|257:256,1,92,10|0,0:0|0:0,0:0:0:0:
299,200,121604,1,2,3:2:0:0:
362,299,121736,1,10,0:0:0:0:
255,358,121867,1,2,3:2:0:0:
132,347,121999,1,2,3:2:0:0:
17,289,122130,2,0,P|63:239|137:222,1,115,10|0,3:2|0:0,0:0:0:0:
195,219,122394,1,2,3:2:0:0:
324,124,122525,2,0,P|291:97|236:85,2,76.6666666666667,10|0|10,0:0|3:2|0:0,0:0:0:0:
464,94,122920,6,0,P|450:54|428:25,1,76.6666666666667,10|8,0:0|0:0,0:0:0:0:
293,1,123183,1,10,0:0:0:0:
199,113,123315,2,0,P|213:153|234:181,1,76.6666666666667,10|8,0:0|0:0,0:0:0:0:
371,194,123578,1,8,0:0:0:0:
464,94,123709,6,0,P|498:145|506:203,1,120.749996315003,8|0,0:1|0:0,0:0:0:0:
99,303,124499,6,0,B|136:192|136:192|90:73,1,230,2|0,0:0|0:0,0:0:0:0:
413,303,125091,2,8,B|376:192|376:192|422:73,1,230,2|0,0:0|0:0,0:0:0:0:
190,47,125683,2,0,B|256:136|256:136|332:33,1,230,2|0,0:0|0:0,0:0:0:0:
187,244,126275,2,0,B|255:338|255:338|319:248|319:248|355:320|355:320|308:384,1,362.249988945008,2|0,0:0|0:0,0:0:0:0:
471,148,127657,6,0,B|471:66|471:66|359:66|359:66|360:24,1,230,2|0,0:0|0:0,0:0:0:0:
152,29,128249,2,0,B|152:66|152:66|41:66|41:66|41:148,1,230,2|0,0:0|0:0,0:0:0:0:
163,367,128841,2,0,P|116:261|229:277,1,230,2|0,0:0|0:0,0:0:0:0:
348,367,129433,2,0,P|407:284|316:241,1,230,2|0,0:0|0:0,0:0:0:0:
96,249,130124,2,2,P|154:229|217:256,1,115,2|0,0:0|0:0,0:0:0:0:
96,135,130519,2,2,P|154:155|217:128,1,115,2|0,0:0|0:0,0:0:0:0:
321,28,130814,6,0,B|292:140|292:140|366:239,1,230,2|0,0:0|0:0,0:0:0:0:
191,28,131407,2,0,B|220:140|220:140|146:239,1,230,2|0,0:0|0:0,0:0:0:0:
322,317,131999,2,0,B|256:225|256:225|188:319,1,230,2|0,0:0|0:0,0:0:0:0:
187,140,132591,2,0,B|255:46|255:46|319:136|319:136|355:64|355:64|308:0,1,362.249988945008,2|0,0:0|0:0,0:0:0:0:
356,207,133973,6,0,B|386:197|386:197|450:62|450:62|411:10,1,230,2|0,0:0|0:0,0:0:0:0:
470,187,134565,2,0,B|436:261|436:261|345:288|345:288|292:253,1,230,2|0,0:0|0:0,0:0:0:0:
156,207,135157,2,0,B|126:197|126:197|61:62|61:62|90:23,1,230,2|0,0:0|0:0,0:0:0:0:
40,186,135749,2,0,B|76:261|76:261|167:288|167:288|211:258,1,231.149989066086,2|0,0:0|0:0,0:0:0:0:
323,257,136440,2,2,B|262:272|262:272|212:258,1,115.574994533043,2|0,0:0|0:0,0:0:0:0:
210,125,136834,2,2,B|260:111|260:111|321:126,1,115,2|0,0:0|0:0,0:0:0:0:
210,259,137130,5,2,3:2:0:0:
210,259,137229,1,2,0:0:0:0:
210,259,137328,1,2,0:0:0:0:
210,125,137525,2,0,P|135:147|94:192,1,115,2|0,3:2|0:0,0:0:0:0:
245,31,137920,2,0,L|323:48,2,57.5,2|2|2,3:2|0:0|0:0,0:0:0:0:
106,44,138315,2,0,P|42:71|-8:126,1,115,2|0,3:2|0:0,0:0:0:0:
85,239,138709,5,2,3:2:0:0:
85,239,138808,1,2,0:0:0:0:
85,239,138907,1,2,0:0:0:0:
213,378,139104,2,0,P|179:333|181:254,1,115,2|0,3:2|0:0,0:0:0:0:
249,199,139499,2,0,L|237:123,2,57.5,2|2|2,3:2|0:0|0:0,0:0:0:0:
351,105,139894,2,0,P|317:58|266:35,1,115,2|0,3:2|0:0,0:0:0:0:
380,235,140288,6,0,L|357:287,2,57.5,2|0|0,3:2|0:0|0:0,0:0:0:0:
266,35,140683,1,2,3:2:0:0:
52,259,141078,1,2,3:2:0:0:
52,259,141176,1,2,0:0:0:0:
52,259,141275,1,2,0:0:0:0:
6,377,141472,2,0,P|83:381|140:351,1,115,2|0,3:2|0:0,0:0:0:0:
237,296,141867,6,0,L|289:273,2,57.5,2|2|2,3:2|0:0|0:0,0:0:0:0:
116,367,142262,1,2,3:2:0:0:
404,364,142657,1,0,3:2:0:0:
404,364,142755,1,2,0:2:0:0:
404,364,142854,1,2,0:2:0:0:
493,272,143051,2,0,P|427:238|358:249,1,115,2|0,3:2|0:0,0:0:0:0:
122,246,143446,5,8,0:1:0:0:
122,246,143545,1,2,0:0:0:0:
122,246,143644,1,2,0:0:0:0:
162,384,143841,2,0,P|213:359|249:315,1,115,8|2,0:1|0:0,0:0:0:0:
246,131,144236,2,0,L|246:189,2,57.5,8|2|2,0:1|0:0|0:0,0:0:0:0:
308,38,144630,2,0,P|250:19|175:44,1,115,8|2,0:1|0:0,0:0:0:0:
82,105,145025,5,8,0:1:0:0:
82,105,145124,1,2,0:0:0:0:
82,105,145223,1,2,0:0:0:0:
82,232,145420,2,0,P|142:217|195:159,1,115,8|2,0:1|0:0,0:0:0:0:
257,82,145815,2,0,L|257:23,2,57.5,8|2|2,0:1|0:0|0:0,0:0:0:0:
430,232,146209,2,0,P|370:217|317:159,1,115,8|2,0:1|0:0,0:0:0:0:
427,110,146604,6,0,L|481:132,2,57.5,8|2|2,0:1|0:0|0:0,0:0:0:0:
337,24,146999,1,8,0:1:0:0:
185,210,147394,1,8,0:1:0:0:
185,210,147492,1,2,0:0:0:0:
185,210,147591,1,2,0:0:0:0:
232,347,147788,2,0,P|152:350|95:324,1,115,8|2,0:1|0:0,0:0:0:0:
30,203,148183,6,0,L|1:153,2,57.5,8|2|2,0:1|0:0|0:0,0:0:0:0:
106,27,148578,1,8,0:1:0:0:
264,241,148973,1,8,0:1:0:0:
241,241,149071,1,2,0:0:0:0:
218,243,149170,1,2,0:0:0:0:
195,246,149268,1,2,0:0:0:0:
160,249,149367,5,8,0:1:0:0:
198,261,149466,1,2,0:0:0:0:
236,272,149564,1,2,0:0:0:0:
275,279,149663,1,2,0:0:0:0:
322,289,149762,6,0,P|414:262|444:213,1,137.999995788574,4|0,3:2|0:0,0:0:0:0:
415,150,150058,1,2,0:0:0:0:
387,118,150157,1,10,0:0:0:0:
322,289,150354,1,2,0:0:0:0:
111,217,150551,2,0,P|81:268|90:348,1,137.999995788574,2|0,3:2|0:0,0:0:0:0:
13,200,150847,1,2,0:0:0:0:
25,152,150946,2,0,P|89:111|178:132,1,137.999995788574,10|0,0:0|0:0,0:0:0:0:
344,195,151341,6,0,P|396:162|437:77,1,137.999995788574,2|0,3:2|0:0,0:0:0:0:
439,238,151637,1,0,0:0:0:0:
407,267,151736,2,0,P|343:290|274:264,1,137.999995788574,10|0,0:0|0:0,0:0:0:0:
113,185,152130,2,0,P|91:239|116:322,1,137.999995788574,2|0,3:2|0:0,0:0:0:0:
226,211,152426,1,2,0:0:0:0:
223,169,152525,2,0,P|200:115|124:74,1,137.999995788574,10|0,0:0|0:0,0:0:0:0:
332,20,152920,6,0,P|394:44|423:105,1,137.999995788574,2|0,3:2|0:0,0:0:0:0:
393,183,153216,1,2,0:0:0:0:
359,206,153315,1,10,0:0:0:0:
332,20,153512,1,2,0:0:0:0:
283,156,153709,2,0,P|269:226|304:280,1,137.999995788574,2|0,3:2|0:0,0:0:0:0:
190,236,154005,1,2,0:0:0:0:
189,196,154104,2,0,P|214:117|260:71,1,137.999995788574,10|0,0:0|0:0,0:0:0:0:
79,236,154499,6,0,P|93:293|158:343,1,137.999995788574,2|0,3:2|0:0,0:0:0:0:
189,196,154795,1,2,0:0:0:0:
169,160,154893,2,0,P|105:118|20:137,1,137.999995788574,10|0,0:0|0:0,0:0:0:0:
247,80,155288,2,0,P|277:131|268:211,1,137.999995788574,2|0,3:2|0:0,0:0:0:0:
296,317,155584,1,2,0:0:0:0:
337,302,155683,2,0,P|380:236|370:157,1,137.999995788574,10|0,0:0|0:0,0:0:0:0:
115,81,156078,6,0,P|176:98|259:70,1,137.999995788574,2|0,3:2|0:0,0:0:0:0:
307,33,156374,1,2,0:0:0:0:
346,46,156473,1,10,0:0:0:0:
115,81,156670,1,2,0:0:0:0:
248,287,156867,2,0,P|281:226|279:144,1,137.999995788574,2|0,3:2|0:0,0:0:0:0:
106,200,157163,1,2,0:0:0:0:
78,227,157262,2,0,P|61:281|92:379,1,137.999995788574,10|0,0:0|0:0,0:0:0:0:
321,102,157657,6,0,B|256:81|256:81|182:104,1,137.999995788574,2|0,3:2|0:0,0:0:0:0:
151,259,157952,1,2,0:0:0:0:
189,279,158051,2,0,B|256:300|256:300|321:279,1,137.999995788574,10|0,0:0|0:0,0:0:0:0:
138,155,158446,2,0,B|104:94|104:94|134:33,1,137.999995788574,2|0,3:2|0:0,0:0:0:0:
341,14,158742,1,2,0:0:0:0:
378,33,158841,2,0,B|407:94|407:94|374:155,1,137.999995788574,10|0,0:0|0:0,0:0:0:0:
137,302,159235,5,2,3:2:0:0:
229,359,159433,1,2,0:0:0:0:
13,283,159630,1,10,0:0:0:0:
1,165,159828,1,2,0:0:0:0:
213,200,160025,5,2,3:2:0:0:
305,257,160223,1,2,0:0:0:0:
89,181,160420,1,10,0:0:0:0:
77,63,160618,1,2,0:0:0:0:
205,252,160814,5,2,3:2:0:0:
446,369,161012,1,2,0:0:0:0:
218,339,161209,1,10,0:0:0:0:
476,262,161407,1,2,0:0:0:0:
215,51,161604,5,2,3:2:0:0:
302,308,161802,1,2,0:0:0:0:
96,229,161999,1,10,0:0:0:0:
445,185,162197,1,2,0:0:0:0:
256,192,162394,12,0,163380,0:0:0:0:
86,60,163578,5,0,0:0:0:0:
60,91,163676,1,0,0:0:0:0:
45,151,163775,1,0,0:0:0:0:
74,221,163874,1,0,0:0:0:0:
158,258,163972,6,0,P|192:321|175:399,1,137.999995788574,4|0,3:2|0:0,0:0:0:0:
286,201,164269,2,0,P|229:132|162:117,1,137.999995788574,2|0,0:0|0:0,0:0:0:0:
75,130,164565,1,2,3:2:0:0:
283,14,164763,1,10,0:0:0:0:
434,202,164960,1,2,0:0:0:0:
240,114,165157,2,0,P|187:63|176:-5,1,137.999995788574,2|0,3:2|0:0,0:0:0:0:
192,231,165453,2,0,P|257:241|333:200,1,137.999995788574,2|0,0:0|0:0,0:0:0:0:
373,111,165750,1,2,3:2:0:0:
122,173,165946,6,0,P|102:240|138:304,1,137.999995788574,2|0,3:2|0:0,0:0:0:0:
264,356,166342,2,0,P|299:349|330:358,1,68.9999978942872,10|0,0:0|0:0,0:0:0:0:
495,332,166539,2,2,B|463:345|428:331,1,68.9999978942872,2|0,0:0|0:0,0:0:0:0:
319,242,166736,2,2,B|281:228|233:246,1,86.2500032901765,2|0,0:0|0:0,0:0:0:0:
31,160,166933,2,2,B|71:178|115:158,1,86.2500032901765,2|0,0:0|0:0,0:0:0:0:
354,111,167131,6,0,P|395:100|440:108,1,86.2500032901765,2|0,3:2|0:0,0:0:0:0:
471,249,167328,1,2,3:2:0:0:
471,249,167427,2,0,P|380:278|306:222,1,172.500006580353,2|0,0:0|0:0,0:0:0:0:
87,98,167723,1,2,3:2:0:0:
53,123,167822,1,2,3:2:0:0:
0,127,167921,2,0,P|3:59|172:64,1,258.75000987053,10|0,0:0|0:0,0:0:0:0:
20,319,168315,2,0,P|100:222|86:97,1,258.75000987053,4|0,3:2|0:0,0:0:0:0:
304,18,168709,6,2,B|324:70|324:70|307:114,1,103.499996841431,2|0,0:0|0:0,0:0:0:0:
442,149,168906,2,2,B|425:193|425:193|445:245,1,103.499996841431,2|0,3:2|0:0,0:0:0:0:
297,352,169105,1,2,3:2:0:0:
224,357,169203,1,2,0:0:0:0:
185,296,169301,1,2,0:2:0:0:
199,224,169400,1,2,3:2:0:0:
258,182,169499,1,10,0:2:0:0:
14,126,169696,1,2,3:2:0:0:
258,182,169894,2,2,B|278:94|111:85|141:210|69:220|-45:137|35:60,1,310.499990524292,2|0,0:0|0:0,0:0:0:0:
199,55,170288,6,0,P|317:111|306:244,1,275.999991577149,4|0,3:2|0:0,0:0:0:0:
199,55,170880,1,2,3:2:0:0:
439,62,171077,1,10,0:0:0:0:
327,5,171276,1,2,0:0:0:0:
416,212,171473,2,2,P|402:303|236:317,1,275.999991577149,2|0,3:2|0:0,0:0:0:0:
123,240,172065,1,2,3:2:0:0:
16,34,172262,2,0,P|28:108|-4:179,1,137.999995788574,2|0,3:2|0:0,0:0:0:0:
107,367,172657,2,0,P|95:291|138:229,1,137.999995788574,10|0,0:0|0:0,0:0:0:0:
282,104,173052,5,2,0:0:0:0:
348,83,173151,1,2,0:0:0:0:
427,110,173249,1,2,3:2:0:0:
473,187,173348,1,2,3:2:0:0:
445,273,173446,6,2,P|387:215|490:100,1,206.999993682861,2|0,3:2|0:0,0:0:0:0:
489,345,173743,2,2,P|370:311|319:231,1,206.999993682861,2|0,3:2|0:0,0:0:0:0:
437,20,174038,2,2,P|494:48|517:113,1,103.499996841431,2|0,3:2|0:0,0:0:0:0:
489,345,174236,2,2,B|421:357|371:297|251:375,1,206.999993682861,10|2,3:2|0:0,0:0:0:0:
19,101,174631,5,2,3:2:0:0:
53,156,174730,1,2,0:0:0:0:
115,159,174827,1,2,0:0:0:0:
172,137,174927,1,2,0:0:0:0:
233,149,175026,5,2,0:0:0:0:
255,207,175125,1,2,0:0:0:0:
230,253,175223,2,2,P|205:285|152:294,1,68.9999978942872,2|0,3:2|0:0,0:0:0:0:
53,156,175421,2,2,P|78:124|131:115,1,68.9999978942872,2|0,3:2|0:0,0:0:0:0:
230,253,175618,5,2,0:0:0:0:
179,295,175716,1,2,3:2:0:0:
116,296,175815,1,10,0:0:0:0:
66,257,175914,1,2,3:2:0:0:
53,195,176013,5,2,3:2:0:0:
83,140,176110,1,2,3:2:0:0:
141,120,176210,2,0,P|145:78|23:95,1,206.999993682861,12|0,0:0|0:0,0:0:0:0:
267,223,176604,6,2,P|303:125|264:20,1,206.999993682861,2|0,0:2|0:0,0:0:0:0:
162,242,176900,1,2,0:0:0:0:
162,242,176999,2,2,P|184:292|227:321,1,103.499996841431,2|0,0:0|0:0,0:0:0:0:
350,142,177196,2,0,P|328:92|285:63,1,103.499996841431,2|0,3:2|0:0,0:0:0:0:
306,286,177394,2,0,P|356:264|385:220,1,103.499996841431,10|0,0:0|0:0,0:0:0:0:
206,98,177591,2,0,P|156:120|127:163,1,103.499996841431,2|0,0:0|0:0,0:0:0:0:
298,359,177789,6,0,P|395:323|459:223,1,206.999993682861,2|0,3:2|0:0,0:0:0:0:
201,29,178085,2,0,P|118:59|57:177,1,206.999993682861,2|0,0:0|0:0,0:0:0:0:
60,256,178381,1,2,3:2:0:0:
444,341,178577,2,0,P|364:282|374:184,1,206.999993682861,2|0,3:2|0:0,0:0:0:0:
125,41,178973,2,2,B|173:10|221:42,1,103.499996841431,10|0,0:0|0:0,0:0:0:0:
124,143,179170,2,2,B|74:174|28:142,1,103.499996841431,2|0,0:0|0:0,0:0:0:0:
309,41,179367,2,2,B|355:9|405:40,1,103.499996841431,2|0,0:0|0:0,0:0:0:0:
502,141,179564,2,2,B|454:173|406:142,1,103.499996841431,2|0,0:0|0:0,0:0:0:0:
125,41,179763,6,0,P|173:25|221:42,1,103.499996841431,2|0,3:2|0:0,0:0:0:0:
486,106,179959,1,2,3:2:0:0:
486,106,180058,2,0,P|401:152|300:95,1,206.999993682861,2|0,0:0|0:0,0:0:0:0:
99,259,180355,1,2,3:2:0:0:
62,295,180452,1,2,3:2:0:0:
70,346,180551,2,0,P|143:338|96:167,1,310.499990524292,10|0,0:0|0:0,0:0:0:0:
227,362,180947,2,0,P|263:259|114:95,1,310.499990524292,4|0,3:2|0:0,0:0:0:0:
40,309,181342,6,2,B|88:329|88:329|135:312,1,103.499996841431,2|0,0:0|0:0,0:0:0:0:
429,213,181539,2,0,B|380:232|380:232|333:215,1,103.499996841431,2|0,3:2|0:0,0:0:0:0:
57,102,181736,2,2,P|105:117|155:105,1,103.499996841431,2|0,3:2|0:0,0:0:0:0:
438,47,181934,1,2,3:2:0:0:
475,67,182031,1,2,3:2:0:0:
491,118,182130,2,2,P|386:119|366:-2,1,206.999993682861,10|0,0:0|0:0,0:0:0:0:
87,28,182426,1,0,3:0:0:0:
87,28,182525,2,2,P|14:100|31:197,1,206.999993682861
195,114,182921,5,2,3:2:0:0:
255,99,183018,1,2,0:0:0:0:
310,125,183117,1,2,0:0:0:0:
347,174,183217,1,2,0:0:0:0:
400,207,183314,5,2,0:0:0:0:
457,184,183413,1,2,0:0:0:0:
465,122,183512,2,2,P|449:83|390:53,1,103.499996841431,2|0,3:2|0:0,0:0:0:0:
308,263,183710,2,2,P|338:296|408:312,1,103.499996841431,2|0,3:2|0:0,0:0:0:0:
465,122,183907,2,2,P|449:83|390:53,1,103.499996841431,2|2,3:2|0:0,0:0:0:0:
234,268,184105,2,0,P|311:362|412:382,1,206.999993682861,2|0,3:2|0:0,0:0:0:0:
465,122,184499,5,2,0:0:0:0:
441,64,184598,1,2,0:0:0:0:
382,41,184697,1,2,3:2:0:0:
320,48,184795,1,2,0:0:0:0:
267,80,184894,5,2,3:2:0:0:
205,89,184992,1,2,0:0:0:0:
143,80,185091,2,0,P|95:68|55:3,1,103.499996841431,2|0,0:0|0:0,0:0:0:0:
33,225,185288,6,0,P|42:289|17:346,1,126.500003860474,2|0,0:0|0:0,0:0:0:0:
285,179,186078,5,6,3:2:0:0:
310,133,186176,1,2,0:0:0:0:
355,105,186275,1,2,0:0:0:0:
407,105,186374,1,2,0:0:0:0:
454,128,186473,2,2,P|489:163|500:212,1,86.2500032901765,2|0,0:0|0:0,0:0:0:0:
285,179,186670,2,2,P|258:124|259:76,1,86.2500032901765,2|0,3:2|0:0,0:0:0:0:
375,238,186867,6,2,P|340:273|291:284,1,86.2500032901765,10|0,0:0|0:0,0:0:0:0:
92,197,187064,1,2,0:0:0:0:
45,176,187163,1,2,0:0:0:0:
5,206,187262,2,2,P|50:275|173:167,1,258.75000987053,2|0,3:2|0:0,0:0:0:0:
157,55,187657,1,2,0:0:0:0:
157,55,187755,1,2,0:0:0:0:
157,55,187854,2,2,P|215:45|264:66,1,86.2500032901765,2|0,3:2|0:0,0:0:0:0:
179,205,188051,2,2,P|121:215|72:194,1,86.2500032901765,2|0,3:2|0:0,0:0:0:0:
337,111,188249,2,2,P|349:168|334:218,1,86.2500032901765,2|0,0:0|0:0,0:0:0:0:
65,313,188446,6,2,P|13:280|-6:230,1,86.2500032901765,10|0,0:0|0:0,0:0:0:0:
216,102,188644,2,2,P|253:125|278:160,1,86.2500032901765,2|0,0:0|0:0,0:0:0:0:
0,97,188841,2,2,P|2:37|26:-6,1,86.2500032901765,2|0,0:0|0:0,0:0:0:0:
179,205,189038,2,2,P|189:263|168:312,1,86.2500032901765,2|0,3:2|0:0,0:0:0:0:
78,178,189236,5,4,3:2:0:0:
103,132,189334,1,2,0:0:0:0:
148,104,189433,1,2,0:0:0:0:
200,104,189532,1,2,0:0:0:0:
247,127,189630,2,2,P|282:162|293:211,1,86.2500032901765,2|0,0:0|0:0,0:0:0:0:
78,178,189828,2,2,P|51:123|52:75,1,86.2500032901765,2|0,3:2|0:0,0:0:0:0:
297,29,190025,6,2,P|339:65|355:114,1,86.2500032901765,10|0,0:0|0:0,0:0:0:0:
473,251,190223,1,2,0:0:0:0:
494,298,190322,1,2,0:0:0:0:
464,338,190421,2,2,P|395:293|503:170,1,258.75000987053,2|0,3:2|0:0,0:0:0:0:
296,325,190815,1,2,0:0:0:0:
296,325,190913,1,2,0:0:0:0:
296,325,191012,2,2,B|257:334|257:334|206:322,1,86.2500032901765,2|0,3:2|0:0,0:0:0:0:
217,170,191209,2,2,B|257:154|257:154|298:171,1,86.2500032901765,2|0,0:0|0:0,0:0:0:0:
297,12,191407,2,2,B|257:2|257:2|191:19,1,86.2500032901765,2|0,0:0|0:0,0:0:0:0:
68,141,191604,5,14,0:0:0:0:
444,146,191801,1,14,0:0:0:0:
216,93,191999,2,2,B|258:77|258:77|316:101,1,86.2500032901765,2|0,0:0|0:0,0:0:0:0:
238,282,192196,6,0,B|263:272|263:272|291:283,2,57.500002193451,0|0|0,3:2|3:2|3:2,3:2:0:0:
205,316,192394,5,4,3:2:0:0:
159,338,192492,1,2,0:0:0:0:
109,324,192591,1,2,0:0:0:0:
77,283,192690,1,2,0:0:0:0:
65,230,192789,2,2,B|59:187|59:187|76:131,1,86.2500032901765,2|0,0:0|0:0,0:0:0:0:
269,159,192986,2,2,B|286:196|286:196|268:237,1,86.2500032901765,2|0,3:2|0:0,0:0:0:0:
12,82,193183,6,2,P|60:42|104:24,1,86.2500032901765,10|0,0:0|0:0,0:0:0:0:
145,191,193381,1,2,0:0:0:0:
166,238,193480,1,2,0:0:0:0:
136,278,193577,2,2,P|67:233|176:108,1,258.75000987053,2|0,3:2|0:0,0:0:0:0:
326,176,193973,5,2,0:0:0:0:
385,187,194071,1,2,0:0:0:0:
434,151,194170,1,2,3:2:0:0:
434,90,194269,1,2,0:0:0:0:
399,40,194367,2,2,B|364:12|314:16,1,86.2500032901765,10|0,0:0|3:2,0:0:0:0:
385,187,194565,2,2,B|420:215|470:211,1,86.2500032901765,2|0,0:0|0:0,0:0:0:0:
277,79,194762,6,2,P|235:167|301:314,1,258.75000987053,10|0,0:0|0:0,0:0:0:0:
87,253,195157,2,2,P|49:269|20:301,1,86.2500032901765,2|0,0:0|0:0,0:0:0:0:
293,308,195354,2,2,P|333:290|364:261,1,86.2500032901765,2|0,3:2|0:0,0:0:0:0:
279,84,195551,5,2,3:2:0:0:
231,49,195649,1,2,0:0:0:0:
171,44,195748,1,2,0:0:0:0:
112,54,195847,1,2,0:0:0:0:
71,98,195946,2,2,B|38:133|43:205,1,86.2500032901765,2|0,0:0|0:0,0:0:0:0:
279,84,196144,2,2,B|296:47|283:-30,1,86.2500032901765,2|0,3:2|0:0,0:0:0:0:
161,157,196341,5,10,0:0:0:0:
161,157,196440,1,2,0:0:0:0:
161,157,196538,2,2,P|152:217|170:272,1,86.2500032901765,2|0,0:0|0:0,0:0:0:0:
339,365,196736,2,2,P|442:289|360:225,1,258.75000987053,2|2,3:2|0:0,0:0:0:0:
499,363,197130,2,2,P|515:308|501:243,1,86.2500032901765,2|0,0:0|0:0,0:0:0:0:
281,163,197328,2,2,P|264:210|273:273,1,86.2500032901765,2|0,3:2|0:0,0:0:0:0:
464,118,197525,5,10,0:0:0:0:
451,86,197624,1,2,3:2:0:0:
415,63,197723,1,2,0:0:0:0:
374,54,197821,1,2,0:0:0:0:
332,64,197920,6,0,P|294:67|228:17,2,115.000004386902,10|10|10,0:0|0:0|0:0,0:0:0:0:
237,148,198315,5,0,0:0:0:0:
214,142,198380,1,0,0:0:0:0:
193,131,198446,1,2,0:0:0:0:
175,116,198512,1,2,0:0:0:0:
161,97,198578,1,2,0:0:0:0:
154,74,198644,1,2,0:0:0:0:
151,43,198709,5,2,0:0:0:0:
137,74,198808,1,2,0:0:0:0:
130,107,198907,1,2,0:0:0:0:
134,140,199005,1,2,0:0:0:0:
159,180,199104,2,0,P|259:223|268:56,1,293.2500055933,4|2,3:2|3:2,0:0:0:0:
86,186,199499,6,2,P|107:234|182:281,1,97.7500018644333,2|0,0:0|0:0,0:0:0:0:
390,94,199696,2,2,P|368:47|298:-2,1,97.7500018644333,10|0,0:0|0:0,0:0:0:0:
82,93,199894,2,2,P|32:110|-7:188,1,97.7500018644333,2|0,3:2|0:0,0:0:0:0:
391,185,200091,1,2,0:0:0:0:
391,185,200190,1,2,0:0:0:0:
391,185,200288,6,2,P|441:168|480:90,1,97.7500018644333,2|0,3:2|0:0,0:0:0:0:
121,185,200486,1,2,0:0:0:0:
121,185,200585,1,2,0:0:0:0:
121,185,200683,2,2,P|71:168|32:90,1,97.7500018644333,2|0,3:2|0:0,0:0:0:0:
300,247,200880,2,0,B|257:266|257:266|209:248,1,97.7500018644333
209,136,201078,6,2,B|257:118|257:118|300:137,1,97.7500018644333,10|0,0:0|0:0,0:0:0:0:
402,234,201275,2,0,B|426:274|426:274|408:323,1,97.7500018644333,2|8,0:0|0:0,0:0:0:0:
104,321,201473,2,2,B|52:192|52:192|136:62,1,293.2500055933,2|0,0:0|0:0,0:0:0:0:
402,234,201867,6,2,P|483:169|437:-1,1,293.2500055933,2|0,3:2|0:0,0:0:0:0:
305,72,202262,1,10,0:0:0:0:
263,113,202361,1,2,0:0:0:0:
251,170,202460,1,2,0:0:0:0:
261,227,202558,1,2,0:0:0:0:
245,283,202657,6,2,P|204:312|136:313,1,97.7500018644333,2|0,3:2|0:0,0:0:0:0:
263,113,202854,2,2,P|314:103|375:131,1,97.7500018644333,10|0,0:0|0:0,0:0:0:0:
122,196,203051,2,2,P|99:106|140:4,1,206.999993682861,2|0,3:2|3:2,0:0:0:0:
268,225,203446,2,2,P|211:307|66:264,1,206.999993682861,2|0,3:2|0:0,0:0:0:0:
42,218,203841,2,0,L|31:161,4,34.4999989471436,0|0|0|0|0,3:0|3:0|3:0|3:0|3:0,3:0:0:0:
169,319,204236,5,8,0:0:0:0:
243,281,204367,5,8,0:0:0:0:
286,209,204499,5,8,0:0:0:0:
279,125,204630,5,8,0:0:0:0:
365,360,204828,5,0,3:2:0:0:
388,365,204894,1,0,3:2:0:0:
411,366,204959,1,0,3:2:0:0:
436,361,205025,6,2,P|482:322|442:193,1,206.999993682861,6|0,3:2|0:0,0:0:0:0:
248,137,205321,1,2,3:2:0:0:
248,137,205420,2,2,P|260:78|315:38,1,103.499996841431,10|0,0:0|0:0,0:0:0:0:
259,263,205617,2,2,P|206:257|161:227,1,103.499996841431,2|0,3:2|0:0,0:0:0:0:
81,110,205815,5,2,3:2:0:0:
427,22,206012,1,10,0:0:0:0:
476,45,206111,1,2,0:0:0:0:
487,100,206209,2,2,P|436:120|332:1,1,206.999993682861,2|0,3:2|0:0,0:0:0:0:
483,187,206604,2,2,P|422:198|353:178,1,103.499996841431,2|0,3:2|0:0,0:0:0:0:
116,92,206801,1,2,0:0:0:0:
116,92,206900,1,2,0:0:0:0:
116,92,206999,2,2,P|177:81|246:101,1,103.499996841431,10|0,0:2|0:0,0:0:0:0:
218,295,207196,1,2,0:0:0:0:
218,295,207295,1,2,0:0:0:0:
218,295,207394,6,0,P|167:302|116:291,1,103.499996841431,10|0,0:0|0:0,0:0:0:0:
292,177,207591,1,2,3:2:0:0:
336,220,207689,1,2,3:2:0:0:
357,278,207788,2,2,P|354:335|329:385,1,103.499996841431,10|0,0:0|0:0,0:0:0:0:
238,105,207986,2,2,P|289:85|347:105,1,103.499996841431,10|0,0:0|3:0,0:0:0:0:
157,8,208183,2,2,P|116:136|246:232,1,310.499990524292,2|0,3:2|0:0,0:0:0:0:
47,62,208578,2,2,P|44:129|63:193,1,103.499996841431,2|0,3:2|0:0,0:0:0:0:
136,273,208775,2,2,P|186:295|259:301,1,103.499996841431,2|0,0:0|0:0,0:0:0:0:
433,194,208973,5,2,3:2:0:0:
446,133,209071,1,2,0:0:0:0:
413,80,209170,2,2,P|362:70|310:89,1,103.499996841431,10|0,0:2|0:0,0:0:0:0:
37,279,209367,2,2,P|88:289|140:270,1,103.499996841431,2|0,3:2|0:0,0:0:0:0:
253,98,209565,5,2,0:0:0:0:
315,87,209664,1,2,0:0:0:0:
371,115,209763,1,2,3:2:0:0:
393,172,209861,1,10,0:2:0:0:
450,146,209960,5,2,3:2:0:0:
453,83,210059,1,2,0:0:0:0:
412,37,210157,2,2,P|367:17|293:15,1,103.499996841431,10|0,0:0|0:0,0:0:0:0:
118,210,210354,2,2,P|163:230|237:232,1,103.499996841431,10|0,3:2|3:2,0:0:0:0:
243,23,210551,5,8,0:0:0:0:
178,74,210683,5,8,0:0:0:0:
170,156,210815,5,8,0:0:0:0:
233,209,210946,6,2,P|290:223|350:203,1,103.499996841431,2|0,3:2|0:0,0:0:0:0:
243,23,211144,2,2,P|193:12|144:26,1,103.499996841431,2|0,0:0|0:0,0:0:0:0:
57,92,211341,5,4,0:0:0:0:
316,320,211736,2,0,P|355:278|460:260,2,160.99999508667,2|2|2,0:0|0:0|0:0,0:0:0:0:
454,335,213512,2,0,P|417:330|368:378,3,80.499997543335
196,64,214894,2,0,P|157:106|52:124,2,160.99999508667,2|2|2,0:0|0:0|0:0,0:0:0:0:
471,265,216473,2,2,P|453:316|467:373,1,115,2|0,0:0|0:0,0:0:0:0:
209,144,216966,2,2,B|255:114|255:114|307:145,1,115,2|0,0:0|0:0,0:0:0:0:
209,240,217361,2,2,B|255:270|255:270|307:239,1,115,2|0,0:0|0:0,0:0:0:0:
492,162,218051,6,0,P|408:138|381:5,2,230,2|2|2,0:0|0:0|0:0,0:0:0:0:
497,84,219828,2,0,P|443:70|474:21,3,115
332,142,220617,1,2,0:0:0:0:
191,283,220815,6,0,L|412:334,1,184,2|2,0:0|0:0,0:0:0:0:
355,207,221407,1,0,0:0:0:0:
157,177,221604,1,2,0:0:0:0:
355,207,221801,2,0,P|414:180|435:115,2,92,2|0|2,0:0|0:0|0:0,0:0:0:0:
191,101,222394,2,0,L|412:49,1,184,2|0,0:0|0:0,0:0:0:0:
87,94,223183,5,2,0:0:0:0:
73,118,223281,1,2,0:0:0:0:
67,145,223380,1,2,0:0:0:0:
68,172,223479,1,2,0:0:0:0:
76,198,223578,5,2,0:0:0:0:
85,224,223676,1,2,0:0:0:0:
86,252,223775,1,2,0:0:0:0:
80,278,223874,1,2,0:0:0:0:
47,307,223973,6,0,P|27:253|61:178,1,137.999995788574,10|0,0:0|0:0,0:0:0:0:
194,257,224367,2,0,P|215:192|170:105,1,137.999995788574,10|0,0:0|0:0,0:0:0:0:
146,3,224762,2,0,P|97:34|64:129,1,137.999995788574,10|0,0:0|0:0,0:0:0:0:
193,128,225156,2,0,P|257:151|326:125,1,137.999995788574,10|0,0:0|0:0,0:0:0:0:
366,3,225551,2,0,P|415:34|448:129,1,137.999995788574,10|0,0:0|0:0,0:0:0:0:
320,254,225946,2,0,P|256:233|193:256,1,137.999995788574,10|0,0:0|0:0,0:0:0:0:
369,379,226341,6,0,P|419:341|449:251,1,137.999995788574,10|0,0:0|0:0,0:0:0:0:
318,257,226736,2,0,P|297:192|342:105,1,137.999995788574,10|0,0:0|0:0,0:0:0:0:
190,227,227130,2,0,P|211:292|166:379,1,137.999995788574,10|0,0:0|0:0,0:0:0:0:
126,145,227525,2,0,L|111:66,2,68.9999978942872,10|2|2,0:0|0:0|0:0,0:0:0:0:
386,145,227920,2,0,L|401:66,2,68.9999978942872,10|2|2,0:0|0:0|0:0,0:0:0:0:
209,358,228315,6,0,P|183:313|207:219,1,137.999995788574,10|0,0:0|0:0,0:0:0:0:
363,92,228709,2,0,P|379:157|351:218,1,137.999995788574,10|0,0:0|0:0,0:0:0:0:
295,32,229104,2,0,P|358:0|419:22,1,137.999995788574,10|0,0:0|0:0,0:0:0:0:
417,307,229499,2,0,P|351:329|279:302,1,137.999995788574,10|0,0:0|0:0,0:0:0:0:
84,184,229894,2,0,P|150:162|212:188,1,137.999995788574,10|0,0:0|0:0,0:0:0:0:
400,146,230288,6,0,P|432:87|417:21,1,137.999995788574,10|0,0:0|0:0,0:0:0:0:
333,235,230683,2,0,P|399:258|477:227,1,137.999995788574,10|0,0:0|0:0,0:0:0:0:
512,143,231077,1,10,0:0:0:0:
333,235,231275,1,2,0:0:0:0:
201,61,231472,6,0,P|179:125|200:190,1,137.999995788574,10|0,0:0|0:0,0:0:0:0:
278,291,231867,1,10,0:0:0:0:
201,61,232065,1,2,0:0:0:0:
84,184,232262,1,10,0:0:0:0:
333,235,232460,1,2,0:0:0:0:
108,104,232657,5,10,0:0:0:0:
149,310,232854,1,2,0:0:0:0:
382,333,233051,2,0,P|426:287|446:214,1,137.999995788574,10|0,0:0|0:0,0:0:0:0:
199,224,233446,6,8,B|215:196|215:196|188:154,3,68.9999978942872
287,32,233841,2,8,B|314:48|314:48|357:21,3,68.9999978942872
469,152,234236,2,8,B|452:179|452:179|480:222,3,68.9999978942872
349,292,234630,2,2,P|313:301|276:291,1,68.9999978942872,10|0,0:0|0:0,0:0:0:0:
156,155,234828,2,2,P|183:148|225:158,1,68.9999978942872,2|0,0:0|0:0,0:0:0:0:
76,291,235025,2,2,P|43:268|24:242,1,68.9999978942872,10|0,0:0|0:0,0:0:0:0:
237,60,235223,5,2,0:0:0:0:
281,78,235321,1,2,0:0:0:0:
311,115,235420,2,2,P|418:112|438:8,1,206.999993682861,10|0,3:2|0:0,0:0:0:0:
254,211,235815,2,2,P|190:185|147:132,1,137.999995788574,10|0,3:2|0:0,0:0:0:0:
118,43,236111,1,2,0:0:0:0:
311,115,236209,2,2,P|364:220|312:307,1,206.999993682861,10|0,3:2|0:0,0:0:0:0:
256,192,236604,12,0,237196,0:0:0:0:
30,320,237394,5,2,0:0:0:0:
64,296,237493,1,2,0:0:0:0:
94,240,237592,1,2,0:0:0:0:
83,165,237690,1,2,0:0:0:0:
72,76,237789,5,2,0:0:0:0:
139,14,237888,1,2,0:0:0:0:
229,23,237986,2,0,P|260:50|284:96,1,68.9999978942872,2|0,0:0|0:0,0:0:0:0:
310,267,238183,6,0,P|264:336|134:333,1,206.999993682861,4|0,3:2|0:0,0:0:0:0:
429,241,238479,2,0,P|375:163|261:154,1,206.999993682861,2|0,0:0|0:0,0:0:0:0:
201,243,238775,1,2,3:2:0:0:
429,241,238973,1,10,0:0:0:0:
314,27,239170,1,2,0:0:0:0:
89,93,239367,2,0,P|140:146|274:140,1,206.999993682861,2|0,3:2|0:0,0:0:0:0:
12,174,239663,2,0,P|-22:96|44:-10,1,206.999993682861,2|0,0:0|0:0,0:0:0:0:
178,13,239960,1,2,3:2:0:0:
71,270,240157,6,0,P|117:217|87:91,1,206.999993682861,2|0,3:2|0:0,0:0:0:0:
123,345,240551,2,2,P|85:361|25:349,1,103.499996841431,10|0,0:0|0:0,0:0:0:0:
344,347,240749,2,2,P|395:352|449:339,1,103.499996841431,2|0,0:0|0:0,0:0:0:0:
291,206,240946,2,2,P|239:192|188:207,1,103.499996841431,2|0,0:0|0:0,0:0:0:0:
66,29,241144,2,2,P|116:14|174:40,1,103.499996841431,2|0,0:0|0:0,0:0:0:0:
437,124,241341,6,2,P|457:183|434:240,1,103.499996841431,2|0,3:2|0:0,0:0:0:0:
107,270,241539,1,2,3:2:0:0:
107,270,241637,2,0,P|55:182|109:93,1,206.999993682861,2|0,0:0|0:0,0:0:0:0:
412,37,241933,1,2,3:2:0:0:
445,11,242032,1,2,3:2:0:0:
499,7,242131,2,0,P|496:74|320:28,1,310.499990524292,10|0,0:0|0:0,0:0:0:0:
511,166,242525,2,0,P|391:198|257:85,1,310.499990524292,4|0,3:2|0:0,0:0:0:0:
172,249,242920,6,2,B|122:274|72:246,1,103.499996841431,2|0,0:0|0:0,0:0:0:0:
258,87,243117,2,2,B|307:61|357:89,1,103.499996841431,2|0,3:2|0:0,0:0:0:0:
435,211,243315,1,2,3:2:0:0:
390,268,243414,1,2,0:0:0:0:
318,273,243512,1,2,0:0:0:0:
277,212,243611,1,2,3:2:0:0:
304,144,243710,1,10,0:0:0:0:
457,320,243907,1,2,3:2:0:0:
304,144,244104,2,2,B|350:63|484:196|328:241|349:311|472:379|508:274,1,310.499990524292,2|0,0:0|0:0,0:0:0:0:
229,170,244499,6,0,P|288:63|422:88,1,275.999991577149,4|0,3:2|0:0,0:0:0:0:
348,340,245091,1,2,3:2:0:0:
110,235,245289,1,10,0:0:0:0:
175,308,245486,1,2,0:0:0:0:
354,136,245683,2,2,P|330:37|145:113,1,345.000013160706,2|0,3:2|0:0,0:0:0:0:
163,214,246275,1,2,3:2:0:0:
380,245,246473,2,0,P|444:199|457:103,1,172.500006580353,2|0,3:2|0:0,0:0:0:0:
163,214,246867,2,0,P|99:260|86:356,1,172.500006580353,10|0,0:0|0:0,0:0:0:0:
258,262,247262,5,2,0:0:0:0:
266,202,247361,1,2,0:0:0:0:
244,145,247460,1,2,0:0:0:0:
193,113,247558,1,2,0:0:0:0:
108,113,247657,6,2,P|185:27|275:97,1,206.999993682861,2|0,3:2|0:0,0:0:0:0:
182,192,247953,2,2,P|72:216|6:146,1,206.999993682861,2|0,3:2|0:0,0:0:0:0:
289,183,248249,2,2,P|278:241|231:291,1,103.499996841431,2|0,3:2|0:0,0:0:0:0:
34,355,248446,2,2,B|-6:300|69:233|3:147,1,206.999993682861,10|0,0:0|0:0,0:0:0:0:
181,19,248841,5,2,3:2:0:0:
232,53,248940,1,2,0:0:0:0:
239,114,249039,1,2,0:0:0:0:
217,172,249137,1,2,0:0:0:0:
229,233,249236,5,2,0:0:0:0:
287,255,249335,1,2,0:0:0:0:
333,230,249433,2,2,P|365:205|388:137,1,103.499996841431,2|0,3:2|0:0,0:0:0:0:
232,53,249631,2,2,P|200:78|188:140,1,103.499996841431,2|0,3:2|0:0,0:0:0:0:
333,230,249828,5,2,0:0:0:0:
378,188,249926,1,2,0:0:0:0:
389,126,250025,1,2,3:2:0:0:
352,75,250124,1,2,3:2:0:0:
293,53,250223,5,2,3:2:0:0:
236,79,250322,1,2,3:2:0:0:
201,129,250420,2,2,P|159:132|176:11,1,206.999993682861,2|0,3:2|0:0,0:0:0:0:
110,187,250814,6,2,P|44:94|69:-5,1,206.999993682861,2|0,0:0|0:0,0:0:0:0:
160,263,251110,1,2,0:0:0:0:
160,263,251209,2,2,P|193:220|199:168,1,103.499996841431,2|0,0:0|0:0,0:0:0:0:
332,34,251407,2,2,P|339:84|371:124,1,103.499996841431,2|0,3:2|0:0,0:0:0:0:
226,83,251604,2,2,P|170:79|130:111,1,103.499996841431,10|0,0:0|0:0,0:0:0:0:
344,221,251801,2,2,P|403:221|449:192,1,103.499996841431,2|0,0:0|0:0,0:0:0:0:
219,8,251999,6,2,P|123:23|51:133,1,206.999993682861,2|0,3:2|0:0,0:0:0:0:
358,295,252295,2,0,P|434:285|529:199,1,206.999993682861,2|0,0:0|0:0,0:0:0:0:
476,47,252591,1,2,3:2:0:0:
193,150,252788,2,0,P|292:123|352:25,1,206.999993682861,2|0,3:2|0:0,0:0:0:0:
459,328,253183,2,2,B|487:277|453:232,1,103.499996841431,10|0,0:0|0:0,0:0:0:0:
205,237,253380,2,2,B|173:283|204:333,1,103.499996841431,2|0,0:0|0:0,0:0:0:0:
308,333,253578,2,2,B|339:283|307:237,1,103.499996841431,2|0,0:0|0:0,0:0:0:0:
58,232,253775,2,2,B|24:277|53:328,1,103.499996841431,2|0,0:0|0:0,0:0:0:0:
259,149,253973,6,2,P|318:138|360:154,1,103.499996841431,2|0,3:2|0:0,0:0:0:0:
230,325,254170,1,2,3:2:0:0:
230,325,254269,2,0,P|135:372|41:308,1,206.999993682861,2|0,0:0|0:0,0:0:0:0:
414,125,254565,1,2,3:2:0:0:
466,124,254664,1,2,3:2:0:0:
496,166,254761,2,0,P|439:212|351:58,1,310.499990524292,10|0,0:0|0:0,0:0:0:0:
512,254,255157,2,0,P|362:278|258:164,1,310.499990524292,4|0,3:2|0:0,0:0:0:0:
64,43,255552,6,2,B|112:23|112:23|167:46,1,103.499996841431,2|0,0:0|0:0,0:0:0:0:
414,124,255749,2,2,B|365:143|365:143|318:126,1,103.499996841431,2|0,3:2|0:0,0:0:0:0:
102,266,255946,2,2,B|151:247|151:247|198:264,1,103.499996841431,2|0,3:2|0:0,0:0:0:0:
475,331,256144,1,2,3:2:0:0:
454,368,256243,1,2,3:2:0:0:
403,384,256341,2,2,P|401:279|523:259,1,206.999993682861,10|0,0:0|0:0,0:0:0:0:
247,371,256637,1,2,3:2:0:0:
247,371,256736,2,2,P|138:346|109:227,1,206.999993682861,2|0,0:0|0:0,0:0:0:0:
167,85,257131,5,2,3:2:0:0:
112,36,257229,1,2,0:0:0:0:
42,51,257327,1,2,0:0:0:0:
19,120,257427,1,2,0:0:0:0:
73,168,257526,5,2,0:0:0:0:
143,175,257623,1,2,0:0:0:0:
189,232,257723,2,2,P|190:274|148:325,1,103.499996841431,2|0,3:2|0:0,0:0:0:0:
167,85,257920,2,2,P|197:52|267:36,1,103.499996841431,10|0,0:0|0:0,0:0:0:0:
345,298,258117,2,2,P|309:335|259:349,1,103.499996841431,2|0,0:0|0:0,0:0:0:0:
111,191,258315,2,2,P|96:69|156:-3,1,206.999993682861,2|2,3:2|3:2,0:0:0:0:
406,224,258709,5,2,0:0:0:0:
392,295,258808,1,2,0:0:0:0:
333,338,258907,1,2,0:0:0:0:
261,337,259005,1,2,0:0:0:0:
209,285,259104,5,2,0:0:0:0:
138,266,259203,1,2,0:0:0:0:
71,294,259301,2,0,B|41:340|41:340|67:385,1,103.499996841431,2|0,0:0|0:0,0:0:0:0:
207,208,259499,6,0,B|229:131|229:131|200:52,1,160.99999508667,2|2,0:0|0:0,0:0:0:0:
387,83,260288,6,0,B|430:168|430:168|379:304,1,206.999993682861,2|0,3:2|0:0,0:0:0:0:
247,360,260683,2,0,B|283:366|283:366|330:357,1,68.9999978942872,2|0,3:2|0:0,0:0:0:0:
468,295,260880,1,2,3:2:0:0:
276,122,261078,2,0,P|241:115|202:126,1,68.9999978942872,10|0,0:2|0:0,0:0:0:0:
70,282,261275,1,2,0:0:0:0:
96,330,261374,1,2,0:0:0:0:
145,353,261473,2,0,P|184:353|223:327,1,68.9999978942872,2|0,3:2|0:0,0:0:0:0:
109,91,261670,2,0,P|96:130|104:165,1,68.9999978942872,2|0,3:2|0:0,0:0:0:0:
266,294,261867,1,2,3:2:0:0:
255,21,262065,1,2,3:2:0:0:
157,227,262262,2,2,B|142:194|142:194|163:157,1,68.9999978942872,2|0,3:2|0:0,0:0:0:0:
353,165,262459,2,2,B|370:194|370:194|355:227,1,68.9999978942872,2|0,0:0|0:0,0:0:0:0:
189,75,262657,6,2,B|256:2|256:2|338:86,1,206.999993682861,10|0,0:0|0:0,0:0:0:0:
158,165,263051,2,2,B|125:180|125:180|88:159,1,68.9999978942872,2|0,0:0|0:0,0:0:0:0:
353,165,263249,2,2,B|386:150|386:150|423:171,1,68.9999978942872,2|0,0:0|0:0,0:0:0:0:
189,289,263446,2,2,P|255:222|253:111,1,206.999993682861,2|0,3:2|0:0,0:0:0:0:
96,244,263841,1,2,0:0:0:0:
87,305,263940,1,2,0:0:0:0:
113,360,264038,1,2,3:2:0:0:
170,382,264137,1,2,3:2:0:0:
227,357,264236,6,2,P|178:288|127:386,1,206.999993682861,10|0,0:2|0:0,0:0:0:0:
297,322,264630,2,0,P|229:230|130:222,1,206.999993682861,4|0,3:2|0:0,0:0:0:0:
371,152,265025,2,2,P|376:185|371:219,1,68.9999978942872,2|0,0:0|0:0,0:0:0:0:
142,218,265223,2,2,P|137:184|143:151,1,68.9999978942872,2|0,3:2|0:0,0:0:0:0:
246,33,265420,1,2,3:2:0:0:
281,84,265519,1,2,0:0:0:0:
265,143,265617,5,2,3:2:0:0:
263,156,265683,1,2,3:2:0:0:
260,174,265749,1,2,3:2:0:0:
261,192,265815,6,2,P|269:230|320:287,1,68.9999978942872,10|0,0:0|0:0,0:0:0:0:
445,298,266012,1,2,3:2:0:0:
441,339,266111,1,2,0:0:0:0:
412,377,266209,2,2,P|365:327|430:214,1,206.999993682861,2|0,3:2|0:0,0:0:0:0:
302,357,266604,2,0,P|300:244|373:161,1,206.999993682861,4|0,3:2|0:0,0:0:0:0:
204,61,266999,2,2,P|211:105|197:136,1,68.9999978942872,2|0,0:0|0:0,0:0:0:0:
39,123,267196,2,2,P|32:79|46:48,1,68.9999978942872,2|0,3:2|0:0,0:0:0:0:
256,12,267394,6,2,P|283:105|234:197,1,206.999993682861,10|0,0:0|0:0,0:0:0:0:
45,277,267788,2,2,B|78:266|78:266|138:286,1,68.9999978942872,2|0,3:2|0:0,0:0:0:0:
299,335,267986,5,2,3:2:0:0:
313,346,268051,1,2,3:2:0:0:
331,349,268117,1,2,3:2:0:0:
360,344,268183,6,2,B|390:331|390:331|431:350,1,68.9999978942872,2|0,0:0|0:0,0:0:0:0:
505,231,268380,2,2,B|475:244|475:244|434:225,1,68.9999978942872,2|0,3:2|0:0,0:0:0:0:
303,121,268578,2,2,B|333:108|333:108|374:127,1,68.9999978942872,2|0,3:2|0:0,0:0:0:0:
510,28,268775,2,2,B|480:41|480:41|439:22,1,68.9999978942872,2|0,0:0|0:0,0:0:0:0:
213,10,268973,5,10,0:0:0:0:
35,225,269170,2,2,B|28:193|28:193|41:142,1,68.9999978942872,2|0,0:0|0:0,0:0:0:0:
198,265,269367,2,2,B|206:300|206:300|199:332,1,68.9999978942872,2|0,0:0|0:0,0:0:0:0:
122,176,269565,5,2,3:2:0:0:
139,171,269630,1,2,3:2:0:0:
156,166,269696,1,2,3:2:0:0:
188,166,269762,6,0,B|256:178|256:178|339:164,1,137.999995788574,2|0,3:2|0:0,0:0:0:0:
323,34,270058,2,0,B|256:23|256:23|188:35,1,137.999995788574,2|0,3:2|0:0,0:0:0:0:
405,105,270354,2,0,B|416:73|416:73|407:39,1,68.9999978942872,2|0,3:2|0:0,0:0:0:0:
359,230,270551,2,0,B|256:251|256:251|156:231,1,206.999993682861,10|0,0:0|0:0,0:0:0:0:
356,318,270946,1,2,3:2:0:0:
410,306,271045,1,2,0:0:0:0:
445,263,271144,1,2,0:0:0:0:
450,208,271242,1,2,0:0:0:0:
444,152,271341,6,0,B|431:117|431:117|450:57,1,68.9999978942872,2|0,0:0|0:0,0:0:0:0:
287,22,271538,2,2,B|254:31|254:31|191:15,1,68.9999978942872,2|0,3:2|0:0,0:0:0:0:
222,230,271736,2,2,B|255:220|255:220|316:243,1,68.9999978942872,2|0,3:2|0:0,0:0:0:0:
482,357,271933,5,2,3:2:0:0:
463,358,271998,1,2,3:2:0:0:
444,359,272064,1,2,3:2:0:0:
428,358,272130,6,2,P|385:360|342:348,1,68.9999978942872,10|0,0:0|0:0,0:0:0:0:
138,197,272328,1,8,0:0:0:0:
82,224,272427,1,8,0:0:0:0:
58,271,272525,2,2,B|57:366|57:366|142:345|142:345|155:377,1,206.999993682861,2|0,3:2|0:0,0:0:0:0:
454,113,272920,2,2,B|454:17|454:17|371:52|371:52|348:4,1,206.999993682861,2|0,0:0|0:0,0:0:0:0:
231,186,273315,5,2,0:0:0:0:
217,260,273413,1,2,0:0:0:0:
270,313,273512,1,2,3:2:0:0:
344,299,273611,1,2,0:0:0:0:
378,232,273709,6,0,P|471:233|508:341,1,206.999993682861,4|0,3:2|0:0,0:0:0:0:
115,153,274104,2,0,P|183:74|299:86,1,206.999993682861,2|0,3:2|0:0,0:0:0:0:
366,139,274499,1,2,0:0:0:0:
146,245,274696,2,2,P|83:231|58:203,1,68.9999978942872,2|0,3:2|0:0,0:0:0:0:
366,139,274894,2,2,B|405:140|405:140|454:181,1,68.9999978942872,2|0,3:2|0:0,0:0:0:0:
186,48,275091,2,2,B|147:47|147:47|98:6,1,68.9999978942872,2|0,0:0|0:0,0:0:0:0:
336,232,275288,6,2,B|375:246|412:232|412:232|412:314|412:314|490:314,1,206.999993682861,10|0,0:2|0:0,0:0:0:0:
176,232,275683,2,2,B|137:246|100:232|100:232|100:314|100:314|22:314,1,206.999993682861,2|0,0:2|0:0,0:0:0:0:
0,128,276078,2,2,P|78:88|194:174,1,206.999993682861,2|0,3:2|0:0,0:0:0:0:
301,288,276473,1,2,0:0:0:0:
316,227,276571,1,2,0:0:0:0:
297,169,276670,2,2,P|292:124|313:67,1,68.9999978942872,2|0,3:2|0:0,0:0:0:0:
458,7,276867,2,2,P|462:41|457:74,1,68.9999978942872,10|0,0:0|0:0,0:0:0:0:
298,161,277064,1,2,0:0:0:0:
252,176,277162,1,2,0:0:0:0:
203,181,277262,6,2,B|160:117|160:117|191:62,1,137.999995788574,2|0,3:2|0:0,0:0:0:0:
126,255,277558,2,2,B|164:321|164:321|105:391,1,137.999995788574,2|0,0:0|0:0,0:0:0:0:
308,151,277854,1,2,3:2:0:0:
343,185,277953,1,2,0:0:0:0:
356,234,278051,2,2,B|389:249|389:249|441:226,1,68.9999978942872,2|0,3:2|0:0,0:0:0:0:
156,150,278249,2,2,B|128:135|128:135|67:159,1,68.9999978942872,2|0,3:2|0:0,0:0:0:0:
201,20,278446,6,2,P|255:7|314:25,1,115,10|0,0:0|0:0,0:0:0:0:
403,222,278742,1,2,0:0:0:0:
403,222,278841,2,2,P|406:185|393:145,1,57.5,2|0,3:2|0:0,0:0:0:0:
109,162,279038,2,2,P|106:199|119:239,1,57.5,2|0,0:0|0:0,0:0:0:0:
255,357,279236,2,0,L|256:137,1,172.5,4|0,3:2|0:0,0:0:0:0:
346,56,279630,2,2,B|356:88|356:88|337:141,1,57.5,2|0,0:0|0:0,0:0:0:0:
166,328,279828,2,2,B|156:296|156:296|164:273,1,57.5,2|2,0:2|0:0,0:0:0:0:
346,56,280025,6,2,B|356:88|356:88|347:110,1,57.5,10|0,0:2|0:0,0:0:0:0:
164,110,280223,2,2,B|156:88|156:88|166:56,1,57.5,2|0,0:0|0:0,0:0:0:0:
347,272,280420,2,2,B|355:299|355:299|346:328,1,57.5,2|0,3:2|0:0,0:0:0:0:
256,172,280617,5,2,3:2:0:0:
255,137,280716,1,2,3:2:0:0:
256,102,280814,5,2,3:2:0:0:
154,215,281012,2,2,B|177:190|177:190|161:158,1,68.9999978942872,2|0,3:2|0:0,0:0:0:0:
350,158,281209,2,2,B|335:190|335:190|358:215,1,68.9999978942872,2|0,3:2|0:0,0:0:0:0:
226,290,281407,2,2,B|256:270|256:270|293:297,1,68.9999978942872,2|0,3:2|0:0,0:0:0:0:
256,109,281604,5,8,0:0:0:0:
256,30,281999,1,2,0:0:0:0:
256,30,282394,6,0,B|140:236|0:133|98:-35|203:-60|249:111|192:188|231:254|333:297|396:230|383:186,1,625.600003818359,2|2,0:0|0:0,0:0:0:0:
