osu file format v14

[General]
AudioFilename: audio.mp3
AudioLeadIn: 0
PreviewTime: 64533
Countdown: 1
SampleSet: None
StackLeniency: 0.7
Mode: 0
LetterboxInBreaks: 0
WidescreenStoryboard: 0

[Editor]
DistanceSpacing: 3
BeatDivisor: 4
GridSize: 32
TimelineZoom: 4.099998

[Metadata]
Title:Error
TitleUnicode:Error
Artist:GARNiDELiA
ArtistUnicode:GARNiDELiA
Creator:Breezy033
Version:Extra
Source:BEATLESS
Tags:
BeatmapID:1757863
BeatmapSetID:839753

[Difficulty]
HPDrainRate:6
CircleSize:4
OverallDifficulty:8
ApproachRate:9.6
SliderMultiplier:2
SliderTickRate:1

[Events]
//Background and Video events
0,0,"beatless-anime-newtype.jpg.0f432e3c4b5172b8bd6be5fc4965edf1.jpg",0,0
//Break Periods
//Storyboard Layer 0 (Background)
//Storyboard Layer 1 (Fail)
//Storyboard Layer 2 (Pass)
//Storyboard Layer 3 (Foreground)
//Storyboard Sound Samples

[TimingPoints]
586,394.736842105263,4,2,0,30,1,0
586,-100,4,2,0,30,0,0
684,-100,4,2,0,5,0,0
1276,-100,4,2,0,10,0,0
1770,-100,4,2,0,30,0,0
1868,-100,4,2,0,5,0,0
3151,-100,4,2,0,5,0,0
3743,-100,4,2,0,20,0,0
3941,-100,4,2,0,5,0,0
4385,-100,4,2,0,10,0,0
4929,-100,4,2,0,20,0,0
5520,-100,4,2,0,20,0,0
6112,-66.6666666666667,4,2,0,30,0,0
13612,-133.333333333333,4,2,0,17,0,0
16375,-333.333333333333,4,2,0,17,0,0
18743,-66.6666666666667,4,2,0,17,0,0
19533,-66.6666666666667,4,2,0,25,0,0
19928,-133.333333333333,4,2,0,17,0,0
21507,-133.333333333333,4,2,0,25,0,0
22691,-333.333333333333,4,2,0,28,0,0
23085,-133.333333333333,4,2,0,17,0,0
24270,-333.333333333333,4,2,0,28,0,0
24862,-333.333333333333,4,2,0,40,0,0
25257,-333.333333333333,4,2,0,50,0,0
25651,-333.333333333333,4,2,0,60,0,0
25849,-100,4,2,0,35,0,0
38480,-100,4,2,0,35,0,0
40059,-100,4,2,0,45,0,0
41638,-100,4,2,0,55,0,0
44796,-100,4,3,0,55,0,0
51112,-76.9230769230769,4,2,0,55,0,0
56638,-66.6666666666667,4,2,0,55,0,0
57033,-500,4,2,0,55,0,0
57428,-76.9230769230769,4,2,0,55,0,0
60585,-76.9230769230769,4,2,0,50,0,0
61375,-66.6666666666667,4,2,0,55,0,0
62164,-58.8235294117647,4,2,0,60,0,0
62954,-52.6315789473684,4,3,0,65,0,0
65322,-55.5555555555556,4,3,0,50,0,0
68085,-71.4285714285714,4,3,0,50,0,0
68283,-100,4,3,0,50,0,0
69072,-55.5555555555556,4,3,0,50,0,0
69664,-40,4,3,0,50,0,0
70059,-50,4,3,0,50,0,0
71145,-66.6666666666667,4,3,0,50,0,0
71441,-76.9230769230769,4,3,0,50,0,0
72033,-55.5555555555556,4,3,0,50,0,0

[HitObjects]
121,48,586,6,0,B|145:113|191:57|233:108|233:108|284:91|274:44|274:44|320:59|322:93|322:93|353:135|399:97|399:97|436:108|436:108,1,400
322,175,1770,2,0,B|334:207|334:207|367:251|367:251|348:316|348:316|279:250|279:250|283:348|283:348|200:299|200:299|207:258|207:258|166:205|166:205|131:228|131:228|114:278|114:278|70:281|70:281|37:266|37:266|43:232|14:184,1,800
68,74,3809,2,0,B|100:91|100:91|136:75|136:75|153:91|153:91|177:104|208:76|208:76|238:94|238:94|247:102|247:102|273:82|304:106|304:106|330:91|330:91|353:121|353:121|386:104|386:104|403:119,1,366.666666666667
442,321,4928,2,0,B|362:315|362:315|353:345|353:345|304:324|304:324|300:271|300:271|357:241|357:241|395:249|395:249|359:210|359:210|382:180,1,400
148,70,6112,5,0,0:0:0:0:
148,70,6210,1,0,0:0:0:0:
148,70,6309,2,0,P|191:110|258:117,1,75.0000028610231
277,170,6507,5,0,0:0:0:0:
277,170,6605,1,0,0:0:0:0:
277,170,6704,2,0,P|234:210|167:217,1,75.0000028610231
159,274,6901,6,0,L|230:321,1,75.0000028610231
308,292,7099,1,0,0:0:0:0:
308,292,7197,2,0,L|385:253,1,75.0000028610231
356,169,7395,1,0,0:0:0:0:
356,169,7493,2,0,L|286:138,1,75.0000028610231
219,78,7691,6,0,B|249:47|249:47|295:43,1,75.0000028610231
357,93,7888,1,0,0:0:0:0:
357,93,7987,2,0,L|406:176,1,75.0000028610231
337,226,8184,1,0,0:0:0:0:
337,226,8283,2,0,L|283:280,1,75.0000028610231
208,230,8480,6,0,B|181:197|181:197|136:198,1,75.0000028610231
120,112,8678,1,0,0:0:0:0:
120,112,8776,2,0,L|191:52,1,75.0000028610231
259,99,8974,1,0,0:0:0:0:
259,99,9072,2,0,L|336:114,1,75.0000028610231
357,200,9270,6,0,B|325:235|325:235|282:228,1,75.0000028610231
237,163,9467,1,0,0:0:0:0:
237,163,9566,2,0,L|171:211,1,75.0000028610231
204,292,9763,1,0,0:0:0:0:
204,292,9862,2,0,L|324:292,1,75.0000028610231
365,316,10059,6,0,B|379:277|379:277|360:231,1,75.0000028610231
307,177,10257,1,0,0:0:0:0:
307,177,10355,2,0,L|334:96,1,75.0000028610231
411,64,10553,1,0,0:0:0:0:
411,64,10651,2,0,L|459:136,1,75.0000028610231
443,216,10849,6,0,B|410:245|410:245|368:244,1,75.0000028610231
330,168,11046,1,0,0:0:0:0:
330,168,11145,2,0,L|251:141,1,75.0000028610231
204,71,11342,1,0,0:0:0:0:
204,71,11441,2,0,L|145:132,1,75.0000028610231
165,214,11638,6,0,B|211:225|211:225|254:202,1,75.0000028610231
317,251,11835,1,0,0:0:0:0:
317,251,11934,2,0,L|284:326,1,75.0000028610231
193,330,12132,1,0,0:0:0:0:
193,330,12230,2,0,L|112:338,1,75.0000028610231
80,262,12428,5,0,0:0:0:0:
90,222,12526,1,0,0:0:0:0:
107,180,12625,1,0,0:0:0:0:
137,146,12724,1,0,0:0:0:0:
169,115,12822,1,0,0:0:0:0:
209,96,12921,1,0,0:0:0:0:
254,92,13020,1,0,0:0:0:0:
297,101,13118,1,0,0:0:0:0:
331,129,13217,2,0,L|383:196,1,75.0000028610231
48,88,13612,6,0,L|134:123,1,75.0000028610231
172,190,14007,2,0,L|86:225,1,75.0000028610231
37,284,14401,2,0,P|70:332|160:309,1,150.000005722046
233,235,15191,5,0,0:0:0:0:
233,235,15388,1,0,0:0:0:0:
233,235,15585,2,0,L|314:214,1,75.0000028610231
402,191,16046,1,0,0:0:0:0:
339,80,16375,6,0,L|289:94,1,44.999998626709
233,140,16770,1,0,0:0:0:0:
200,212,16967,1,0,0:0:0:0:
263,275,17164,5,0,0:0:0:0:
263,275,17263,1,0,0:0:0:0:
263,275,17362,1,0,0:0:0:0:
335,221,17559,1,0,0:0:0:0:
385,146,17757,1,0,0:0:0:0:
359,68,17954,5,0,0:0:0:0:
359,68,18053,1,0,0:0:0:0:
359,68,18151,1,0,0:0:0:0:
269,57,18349,2,0,L|225:80,1,44.999998626709
186,138,18743,6,0,L|226:166,6,37.5000014305115
136,199,19138,2,0,L|147:243,6,37.5000014305115
169,310,19533,5,0,0:0:0:0:
368,257,19928,2,0,L|275:232,1,75.0000028610231
232,171,20322,2,0,L|325:146,1,75.0000028610231
379,104,20717,2,0,P|344:49|251:57,1,150.000005722046
180,109,21507,1,0,0:0:0:0:
162,189,21704,1,0,0:0:0:0:
209,256,21901,1,0,0:0:0:0:
289,273,22099,1,0,0:0:0:0:
362,235,22296,1,0,0:0:0:0:
224,157,22691,5,0,0:0:0:0:
36,162,23085,2,0,P|71:118|132:113,1,112.500004291535
189,144,23480,2,0,P|224:85|296:93,1,112.500004291535
323,121,23875,2,0,P|344:58|387:34,1,112.500004291535
440,106,24270,5,0,0:0:0:0:
415,182,24467,1,0,0:0:0:0:
358,239,24664,1,0,0:0:0:0:
270,233,24862,1,0,0:0:0:0:
208,178,25059,1,0,0:0:0:0:
179,100,25257,1,0,0:0:0:0:
99,66,25454,1,0,0:0:0:0:
29,111,25651,1,0,0:0:0:0:
82,198,25849,6,0,L|189:243,1,100
232,155,26145,1,0,0:0:0:0:
232,155,26243,2,0,L|368:122,1,100
412,187,26539,1,0,0:0:0:0:
412,187,26638,2,0,L|384:299,1,100
288,297,26934,1,0,0:0:0:0:
288,297,27033,2,0,L|195:256,1,100
163,161,27329,5,0,0:0:0:0:
163,161,27428,2,0,L|282:168,1,100
340,104,27724,1,0,0:0:0:0:
340,104,27822,2,0,L|241:52,1,100
157,92,28118,1,0,0:0:0:0:
157,92,28217,2,0,L|204:190,1,100
200,182,28513,5,0,0:0:0:0:
262,234,28612,6,0,L|302:262,4,37.5000014305115
348,192,29007,6,0,L|396:80,1,100
303,45,29303,1,0,0:0:0:0:
303,45,29401,2,0,L|208:106,1,100
155,177,29697,1,0,0:0:0:0:
155,177,29796,2,0,L|254:181,1,100
309,265,30092,1,0,0:0:0:0:
309,265,30191,2,0,L|351:162,1,100
360,74,30487,5,0,0:0:0:0:
360,74,30585,2,0,L|267:111,1,100
383,225,30882,1,0,0:0:0:0:
383,225,30980,2,0,L|428:136,1,100
428,135,31276,5,0,0:0:0:0:
258,224,31375,6,0,L|278:268,4,37.5000014305115
192,254,31770,2,0,L|189:302,4,37.5000014305115
85,149,32164,6,0,L|135:57,1,100
221,108,32460,1,0,0:0:0:0:
221,108,32559,2,0,L|316:174,1,100
370,239,32855,1,0,0:0:0:0:
370,239,32954,2,0,L|411:137,1,100
419,46,33250,1,0,0:0:0:0:
419,46,33349,2,0,L|317:65,1,100
233,71,33645,5,0,0:0:0:0:
233,71,33743,2,0,L|251:178,1,100
352,222,34039,1,0,0:0:0:0:
352,222,34138,2,0,L|267:278,1,100
184,330,34434,1,0,0:0:0:0:
184,330,34533,2,0,L|115:232,1,100
81,142,34928,5,0,0:0:0:0:
251,46,35322,6,0,L|345:93,1,100
427,132,35717,1,4,0:0:0:0:
130,90,35914,2,0,L|224:137,1,100
306,176,36309,1,4,0:0:0:0:
6,151,36507,2,0,L|100:198,1,100
182,237,36902,1,4,0:0:0:0:
163,352,37099,2,0,L|259:310,1,100
342,272,37494,1,4,0:0:0:0:
225,216,37691,2,0,L|353:156,1,100
377,106,38085,6,8,L|421:124,4,37.5000014305115
164,92,38480,2,0,P|114:126|96:173,1,100
348,291,38875,2,0,P|389:265|413:222,1,100
116,247,39270,2,0,P|150:296|197:314,1,100
396,137,39566,1,0,0:0:0:0:
396,137,39664,2,0,P|361:87|314:69,1,100
288,335,40059,6,0,L|372:248,1,100,0|0,2:0|2:0,2:0:0:0:
223,48,40454,2,0,L|153:120,1,100,0|0,2:0|2:0,2:0:0:0:
399,159,40849,2,0,L|312:75,1,100,0|0,2:0|2:0,2:0:0:0:
112,224,41145,1,0,0:0:0:0:
112,224,41244,2,0,L|184:294,1,100,0|0,2:0|2:0,2:0:0:0:
238,75,41638,6,0,B|187:87|187:87|147:138,1,100
273,308,42033,2,0,B|324:296|324:296|364:245,1,100
138,198,42428,2,0,B|145:250|145:250|193:295,1,100
373,185,42724,1,0,0:0:0:0:
373,185,42823,2,0,B|366:133|366:133|318:88,1,100
66,324,43217,6,0,L|165:254,1,100
446,324,43612,6,0,L|346:254,1,100
252,30,44007,6,0,L|252:151,1,100
252,243,44401,6,4,L|252:290,4,37.5000014305115,4|4|4|4|4,3:0|3:0|3:0|3:0|3:0,3:0:0:0:
165,157,44796,1,8,1:0:0:0:
312,87,44993,1,0,0:0:0:0:
240,205,45191,5,8,1:0:0:0:
428,162,45388,1,0,0:0:0:0:
296,293,45585,5,8,1:0:0:0:
460,337,45783,1,0,0:0:0:0:
473,102,45980,5,8,1:0:0:0:
379,232,46178,1,0,0:0:0:0:
378,57,46375,5,8,1:0:0:0:
245,136,46572,1,0,0:0:0:0:
282,38,46770,5,8,1:0:0:0:
101,79,46967,1,0,0:0:0:0:
62,233,47164,5,8,1:0:0:0:
176,334,47362,1,0,0:0:0:0:
167,220,47559,5,8,1:0:0:0:
323,266,47757,1,0,0:0:0:0:
281,185,47954,5,8,1:0:0:0:
451,204,48151,1,0,0:0:0:0:
351,138,48349,5,8,1:0:0:0:
491,103,48546,1,0,0:0:0:0:
280,107,48743,5,8,1:0:0:0:
367,17,48941,1,0,0:0:0:0:
204,118,49138,5,8,1:0:0:0:
224,21,49335,1,0,0:0:0:0:
125,115,49533,5,8,1:0:0:0:
98,13,49730,1,0,0:0:0:0:
51,154,49928,5,8,1:0:0:0:
130,249,50125,1,0,0:0:0:0:
220,140,50322,6,4,L|233:102,1,33.3333333333333
267,163,50454,2,4,L|294:117,1,50
301,194,50585,2,4,L|343:165,1,50
323,239,50717,2,4,L|379:215,1,50
319,289,50849,2,4,L|382:285,1,33.3333333333333
299,328,50980,2,4,L|358:354,1,33.3333333333333
264,343,51112,2,2,P|215:350|157:289,1,129.999994049073,10|2,0:0|0:0,0:0:0:0:
157,266,51408,5,0,0:0:0:0:
168,227,51507,2,0,L|236:220,1,64.9999970245363,8|0,0:0|0:0,0:0:0:0:
320,298,51704,2,0,L|253:303,1,64.9999970245363
75,87,51901,6,0,B|153:87|122:160|239:123,1,129.999994049073,8|0,0:0|0:0,0:0:0:0:
229,147,52197,1,0,0:0:0:0:
256,166,52296,2,0,L|327:162,1,64.9999970245363,8|0,0:0|0:0,0:0:0:0:
408,244,52493,2,0,L|336:251,1,64.9999970245363
86,222,52691,6,0,P|125:296|178:316,1,129.999994049073,8|0,0:0|0:0,0:0:0:0:
202,306,52987,1,0,0:0:0:0:
230,290,53085,2,0,L|303:284,1,64.9999970245363,8|0,0:0|0:0,0:0:0:0:
386,345,53283,2,0,L|305:354,1,64.9999970245363
379,53,53480,6,0,P|376:135|337:185,1,129.999994049073,8|0,0:0|0:0,0:0:0:0:
331,203,53776,1,0,0:0:0:0:
304,225,53875,2,0,L|240:248,1,64.9999970245363,8|0,0:0|0:0,0:0:0:0:
220,333,54072,2,0,L|308:302,1,64.9999970245363
414,281,54270,6,0,P|452:211|424:148,1,129.999994049073,8|0,0:0|0:0,0:0:0:0:
422,141,54566,1,0,0:0:0:0:
383,132,54664,2,0,L|381:209,1,64.9999970245363,8|0,0:0|0:0,0:0:0:0:
302,247,54862,2,0,L|300:158,1,64.9999970245363
111,348,55059,6,0,P|63:261|78:210,1,129.999994049073,8|0,0:0|0:0,0:0:0:0:
127,133,55355,1,0,0:0:0:0:
127,133,55454,2,0,P|165:194|161:269,1,129.999994049073,8|0,0:0|0:0,0:0:0:0:
437,227,55849,6,0,P|415:166|362:119,1,129.999994049073,8|0,0:0|0:0,0:0:0:0:
262,180,56145,1,0,0:0:0:0:
262,180,56243,2,0,P|287:274|359:325,1,129.999994049073,8|0,0:0|0:0,0:0:0:0:
407,59,56638,6,0,B|351:65|351:65|301:103|301:103|261:101|261:101|237:137|237:137|200:128,1,225.000008583069,8|0,0:0|0:0,0:0:0:0:
191,142,57033,2,0,L|178:174,1,30,4|0,0:0|0:0,0:0:0:0:
170,203,57428,6,0,P|198:265|258:272,1,129.999994049073,8|0,2:0|2:0,2:0:0:0:
281,262,57724,1,0,0:0:0:0:
302,245,57822,2,0,L|365:207,1,64.9999970245363,8|0,0:0|0:0,0:0:0:0:
374,109,58020,2,0,L|313:146,1,64.9999970245363
177,313,58217,6,0,P|235:261|232:187,1,129.999994049073,8|0,0:0|0:0,0:0:0:0:
231,179,58513,1,0,0:0:0:0:
220,148,58612,2,0,L|139:138,1,64.9999970245363,8|0,0:0|0:0,0:0:0:0:
98,237,58809,2,0,L|172:250,1,64.9999970245363
396,339,59007,6,0,P|310:282|291:247,1,129.999994049073,8|0,0:0|0:0,0:0:0:0:
312,236,59303,1,0,0:0:0:0:
333,207,59401,2,0,L|284:156,1,64.9999970245363,8|0,0:0|0:0,0:0:0:0:
442,150,59599,2,0,P|475:220|474:284,1,129.999994049073,8|0,0:0|0:0,0:0:0:0:
284,268,59895,1,0,0:0:0:0:
284,268,59993,2,0,P|306:189|358:143,1,129.999994049073,8|0,0:0|0:0,0:0:0:0:
426,69,60388,1,2,3:0:0:0:
170,101,60585,6,0,L|220:172,1,64.9999970245363,4|0,0:0|0:0,0:0:0:0:
342,101,60783,2,2,L|292:172,1,64.9999970245363
126,213,60980,2,0,L|205:233,1,64.9999970245363
386,213,61178,2,0,L|307:233,1,64.9999970245363,8|0,0:0|0:0,0:0:0:0:
148,136,61375,6,0,L|92:82,1,75.0000028610231,4|0,0:0|0:0,0:0:0:0:
364,136,61572,2,2,L|420:82,1,75.0000028610231
130,233,61770,2,0,L|54:266,1,75.0000028610231
382,233,61967,2,0,L|458:266,1,75.0000028610231,8|0,0:0|0:0,0:0:0:0:
79,143,62164,6,0,L|127:41,1,85.0000016212464,4|0,0:0|0:0,0:0:0:0:
433,143,62362,2,2,L|385:41,1,85.0000016212464
79,241,62559,2,0,L|127:343,1,85.0000016212464
433,241,62757,2,0,L|385:343,1,85.0000016212464,8|0,0:0|0:0,0:0:0:0:
60,147,62954,6,0,L|-31:94,1,94.9999974632264,4|0,2:0|2:0,2:0:0:0:
452,147,63151,2,2,L|543:94,1,94.9999974632264,2|2,2:0|2:0,2:0:0:0:
60,237,63349,2,0,L|-31:290,1,94.9999974632264,0|0,2:0|2:0,2:0:0:0:
452,237,63546,2,0,L|543:290,1,94.9999974632264,8|0,2:0|2:0,2:0:0:0:
107,116,64533,5,0,0:0:0:0:
148,218,64928,1,0,0:0:0:0:
237,289,65322,2,0,P|318:289|376:150,1,179.999994506836
377,176,65618,2,0,P|316:110|217:93,1,179.999994506836
127,115,65915,2,0,L|195:208,1,89.9999972534181
223,248,66112,2,0,L|164:163,1,89.9999972534181
93,67,66309,2,0,L|162:163,1,89.9999972534181
203,49,66507,6,0,B|265:51|265:51|278:87|278:87|316:88|316:88|330:120|330:120|373:117|373:117|391:154|391:154|427:147|427:147|451:178|451:178|488:166,1,359.999989013672
163,254,67000,1,0,0:0:0:0:
317,286,67099,6,0,P|253:328|209:294,1,89.9999972534181
256,250,67296,2,0,P|304:210|357:235,1,89.9999972534181
387,245,67493,2,0,P|323:287|279:253,1,89.9999972534181
202,162,67691,1,0,0:0:0:0:
50,119,67888,6,0,L|47:243,1,89.9999972534181
86,203,68085,2,0,L|87:127,1,69.9999978637696
116,149,68283,2,0,L|115:203,1,50
205,118,68480,6,0,L|179:84,1,33.3333333333333
286,123,68579,2,0,L|318:87,1,33.3333333333333
243,184,68678,2,0,L|244:230,1,33.3333333333333
193,172,68776,6,0,L|167:138,1,33.3333333333333
295,177,68875,2,0,L|327:141,1,33.3333333333333
244,96,68974,2,0,L|245:142,1,33.3333333333333
247,316,69072,2,0,B|353:318|353:318|428:267,1,179.999994506836
389,121,69664,2,0,P|362:68|384:166,1,500
57,101,70454,6,0,L|373:162,1,300
41,174,70849,2,0,L|247:216,1,200
29,251,71145,2,0,L|198:285,1,150.000005722046
14,324,71441,2,0,L|111:342,1,64.9999970245363
258,331,71638,6,0,P|339:304|370:247,1,139.999995727539
349,168,72033,1,0,0:0:0:0:
265,165,72231,2,0,L|206:94,1,89.9999972534181
149,26,72428,2,0,L|208:97,1,89.9999972534181
