osu file format v14

[General]
AudioFilename: audio.ogg
AudioLeadIn: 0
PreviewTime: 44602
Countdown: 0
SampleSet: Soft
StackLeniency: 0.7
Mode: 0
LetterboxInBreaks: 0
WidescreenStoryboard: 1

[Editor]
DistanceSpacing: 0.9
BeatDivisor: 4
GridSize: 16
TimelineZoom: 2.2

[Metadata]
Title:Desir (TV Size)
TitleUnicode:Désir (TV Size)
Artist:GARNiDELiA
ArtistUnicode:GARNiDELiA
Creator:Aeril
Version:Normal
Source:Fate/Apocrypha
Tags:jeanne d arc type-moon a-1 pictures ending theme ed anxient anime jrock japanese rock j-rock メイリア maria
BeatmapID:4387566
BeatmapSetID:2029274

[Difficulty]
HPDrainRate:3
CircleSize:3.6
OverallDifficulty:4
ApproachRate:5
SliderMultiplier:1.1
SliderTickRate:1

[Events]
//Background and Video events
0,0,"jeanne.jpg",0,0
//Break Periods
//Storyboard Layer 0 (Background)
//Storyboard Layer 1 (Fail)
//Storyboard Layer 2 (Pass)
//Storyboard Layer 3 (Foreground)
//Storyboard Layer 4 (Overlay)
//Storyboard Sound Samples

[TimingPoints]
61,458.015267175573,4,2,0,55,1,0
7389,-100,4,2,0,40,0,0
14717,-100,4,2,0,55,0,0
22045,-100,4,2,0,60,0,0
43114,-100,4,2,0,65,0,0
45404,-100,4,2,0,70,0,0
45862,-83.3333333333333,4,2,0,85,0,1
60003,-83.3333333333333,4,2,0,85,0,1
60061,-83.3333333333333,4,2,0,85,0,1
87083,-83.3333333333333,4,2,0,85,0,0

[Colours]
Combo1 : 97,130,167
Combo2 : 245,236,165
Combo3 : 226,179,16
Combo4 : 182,205,218

[HitObjects]
44,281,61,6,0,P|100:298|143:346,1,110,0|0,3:0|0:0,0:0:0:0:
185,306,748,1,0,0:0:0:0:
185,306,977,2,0,L|200:138,1,165,2|0,0:0|3:0,0:0:0:0:
174,92,1893,1,0,3:0:0:0:
68,60,2351,2,0,P|36:79|3:85,2,55,0|0|2,0:0|0:0|0:0,0:0:0:0:
163,5,3267,1,8,0:0:0:0:
261,53,3725,6,0,P|318:57|376:90,1,110,0|0,3:0|0:0,0:0:0:0:
412,51,4412,1,0,0:0:0:0:
412,51,4641,2,0,L|431:219,1,165,2|0,0:0|3:0,0:0:0:0:
471,251,5557,1,0,3:0:0:0:
398,333,6015,2,0,P|368:322|329:313,1,55
343,261,6473,2,0,P|290:298|264:186,1,220,2|0,0:0|0:0,0:0:0:0:
446,57,9221,5,2,0:0:0:0:
368,191,11053,1,2,0:0:0:0:
211,170,12885,1,2,0:0:0:0:
115,292,14717,1,0,3:0:0:0:
79,333,14946,6,0,P|42:348|16:371,2,55
62,280,15633,2,0,P|74:225|21:61,1,220,2|0,0:0|3:0,0:0:0:0:
60,25,16778,1,0,0:0:0:0:
152,94,17236,1,0,0:0:0:0:
152,94,17465,2,0,B|222:105|191:124|270:131,1,110,2|0,0:0|0:0,0:0:0:0:
361,160,18381,6,0,B|453:129|408:103|511:79,1,165,0|0,3:0|0:0,0:0:0:0:
502,25,19297,1,2,0:0:0:0:
399,4,19755,1,0,0:0:0:0:
399,4,19984,2,0,P|366:18|336:48,1,55,0|0,0:0|3:0,0:0:0:0:
301,23,20442,1,0,0:0:0:0:
301,23,20671,2,0,L|325:258,1,220
261,332,22045,5,4,3:2:0:0:
163,383,22503,2,0,P|146:352|122:333,1,55
134,284,22961,2,0,P|99:270|70:269,1,55,2|0,0:0|0:0,0:0:0:0:
7,194,23648,1,0,3:0:0:0:
7,194,23877,2,0,P|53:178|98:131,1,110,0|0,3:0|0:0,0:0:0:0:
149,124,24564,2,0,P|156:84|128:8,1,110
82,6,25251,1,8,0:0:0:0:
38,107,25709,6,0,B|169:96|116:54|249:40,1,220,0|2,3:0|0:0,0:0:0:0:
329,112,27083,2,0,P|359:140|362:155,1,55,0|0,0:0|3:0,0:0:0:0:
341,203,27541,2,0,B|210:192|263:150|130:136,1,220,0|2,3:0|0:0,0:0:0:0:
49,207,28915,2,0,P|67:254|67:279,1,55,8|0,0:0|0:0,0:0:0:0:
54,311,29373,1,0,3:0:0:0:
269,375,30290,5,2,0:0:0:0:
351,302,30748,1,0,0:0:0:0:
452,343,31206,2,0,P|477:352|505:376,2,55,0|0|0,3:0|0:0|0:0,0:0:0:0:
432,291,31893,2,0,P|423:239|487:147,1,165,0|8,0:0|0:0,0:0:0:0:
488,39,33038,6,0,P|422:31|333:151,1,220,0|2,3:0|0:0,0:0:0:0:
230,98,34412,1,0,0:0:0:0:
209,149,34641,1,0,3:0:0:0:
209,149,34870,2,0,P|143:157|54:37,1,220,0|2,3:0|0:0,0:0:0:0:
152,1,36244,1,8,0:0:0:0:
128,108,36702,6,0,B|144:233,1,110,4|0,3:2|0:0,0:0:0:0:
111,262,37389,2,0,P|65:266|13:328,2,110,0|0|0,0:0|0:0|3:0,0:0:0:0:
133,312,38534,1,0,3:0:0:0:
230,363,38992,2,0,B|358:333|303:295|439:258,1,220,0|8,0:0|0:0,0:0:0:0:
349,180,40366,6,0,P|288:179|242:129,1,110,0|0,3:0|0:0,0:0:0:0:
209,114,41053,2,0,P|216:63|195:7,2,110,0|0|0,0:0|0:0|3:0,0:0:0:0:
170,153,42198,1,0,3:0:0:0:
22,90,42885,1,0,0:0:0:0:
22,90,43114,2,0,P|82:117|108:276,1,220,2|0,0:0|0:0,0:0:0:0:
437,81,45404,5,8,3:0:0:0:
498,182,45862,2,0,P|450:208|421:237,1,65.9999979858399,4|0,1:2|0:0,0:0:0:0:
382,208,46320,2,0,P|421:255|428:344,1,131.99999597168,0|0,3:0|3:0,0:0:0:0:
322,362,47236,5,0,1:0:0:0:
322,362,47465,2,0,P|293:300|304:218,1,131.99999597168,2|0,0:0|0:0,0:0:0:0:
242,212,48152,1,0,3:0:0:0:
195,248,48381,2,0,B|123:265|169:301|57:322,1,131.99999597168,0|0,1:0|0:0,0:0:0:0:
6,226,49297,1,2,0:0:0:0:
40,177,49526,6,0,L|11:39,1,131.99999597168,4|0,1:2|3:0,0:0:0:0:
49,0,50213,1,0,1:0:0:0:
206,83,50900,2,0,L|273:69,1,65.9999979858399,0|2,1:0|0:0,0:0:0:0:
307,23,51358,1,4,1:2:0:0:
307,23,51587,2,0,B|382:52|333:78|421:109,1,131.99999597168,0|0,0:0|1:0,0:0:0:0:
463,84,52274,5,0,3:0:0:0:
489,199,52732,1,4,1:2:0:0:
433,220,52961,1,0,1:0:0:0:
397,268,53190,2,0,P|362:231|336:219,1,65.9999979858399,4|0,1:2|0:0,0:0:0:0:
290,231,53648,2,0,P|291:163|256:100,1,131.99999597168,0|0,3:0|3:0,0:0:0:0:
198,13,54564,5,0,1:0:0:0:
198,13,54793,2,0,P|151:42|119:134,1,131.99999597168,2|0,0:0|0:0,0:0:0:0:
82,156,55480,1,0,3:0:0:0:
23,165,55709,2,0,L|50:301,1,131.99999597168,0|0,1:0|0:0,0:0:0:0:
144,364,56625,1,2,0:0:0:0:
199,341,56854,6,0,P|184:269|215:208,1,131.99999597168,4|0,1:2|3:0,0:0:0:0:
171,169,57541,1,0,1:0:0:0:
237,72,57999,1,0,0:0:0:0:
237,72,58228,2,0,P|279:78|336:156,1,131.99999597168,0|4,1:0|1:2,0:0:0:0:
412,233,59144,1,0,3:0:0:0:
318,306,59602,5,0,3:0:0:0:
408,383,60061,2,0,P|426:365|484:348,1,65.9999979858399,4|0,1:2|1:0,0:0:0:0:
495,299,60519,2,0,L|474:143,1,131.99999597168,4|0,1:2|3:0,0:0:0:0:
384,241,61435,2,0,P|341:252|306:275,1,65.9999979858399,0|0,3:0|0:0,0:0:0:0:
280,221,61893,2,0,L|301:65,1,131.99999597168,0|4,1:0|1:2,0:0:0:0:
183,55,62809,1,0,3:0:0:0:
158,170,63267,6,0,P|115:181|83:178,1,65.9999979858399,0|0,3:0|0:0,0:0:0:0:
42,210,63725,2,0,P|2:166|1:91,1,131.99999597168,0|4,1:0|1:2,0:0:0:0:
106,41,64641,1,0,3:0:0:0:
106,41,64870,2,0,B|189:59|156:84|231:98,1,131.99999597168,0|0,1:0|0:0,0:0:0:0:
341,111,65786,1,2,0:0:0:0:
370,59,66015,2,0,P|406:32|511:9,1,131.99999597168,4|0,1:2|3:0,0:0:0:0:
479,126,66931,6,0,P|449:156|450:194,1,65.9999979858399,0|0,3:0|0:0,0:0:0:0:
490,217,67389,1,4,1:2:0:0:
379,260,67847,2,0,P|403:303|409:402,1,131.99999597168,4|0,1:2|3:0,0:0:0:0:
298,351,68763,2,0,P|269:302|268:203,1,131.99999597168,0|0,3:0|1:0,0:0:0:0:
284,175,69450,1,2,0:0:0:0:
284,175,69679,2,0,P|235:189|145:179,1,131.99999597168,4|0,1:2|3:0,0:0:0:0:
103,75,70595,6,0,P|64:110|51:149,1,65.9999979858399,0|0,3:0|0:0,0:0:0:0:
16,163,71053,1,0,1:0:0:0:
38,218,71282,1,2,0:0:0:0:
16,273,71511,1,4,1:2:0:0:
107,362,71969,1,0,3:0:0:0:
151,322,72198,2,0,L|297:361,1,131.99999597168,0|0,1:0|0:0,0:0:0:0:
335,374,72885,1,0,1:0:0:0:
397,272,73343,6,0,B|458:258|428:240|506:218,2,98.9999969787598,4|0|0,1:2|1:0|1:0,0:0:0:0:
337,268,74259,1,0,3:0:0:0:
246,191,74717,2,0,L|237:111,1,65.9999979858399,4|0,1:2|1:0,0:0:0:0:
194,85,75175,2,0,P|259:75|321:29,1,131.99999597168,4|0,1:2|3:0,0:0:0:0:
430,19,76091,2,0,L|415:95,1,65.9999979858399,0|0,3:0|0:0,0:0:0:0:
375,125,76549,1,0,1:0:0:0:
468,198,77007,2,0,P|411:249|383:324,1,131.99999597168,4|0,1:2|3:0,0:0:0:0:
295,373,77923,5,0,3:0:0:0:
249,335,78152,1,0,0:0:0:0:
192,352,78381,2,0,L|107:328,1,65.9999979858399,0|2,1:0|0:0,0:0:0:0:
70,345,78839,2,0,P|62:280|136:241,1,131.99999597168,4|0,1:2|3:0,0:0:0:0:
152,200,79526,2,0,P|202:228|303:129,1,197.99999395752,0|0,1:0|1:0,0:0:0:0:
223,65,80671,6,0,L|231:-18,2,65.9999979858399,4|0|0,1:2|1:0|1:0,0:0:0:0:
108,33,81587,1,0,1:0:0:0:
12,103,82045,1,8,3:0:0:0:
60,137,82274,1,4,3:0:0:0:
41,193,82503,6,0,P|67:268|71:348,1,131.99999597168,4|0,1:2|3:0,0:0:0:0:
114,362,83190,2,0,P|152:348|257:342,1,131.99999597168,0|0,1:0|0:0,0:0:0:0:
295,367,83877,1,0,1:0:0:0:
313,249,84335,1,2,3:2:0:0:
231,162,84793,5,0,1:0:0:0:
261,110,85022,1,0,1:0:0:0:
319,121,85251,2,0,L|393:95,1,65.9999979858399,0|0,1:0|1:0,0:0:0:0:
410,47,85709,2,0,L|486:67,1,65.9999979858399,0|0,1:0|1:0,0:0:0:0:
473,63,87083,5,2,0:0:0:0:
