osu file format v14

[General]
AudioFilename: audio.ogg
AudioLeadIn: 0
PreviewTime: 44602
Countdown: 0
SampleSet: Soft
StackLeniency: 0.8
Mode: 0
LetterboxInBreaks: 0
WidescreenStoryboard: 0

[Editor]
DistanceSpacing: 0.2
BeatDivisor: 8
GridSize: 16
TimelineZoom: 1.4

[Metadata]
Title:Desir (TV Size)
TitleUnicode:Désir (TV Size)
Artist:GARNiDELiA
ArtistUnicode:GARNiDELiA
Creator:Aeril
Version:"La Pucelle"
Source:Fate/Apocrypha
Tags:jeanne d arc type-moon a-1 pictures ending theme ed anxient anime jrock japanese rock j-rock メイリア maria
BeatmapID:4228540
BeatmapSetID:2029274

[Difficulty]
HPDrainRate:5
CircleSize:5
OverallDifficulty:8.7
ApproachRate:9.2
SliderMultiplier:1.4
SliderTickRate:1

[Events]
//Background and Video events
0,0,"jeanne.jpg",0,0
//Break Periods
//Storyboard Layer 0 (Background)
//Storyboard Layer 1 (Fail)
//Storyboard Layer 2 (Pass)
//Storyboard Layer 3 (Foreground)
//Storyboard Layer 4 (Overlay)
//Storyboard Sound Samples

[TimingPoints]
61,458.015267175573,4,2,0,55,1,0
7389,-200,4,2,0,40,0,0
14717,-100,4,2,0,55,0,0
22045,-100,4,2,0,60,0,0
43114,-76.9230769230769,4,2,0,65,0,0
45404,-100,4,2,0,70,0,0
45862,-66.6666666666667,4,2,0,85,0,1
86053,-66.6666666666667,4,2,0,85,0,0

[Colours]
Combo1 : 218,218,218
Combo2 : 245,236,165
Combo3 : 226,179,16
Combo4 : 182,205,218
Combo5 : 97,130,167

[HitObjects]
391,255,61,38,0,P|358:307|344:406,1,140,0|0,3:0|0:0,0:0:0:0:
445,320,748,1,0,0:0:0:0:
327,190,977,2,0,P|360:182|505:58,1,210,2|0,0:0|3:0,0:0:0:0:
512,2,1893,1,0,3:0:0:0:
512,2,2351,6,0,P|474:4|427:37,1,70
373,138,2809,2,0,P|373:82|352:-33,1,140,2|8,0:0|0:0,0:0:0:0:
220,94,3496,1,0,0:0:0:0:
220,94,3610,1,0,0:0:0:0:
220,94,3725,2,0,P|273:96|302:109,1,70,0|0,3:0|0:0,0:0:0:0:
373,138,4183,53,0,0:0:0:0:
139,122,4412,1,0,0:0:0:0:
266,312,4641,2,0,P|271:242|249:177,1,140,2|0,0:0|0:0,0:0:0:0:
191,230,5328,5,0,3:0:0:0:
186,257,5442,1,0,3:0:0:0:
192,284,5557,1,0,3:0:0:0:
205,365,5786,1,0,0:0:0:0:
205,365,5900,2,0,P|161:373|130:392,1,70,2|0,0:0|0:0,0:0:0:0:
0,259,6244,1,0,0:0:0:0:
0,259,6473,2,0,P|48:258|64:353,1,140,2|8,0:0|0:0,0:0:0:0:
46,110,7160,54,0,L|37:35,1,70,2|0,0:0|0:0,0:0:0:0:
37,40,9221,6,0,P|81:47|168:98,1,140,2|0,0:0|0:0,0:0:0:0:
491,133,11053,54,0,P|422:143|362:178,1,140,2|0,0:0|0:0,0:0:0:0:
354,188,12083,1,0,0:0:0:0:
222,34,12312,1,0,0:0:0:0:
226,25,12426,1,0,0:0:0:0:
268,96,12885,6,0,B|301:233|215:195|255:341,1,245,2|0,0:0|0:0,0:0:0:0:
348,111,14717,1,0,3:0:0:0:
354,81,14831,1,0,0:0:0:0:
339,53,14946,2,0,P|379:51|425:26,1,70
268,96,15404,53,0,0:0:0:0:
480,166,15633,2,0,P|417:182|343:255,1,140,2|0,0:0|0:0,0:0:0:0:
151,303,16549,5,0,3:0:0:0:
82,334,16778,1,0,0:0:0:0:
25,286,17007,1,0,0:0:0:0:
60,87,17236,1,0,0:0:0:0:
60,87,17351,1,0,0:0:0:0:
60,87,17465,2,0,P|91:164|95:251,1,140,2|0,0:0|0:0,0:0:0:0:
215,384,18152,53,0,0:0:0:0:
215,384,18267,1,0,0:0:0:0:
215,384,18381,2,0,L|234:245,1,140,0|0,3:0|0:0,0:0:0:0:
251,25,19182,1,0,0:0:0:0:
262,18,19297,2,0,B|228:18|228:18|178:60,1,70,2|0,0:0|0:0,0:0:0:0:
268,125,19755,1,0,0:0:0:0:
268,125,20213,2,0,B|386:144|331:191|478:211,1,210,0|0,3:0|0:0,0:0:0:0:
512,145,21129,5,2,0:0:0:0:
280,223,21473,1,0,0:0:0:0:
464,384,21816,1,2,0:0:0:0:
451,364,21893,1,2,0:0:0:0:
455,333,21969,1,2,0:0:0:0:
430,295,22045,2,0,P|346:240|301:380,1,280,4|2,3:2|0:0,0:0:0:0:
331,345,23419,1,0,0:0:0:0:
208,183,23648,53,0,3:0:0:0:
3,249,23877,2,0,P|71:281|111:365,1,140,0|0,3:0|0:0,0:0:0:0:
200,384,24564,2,0,L|169:88,1,280
210,19,25595,1,0,0:0:0:0:
224,27,25709,2,0,P|211:103|20:103,2,280,0|2|0,3:0|0:0|3:0,0:0:0:0:
117,52,28457,5,0,0:0:0:0:
123,86,28571,1,2,0:0:0:0:
331,133,28801,1,0,0:0:0:0:
328,144,28915,1,8,0:0:0:0:
259,309,29144,1,0,0:0:0:0:
259,309,29259,1,0,0:0:0:0:
259,309,29373,2,0,B|137:325|194:367|48:375,1,210,0|0,3:0|0:0,0:0:0:0:
195,227,30290,1,2,0:0:0:0:
195,227,30748,53,0,0:0:0:0:
330,368,30977,1,0,3:0:0:0:
422,333,31206,2,0,P|462:322|507:330,2,70,0|0|0,3:0|0:0|0:0,0:0:0:0:
351,291,31893,1,0,0:0:0:0:
413,51,32465,6,0,L|403:3,1,35,0|8,0:0|0:0,0:0:0:0:
496,17,32809,1,2,0:0:0:0:
496,17,32923,1,2,0:0:0:0:
496,17,33038,2,0,P|412:31|417:197,1,280,0|2,3:0|0:0,0:0:0:0:
427,281,34412,53,0,0:0:0:0:
294,176,34641,1,0,3:0:0:0:
134,220,34870,1,0,3:0:0:0:
56,168,35213,5,2,0:0:0:0:
40,165,35327,1,0,0:0:0:0:
186,122,35557,1,0,3:0:0:0:
162,268,35786,2,0,P|139:315|139:360,1,70,2|0,0:0|0:0,0:0:0:0:
60,384,36129,1,0,0:0:0:0:
60,384,36244,2,0,L|40:271,1,105,8|0,0:0|0:0,0:0:0:0:
63,0,36702,54,0,L|102:227,1,210,4|0,3:2|0:0,0:0:0:0:
98,206,37847,1,0,0:0:0:0:
227,94,38305,1,0,3:0:0:0:
0,65,38534,2,0,B|90:91|37:111|140:136,2,140,0|0|2,3:0|0:0|0:0,0:0:0:0:
139,43,39679,1,0,0:0:0:0:
227,288,39908,5,8,0:0:0:0:
227,288,40366,2,0,P|303:276|363:313,1,140,0|0,3:0|0:0,0:0:0:0:
435,358,41053,1,0,0:0:0:0:
435,358,41167,1,0,0:0:0:0:
435,358,41282,1,2,0:0:0:0:
484,288,41511,2,0,P|472:245|483:165,1,105
470,116,41969,1,0,3:0:0:0:
502,78,42083,1,0,3:0:0:0:
495,40,42198,2,0,P|420:59|403:122,1,140,0|0,3:0|0:0,0:0:0:0:
84,126,42885,53,0,0:0:0:0:
20,83,43114,2,0,P|9:142|103:51,1,363.999983337403,2|0,0:0|0:0,0:0:0:0:
256,190,45404,6,0,B|271:248|242:235|258:297,1,105,8|0,3:0|0:0,0:0:0:0:
330,142,45862,22,0,L|162:164,1,157.500006008148,4|0,1:2|1:1,0:0:0:0:
130,192,46320,1,0,3:3:0:0:
33,148,46549,1,0,1:1:0:0:
288,370,46778,5,0,3:3:0:0:
208,353,46893,1,0,1:0:0:0:
206,42,47122,1,0,0:0:0:0:
206,42,47236,2,0,P|266:42|324:71,1,105.000004005432,0|0,3:3|0:0,0:0:0:0:
434,24,47541,53,2,0:0:0:0:
385,35,47618,1,2,0:0:0:0:
372,24,47694,2,0,P|316:37|188:123,1,210.000008010865,4|0,1:2|3:3,0:0:0:0:
479,257,48381,1,0,1:1:0:0:
479,257,48496,1,0,3:0:0:0:
479,257,48610,2,0,P|469:226|472:204,1,52.5000020027161,0|0,3:3|1:0,0:0:0:0:
500,327,48954,5,0,0:0:0:0:
414,164,49068,2,0,P|440:221|411:331,1,157.500006008148,0|0,3:3|3:0,0:0:0:0:
481,17,49526,53,4,1:2:0:0:
422,61,49641,2,0,P|433:89|453:62,1,52.5000020027161,0|0,3:0|0:0,0:0:0:0:
339,191,49870,5,0,1:1:0:0:
449,84,49984,2,0,P|389:89|345:118,2,105.000004005432,0|0|0,3:3|1:1|3:3,0:0:0:0:
488,111,50557,1,0,1:0:0:0:
49,248,50900,2,0,P|115:274|152:314,1,105.000004005432,0|0,3:3|0:0,0:0:0:0:
206,357,51206,53,0,1:0:0:0:
232,317,51282,1,0,1:0:0:0:
228,301,51358,2,0,B|101:309|151:343|20:362,1,210.000008010865,4|0,1:2|3:3,0:0:0:0:
50,219,52045,5,0,1:1:0:0:
489,287,52274,1,0,3:2:0:0:
493,328,52389,1,0,1:0:0:0:
296,351,52618,1,0,3:0:0:0:
304,264,52733,1,4,3:2:0:0:
349,15,52961,53,0,1:0:0:0:
374,60,53038,1,0,1:0:0:0:
369,86,53114,1,0,1:0:0:0:
377,95,53190,2,0,B|410:192|364:153|393:279,1,157.500006008148,4|0,1:2|1:1,0:0:0:0:
487,205,53648,6,0,B|499:154|499:154|470:101,1,105.000004005432,0|0,3:3|1:1,0:0:0:0:
368,277,54106,1,0,3:3:0:0:
300,231,54221,2,0,B|172:254,1,105.000004005432,0|0,1:0|0:0,0:0:0:0:
9,17,54564,54,0,P|89:17|91:128,1,210.000008010865,0|4,3:3|1:2,0:0:0:0:
172,319,55251,1,0,3:0:0:0:
172,319,55366,1,0,1:1:0:0:
172,319,55480,2,0,P|208:320|287:357,1,105.000004005432,0|0,3:3|1:1,0:0:0:0:
0,238,55938,5,0,3:3:0:0:
48,292,56053,2,0,P|105:266|112:192,1,105.000004005432,0|0,1:0|0:0,0:0:0:0:
119,229,56396,1,0,3:3:0:0:
446,79,56625,53,2,0:0:0:0:
403,103,56702,1,2,0:0:0:0:
376,88,56778,1,2,0:0:0:0:
358,96,56854,2,0,L|176:119,1,157.500006008148,4|0,1:2|1:1,0:0:0:0:
156,84,57312,1,0,3:3:0:0:
294,2,57541,1,0,1:1:0:0:
238,300,57770,5,0,3:3:0:0:
256,375,57885,1,0,1:0:0:0:
377,338,58114,1,0,3:0:0:0:
377,338,58228,2,0,P|423:323|496:323,1,105.000004005432,0|0,3:3|0:0,0:0:0:0:
504,223,58572,53,0,1:0:0:0:
476,187,58686,2,0,B|375:177|427:156|298:143,1,157.500006008148,4|0,1:2|1:1,0:0:0:0:
465,93,59144,2,0,B|422:64|422:64|338:76,2,105.000004005432,0|0|0,3:3|1:1|3:3,0:0:0:0:
499,67,59717,1,0,1:0:0:0:
464,0,59831,1,0,3:0:0:0:
384,293,60061,1,4,3:2:0:0:
69,48,60290,5,0,1:0:0:0:
45,91,60367,1,0,1:0:0:0:
60,118,60443,1,0,1:0:0:0:
53,137,60519,2,0,P|92:208|102:362,1,210.000008010865,4|0,1:2|3:3,0:0:0:0:
176,99,61206,1,0,1:1:0:0:
176,99,61320,1,0,3:0:0:0:
176,99,61435,2,0,P|196:48|250:11,1,105.000004005432,0|0,3:3|0:0,0:0:0:0:
396,351,61893,54,0,B|348:371|348:371|273:351,1,105.000004005432,0|0,3:3|0:0,0:0:0:0:
191,292,62198,1,2,0:0:0:0:
227,265,62274,1,2,0:0:0:0:
241,272,62351,2,0,L|458:260,1,210.000008010865,4|0,1:2|3:3,0:0:0:0:
491,19,63038,2,0,P|464:72|472:126,1,105.000004005432,0|0,1:1|3:3,0:0:0:0:
413,188,63381,2,0,L|300:216,1,105.000004005432,0|0,1:0|0:0,0:0:0:0:
311,213,63725,1,0,3:3:0:0:
0,0,63954,5,0,3:0:0:0:
59,56,64068,1,0,3:0:0:0:
59,56,64183,2,0,B|158:73|98:110|225:127,1,157.500006008148,4|0,1:2|1:1,0:0:0:0:
146,0,64641,1,0,3:3:0:0:
146,0,64870,2,0,L|162:216,1,210.000008010865,0|0,1:1|0:0,0:0:0:0:
8,276,65557,2,0,B|47:315|47:315|45:366,1,105.000004005432,0|0,3:3|0:0,0:0:0:0:
132,348,65900,53,0,1:0:0:0:
156,303,66015,2,0,B|256:286|212:255|313:242,1,157.500006008148,4|0,1:2|1:1,0:0:0:0:
300,333,66473,2,0,L|290:393,2,52.5000020027161,0|0|0,3:3|0:0|1:1,0:0:0:0:
333,61,66931,1,0,3:2:0:0:
401,121,67045,2,0,B|427:74|427:74|413:12,1,105.000004005432,0|0,1:0|0:0,0:0:0:0:
512,269,67389,6,0,P|427:305|423:389,1,157.500006008148,4|0,3:2|1:0,0:0:0:0:
474,175,67847,2,0,L|237:146,1,210.000008010865,4|0,1:2|3:3,0:0:0:0:
41,39,68534,1,0,1:1:0:0:
41,39,68648,1,0,3:0:0:0:
41,39,68763,2,0,P|75:50|110:81,1,52.5000020027161,0|0,3:3|1:0,0:0:0:0:
0,108,69107,53,0,0:0:0:0:
201,68,69221,2,0,P|140:84|61:165,1,157.500006008148,0|0,3:3|0:0,0:0:0:0:
65,291,69679,5,4,1:2:0:0:
65,291,69793,2,0,L|56:239,1,52.5000020027161
176,175,70022,53,0,1:1:0:0:
56,239,70137,2,0,P|111:249|161:306,2,105.000004005432,0|0|0,3:3|1:1|3:3,0:0:0:0:
322,159,70824,1,0,3:0:0:0:
322,159,70938,1,0,3:0:0:0:
322,159,71053,2,0,L|343:271,1,105.000004005432,0|0,3:3|0:0,0:0:0:0:
445,318,71358,5,2,0:0:0:0:
427,363,71435,1,2,0:2:0:0:
444,379,71511,2,0,B|483:290|434:306|484:203,1,157.500006008148,4|0,1:2|1:1,0:0:0:0:
449,181,71969,1,0,3:3:0:0:
490,42,72198,1,0,1:1:0:0:
248,14,72427,53,0,3:3:0:0:
317,61,72541,1,0,1:0:0:0:
226,198,72770,1,0,3:0:0:0:
226,198,72885,2,0,P|162:205|123:235,1,105.000004005432,0|0,3:3|0:0,0:0:0:0:
156,268,73228,1,0,1:0:0:0:
141,349,73343,5,4,1:2:0:0:
238,298,73457,2,0,P|288:311|348:374,1,105.000004005432,0|0,3:0|1:1,0:0:0:0:
388,201,73801,2,0,P|388:180|376:148,1,52.5000020027161,0|0,3:3|0:0,0:0:0:0:
407,290,74030,1,0,1:0:0:0:
84,16,74259,1,0,3:3:0:0:
84,16,74373,1,0,1:0:0:0:
84,16,74488,2,0,B|31:21|31:21|-10:75,1,105.000004005432,0|4,3:0|3:2,0:0:0:0:
0,338,74946,53,0,1:0:0:0:
45,322,75022,1,0,1:0:0:0:
72,347,75099,1,0,1:0:0:0:
88,335,75175,2,0,P|157:264|104:152,1,210.000008010865,4|0,1:2|3:3,0:0:0:0:
294,0,75862,2,0,L|312:117,1,105.000004005432,0|0,1:1|3:3,0:0:0:0:
275,184,76206,2,0,P|254:238|275:317,1,105.000004005432,0|0,1:0|0:0,0:0:0:0:
406,382,76549,5,0,3:3:0:0:
512,12,76778,1,2,0:0:0:0:
477,36,76854,1,2,0:0:0:0:
452,26,76931,1,2,0:0:0:0:
438,35,77007,2,0,B|349:48|396:75|279:91,1,157.500006008148,4|0,1:2|1:1,0:0:0:0:
383,150,77465,2,0,B|425:179|425:179|496:163,2,105.000004005432,0|0|0,3:3|1:1|3:3,0:0:0:0:
351,190,78038,1,0,1:0:0:0:
415,259,78152,1,0,3:0:0:0:
293,108,78381,53,0,3:3:0:0:
270,381,78610,1,0,0:0:0:0:
270,381,78725,1,0,3:0:0:0:
270,381,78839,2,0,P|273:290|217:154,1,210.000008010865,4|0,1:2|3:3,0:0:0:0:
144,34,79526,1,0,1:1:0:0:
95,317,79755,5,0,3:3:0:0:
171,343,79870,2,0,B|180:293|180:293|135:236,1,105.000004005432,0|0,1:0|0:0,0:0:0:0:
17,204,80213,2,0,L|203:229,1,157.500006008148,0|0,3:3|1:0,0:0:0:0:
253,130,80671,54,0,B|242:73|273:88|254:8,2,105.000004005432,4|0|0,1:2|1:0|1:0,0:0:0:0:
177,47,81244,1,0,3:0:0:0:
427,212,81473,5,0,3:0:0:0:
442,221,81530,1,0,3:0:0:0:
469,208,81587,1,0,1:2:0:0:
347,162,81702,2,0,B|324:222|307:195|284:266,1,105.000004005432,0|0,3:2|3:0,0:0:0:0:
118,318,82045,53,8,3:0:0:0:
29,297,82160,1,8,3:0:0:0:
91,217,82274,1,4,3:0:0:0:
169,242,82389,1,4,3:0:0:0:
169,242,82503,2,0,B|192:302|209:275|232:346,1,105.000004005432,4|0,1:2|0:0,0:0:0:0:
255,369,82847,5,0,1:0:0:0:
310,302,82961,2,0,P|360:287|444:292,2,105.000004005432,0|0|0,3:0|1:0|3:0,0:0:0:0:
116,302,83534,2,0,P|41:315|21:404,1,157.500006008148,0|4,1:0|3:2,0:0:0:0:
53,56,84106,1,0,0:0:0:0:
53,56,84221,1,0,0:0:0:0:
53,56,84335,1,2,3:2:0:0:
119,99,84564,54,0,L|198:113,1,52.5000020027161,0|0,1:2|0:0,0:0:0:0:
335,136,84793,2,0,L|256:150,1,52.5000020027161,0|0,1:0|0:0,0:0:0:0:
64,189,85022,6,0,P|59:168|36:136,1,52.5000020027161,0|0,1:0|0:0,0:0:0:0:
272,12,85251,2,0,P|259:37|254:79,1,52.5000020027161,0|0,1:0|0:0,0:0:0:0:
314,296,85480,2,0,P|328:281|357:266,1,52.5000020027161,0|0,1:0|0:0,0:0:0:0:
474,46,85709,53,0,1:0:0:0:
386,182,85824,1,0,1:0:0:0:
451,307,85938,1,0,1:0:0:0:
410,370,86053,5,0,1:0:0:0:
467,324,86969,37,2,0:0:0:0:
479,341,87026,1,2,0:0:0:0:
480,372,87083,1,2,0:0:0:0:
