osu file format v14

[General]
AudioFilename: audio.mp3
AudioLeadIn: 0
PreviewTime: 55112
Countdown: 0
SampleSet: Normal
StackLeniency: 0.7
Mode: 0
LetterboxInBreaks: 0
WidescreenStoryboard: 1

[Editor]
DistanceSpacing: 0.2
BeatDivisor: 4
GridSize: 4
TimelineZoom: 2.4

[Metadata]
Title:Burning Soul
TitleUnicode:Burning Soul
Artist:GARNiDELiA
ArtistUnicode:GARNiDELiA
Creator:Meyrink
Version:cRyo's Supernova
Source:Soulworker
Tags:Violet Cry IamKwan Rizia kawaiwkyik Gaia cRyo[iceeicee] Kyle73 Little cloudsplash16 Dubturt Akitoshi Corinn -laura- Soul Worker your destiny awaits Main Theme Song SW Game Japanese pop メイリア maria ソウルワーカー
BeatmapID:1959582
BeatmapSetID:928947

[Difficulty]
HPDrainRate:6
CircleSize:4.2
OverallDifficulty:8
ApproachRate:9.2
SliderMultiplier:1.8
SliderTickRate:1

[Events]
//Background and Video events
0,0,"9.jpg",0,0
//Break Periods
//Storyboard Layer 0 (Background)
//Storyboard Layer 1 (Fail)
//Storyboard Layer 2 (Pass)
//Storyboard Layer 3 (Foreground)
//Storyboard Layer 4 (Overlay)
//Storyboard Sound Samples

[TimingPoints]
855,342.857142857143,4,1,1,30,1,0
1455,-100,4,1,1,40,0,0
1712,-100,4,1,1,30,0,0
3083,-125,4,1,1,30,0,0
3597,-66.6666666666667,4,1,1,30,0,0
3697,-83.3333333333333,4,1,1,30,0,0
4112,-76.9230769230769,4,1,1,30,0,0
6340,-83.3333333333333,4,1,1,30,0,0
6683,-166.666666666667,4,1,1,50,0,0
7712,-66.6666666666667,4,1,1,60,0,0
7812,-133.333333333333,4,1,1,60,0,0
9426,-133.333333333333,4,1,1,70,0,0
9769,-133.333333333333,4,1,1,80,0,0
11483,-133.333333333333,4,1,1,70,0,0
12169,-66.6666666666667,4,1,1,70,0,0
13026,-133.333333333333,4,1,1,70,0,0
13126,-66.6666666666667,4,1,1,70,0,0
13540,-66.6666666666667,4,1,1,70,0,0
14569,-133.333333333333,4,1,1,70,0,0
14669,-66.6666666666667,4,1,1,70,0,0
16112,-50,4,1,1,70,0,0
16626,-58.8235294117647,4,1,1,70,0,0
17312,-133.333333333333,4,1,1,70,0,0
17412,-66.6666666666667,4,1,1,70,0,0
17655,-52.6315789473684,4,1,1,70,0,0
18169,-66.6666666666667,4,1,1,70,0,0
18512,-133.333333333333,4,1,1,70,0,0
18612,-66.6666666666667,4,1,1,70,0,0
20226,-66.6666666666667,4,1,1,70,0,0
20326,-66.6666666666667,4,1,1,70,0,0
21597,-50,4,1,1,70,0,0
22797,-133.333333333333,4,1,1,55,0,0
32569,-133.333333333333,4,1,1,60,0,0
33597,-66.6666666666667,4,1,1,70,0,0
33769,-83.3333333333333,4,1,1,70,0,0
34455,-166.666666666667,4,1,1,70,0,0
34555,-83.3333333333333,4,1,1,70,0,0
37197,-166.666666666667,4,1,1,70,0,0
37297,-83.3333333333333,4,1,1,70,0,0
42340,-55.5555555555556,4,1,1,70,0,0
42440,-83.3333333333333,4,1,1,70,0,0
44226,-133.333333333333,4,1,1,70,0,0
44326,-83.3333333333333,4,1,1,70,0,0
45426,-133.333333333333,4,1,1,70,0,0
45526,-83.3333333333333,4,1,1,70,0,0
46969,-133.333333333333,4,1,1,70,0,0
47069,-83.3333333333333,4,1,1,70,0,0
48169,-133.333333333333,4,1,1,70,0,0
48269,-66.6666666666667,4,1,1,70,0,0
48683,-83.3333333333333,4,1,1,70,0,0
49197,-100,4,1,1,70,0,0
49712,-133.333333333333,4,1,1,70,0,0
49983,-83.3333333333333,4,1,1,70,0,0
51426,-74.0740740740741,4,1,1,70,0,0
51526,-83.3333333333333,4,1,1,70,0,0
51940,-133.333333333333,4,1,1,70,0,0
52969,-76.9230769230769,4,1,1,70,0,0
53312,-66.6666666666667,4,1,1,70,0,0
54169,-58.8235294117647,4,1,1,70,0,0
54512,-50,4,1,1,70,0,0
55197,-133.333333333333,4,1,1,70,0,0
55712,-66.6666666666667,4,1,1,70,0,0
64455,-58.8235294117647,4,1,1,70,0,0
65140,-66.6666666666667,4,1,1,70,0,0
65240,-66.6666666666667,4,1,1,70,0,0
67026,-58.8235294117647,4,1,1,70,0,0
67126,-66.6666666666667,4,1,1,70,0,0
70626,-58.8235294117647,4,1,1,70,0,0
70969,-58.8235294117647,4,1,1,70,0,0
71312,-43.4782608695652,4,1,1,90,0,0
71412,-58.8235294117647,4,1,1,90,0,0
71997,-100,4,1,1,70,0,0
77140,-100,4,2,1,5,0,0
77240,-100,4,1,1,70,0,0
77312,-100,4,1,1,70,0,0
77655,-133.333333333333,4,1,1,70,0,0
77997,-66.6666666666667,4,1,1,70,0,0
78855,-133.333333333333,4,1,1,70,0,0
78955,-66.6666666666667,4,1,1,70,0,0
80397,-66.6666666666667,4,1,1,70,0,0
80740,-40,4,1,1,70,0,0
80840,-100,4,1,1,70,0,0
81426,-40,4,1,1,70,0,0
81597,-45.4545454545455,4,1,1,70,0,0
81940,-30.3030303030303,4,1,1,70,0,0
82455,-40,4,1,1,70,0,0
82555,-66.6666666666667,4,1,1,70,0,0
82797,-100,4,1,1,70,0,0
83140,-133.333333333333,4,1,1,70,0,0
83483,-58.8235294117647,4,1,1,70,0,0
83997,-66.6666666666667,4,1,1,70,0,0
84340,-133.333333333333,4,1,1,70,0,0
84440,-66.6666666666667,4,1,1,70,0,0
86055,-71.4285714285714,4,1,1,70,0,0
86155,-66.6666666666667,4,1,1,70,0,0
86569,-71.4285714285714,4,1,1,70,0,0
86669,-66.6666666666667,4,1,1,70,0,0
87083,-71.4285714285714,4,1,1,70,0,0
87183,-66.6666666666667,4,1,1,70,0,0
87426,-50,4,1,1,70,0,0
88626,-100,4,2,1,60,0,0
89998,-100,4,2,1,50,0,0
91369,-100,4,2,1,40,0,0
92741,-100,4,2,1,30,0,0
94112,-100,4,2,1,20,0,0
95484,-100,4,2,1,5,0,0

[Colours]
Combo1 : 81,168,255
Combo2 : 254,211,122
Combo3 : 124,196,100
Combo4 : 255,149,98

[HitObjects]
256,192,169,12,0,854,0:0:0:0:
55,85,1112,5,0,1:0:0:0:
31,95,1197,2,0,P|55:95|76:104,1,45,0|0,1:0|2:0,1:0:0:0:
123,200,1369,1,0,1:0:0:0:
139,219,1455,2,0,P|140:192|128:171,2,45,0|0|0,2:0|2:0|2:0,2:0:0:0:
104,308,1712,1,0,0:0:0:0:
98,319,2055,6,0,B|126:301|147:302|147:302|182:313|229:358,1,135,0|0,0:0|2:0,0:0:0:0:
213,336,2397,2,0,P|229:318|239:288,1,45,0|0,0:0|2:0,0:0:0:0:
312,210,2569,2,0,P|296:193|287:173,1,45,0|0,0:0|2:0,0:0:0:0:
393,47,2740,5,2,1:2:0:0:
393,47,2826,1,2,1:2:0:0:
393,47,2912,1,2,1:2:0:0:
393,47,2997,1,2,1:2:0:0:
324,104,3083,2,0,B|371:89|393:47|393:47|374:94|396:153,1,180,0|0,0:0|2:0,0:0:0:0:
437,220,3597,6,2,B|422:209|404:210|404:210|390:215|363:246,3,67.5000025749208,2|2|2|2,1:2|1:2|1:2|1:2,1:2:0:0:
334,306,3940,2,0,P|314:291|302:259,1,53.9999983520508,2|0,0:2|2:0,0:0:0:0:
228,148,4112,2,0,P|191:245|183:348,1,204.749990627289,2|0,0:2|2:0,0:0:0:0:
183,345,4455,2,0,P|143:265|53:270,1,175.499991966248,2|0,0:2|2:0,0:0:0:0:
65,262,4797,2,0,P|149:261|211:194,1,175.499991966248,2|0,0:2|2:0,0:0:0:0:
251,111,5140,2,0,P|237:94|244:111,1,58.4999973220826,2|0,1:2|2:0,0:0:0:0:
311,298,5312,5,2,0:2:0:0:
415,302,5483,1,2,0:2:0:0:
483,221,5655,1,0,2:0:0:0:
321,185,5826,5,2,0:2:0:0:
340,266,5997,1,0,0:0:0:0:
415,302,6169,1,2,0:2:0:0:
225,212,6340,6,0,L|112:224,1,107.999996704102,4|0,0:0|0:0,0:0:0:0:
55,331,6683,1,0,0:0:0:0:
114,239,6855,2,0,P|98:186|81:128,2,107.999996704102
92,127,7712,6,0,L|227:142,1,135.000005149842,4|0,0:0|0:0,0:0:0:0:
226,142,7969,1,0,0:0:0:0:
226,142,8055,1,0,0:0:0:0:
216,134,8226,2,0,P|223:58|230:-12,2,135.000005149842
246,339,9083,5,0,0:0:0:0:
231,331,9255,1,0,0:0:0:0:
266,310,9426,1,0,0:0:0:0:
182,255,9597,1,0,0:0:0:0:
317,180,9769,1,0,0:0:0:0:
153,140,9940,5,0,0:0:0:0:
81,134,10026,1,0,0:0:0:0:
9,128,10112,1,0,0:0:0:0:
229,35,10283,1,4,0:0:0:0:
256,192,10455,12,0,11140,0:0:0:0:
143,86,11483,5,2,2:0:0:0:
144,98,11568,1,2,2:0:0:0:
146,110,11654,1,2,2:0:0:0:
148,122,11740,1,2,2:0:0:0:
83,176,11826,6,2,P|75:129|64:67,1,101.250003862381,0|0,0:0|2:0,0:0:0:0:
17,220,12169,6,0,P|91:204|139:260,1,135.000005149842,12|0,0:2|1:2,0:0:0:0:
156,307,12426,1,8,0:2:0:0:
94,352,12512,1,0,0:2:0:0:
86,364,12683,6,0,P|75:322|59:287,1,67.5000025749208,2|0,1:1|2:1,1:1:0:0:
211,238,12855,2,0,P|222:196|238:161,1,67.5000025749208,2|0,1:1|2:1,1:1:0:0:
343,28,13026,2,2,B|292:50|264:105|264:105|279:74|270:39,1,168.750006437302,2|0,0:1|2:0,0:0:0:0:
260,40,13540,6,0,P|245:73|246:103,1,67.5000025749208,8|0,0:2|2:0,0:0:0:0:
344,276,13712,1,2,1:2:0:0:
344,276,13797,1,2,1:2:0:0:
344,276,13883,1,2,1:2:0:0:
328,140,14055,5,8,0:2:0:0:
181,163,14226,1,8,0:2:0:0:
34,186,14397,1,8,0:2:0:0:
80,320,14569,6,2,B|126:294|126:294|121:360,1,101.250003862381,0|0,0:0|2:0,0:0:0:0:
86,347,14912,1,8,0:2:0:0:
225,202,15083,2,2,B|146:93|146:93|157:243,1,270.000010299683,2|0,0:0|0:0,0:0:0:0:
227,310,15597,1,8,0:2:0:0:
402,136,15769,1,0,0:0:0:0:
402,136,15855,1,8,0:2:0:0:
402,136,15940,1,0,0:0:0:0:
286,206,16112,6,2,P|253:208|231:224,6,60,2|2|2|10|2|2|2,2:2|2:2|2:2|2:2|2:2|2:2|2:2,2:2:0:0:
437,332,16540,1,2,0:2:0:0:
437,332,16626,2,2,B|422:263|475:256|450:199|450:199|477:166|477:166|490:105|445:100|471:19,1,306.000005836487,2|10,0:0|2:0,0:0:0:0:
372,31,17055,1,2,2:0:0:0:
348,30,17140,1,2,2:0:0:0:
356,45,17226,1,2,2:0:0:0:
274,93,17312,6,2,P|215:83|181:32,1,101.250003862381,2|0,0:0|2:0,0:0:0:0:
196,38,17655,2,0,B|234:47|264:29|264:29|219:230,1,256.499993150711,12|0,0:2|2:0,0:0:0:0:
234,209,17997,2,0,B|230:167|230:167|252:215,1,85.4999977169037,8|0,0:2|2:0,0:0:0:0:
416,208,18169,6,0,P|451:201|505:196,1,67.5000025749208,2|0,0:0|2:0,0:0:0:0:
374,94,18340,2,0,P|341:98|308:105,1,67.5000025749208,2|0,0:0|2:0,0:0:0:0:
246,308,18512,2,2,B|311:255|378:239|380:312|304:279,1,168.750006437302,2|0,0:0|2:0,0:0:0:0:
318,284,19026,6,0,P|345:208|376:162,1,135.000005149842,8|0,0:2|0:0,0:0:0:0:
375,163,19283,1,8,0:2:0:0:
375,163,19369,1,0,0:2:0:0:
372,155,19540,5,2,0:2:0:0:
301,143,19626,1,2,0:2:0:0:
231,132,19712,1,2,0:2:0:0:
162,121,19797,1,2,0:2:0:0:
92,110,19883,1,2,0:2:0:0:
90,103,20055,6,0,P|83:71|74:28,1,67.5000025749208,0|0,0:0|2:0,0:0:0:0:
162,162,20227,2,0,P|258:184|359:205,1,202.500007724762,0|0,0:0|2:0,0:0:0:0:
416,103,20569,6,0,P|423:70|430:37,1,67.5000025749208,0|0,0:0|2:0,0:0:0:0:
360,206,20740,2,0,P|260:227|159:247,1,202.500007724762,0|0,0:0|2:0,0:0:0:0:
58,141,21083,6,0,P|51:108|44:75,1,67.5000025749208,0|0,0:0|2:0,0:0:0:0:
161,247,21255,2,0,P|260:268|358:290,1,202.500007724762,0|0,0:0|2:0,0:0:0:0:
448,132,21597,6,0,P|457:86|465:40,1,90,0|0,0:0|2:0,0:0:0:0:
494,282,21769,2,0,P|503:326|514:376,1,90,0|0,0:0|2:0,0:0:0:0:
135,96,22797,6,0,P|111:64|76:48,1,67.5000025749208,0|0,0:0|2:0,0:0:0:0:
62,112,23140,2,0,P|69:79|100:41,1,67.5000025749208,0|0,0:0|2:0,0:0:0:0:
299,163,23483,5,0,1:2:0:0:
299,163,23655,2,0,L|229:176,1,67.5000025749208,2|0,2:0|1:0,0:0:0:0:
156,183,23997,2,0,P|217:196|283:238,1,135.000005149842,2|2,2:0|2:0,0:0:0:0:
221,318,24512,1,0,0:0:0:0:
152,202,24683,1,0,0:0:0:0:
131,346,24855,2,0,P|135:315|147:248,1,67.5000025749208,0|0,0:0|2:0,0:0:0:0:
320,136,25197,5,0,0:0:0:0:
320,136,25369,1,0,0:0:0:0:
375,240,25540,2,0,P|451:247|491:199,2,135.000005149842
375,240,26569,1,0,0:0:0:0:
309,38,26740,2,0,P|302:105|295:172,1,135.000005149842
283,251,27255,1,0,0:0:0:0:
134,198,27426,5,0,0:0:0:0:
134,198,27512,1,0,0:0:0:0:
134,198,27597,1,0,0:0:0:0:
150,62,27769,1,0,0:0:0:0:
221,179,27940,1,0,0:0:0:0:
88,127,28112,1,0,0:0:0:0:
229,98,28283,1,0,0:0:0:0:
77,329,28626,5,0,0:0:0:0:
159,263,28797,1,2,2:0:0:0:
159,263,28969,2,0,P|227:278|300:291,1,135.000005149842,0|0,0:0|1:0,0:0:0:0:
291,289,29483,2,0,P|301:216|313:149,1,135.000005149842,0|0,1:0|0:0,0:0:0:0:
189,61,29997,1,0,1:0:0:0:
304,149,30169,1,0,0:0:0:0:
209,137,30340,2,0,P|203:105|187:56,1,67.5000025749208,0|0,0:0|2:0,0:0:0:0:
192,236,30683,5,0,0:0:0:0:
105,184,30855,1,0,0:0:0:0:
47,263,31026,1,0,0:0:0:0:
47,263,31369,6,0,P|85:259|122:288,1,67.5000025749208,0|0,0:0|2:0,0:0:0:0:
185,325,31712,2,0,L|201:201,1,101.250003862381,0|0,0:0|2:0,0:0:0:0:
200,208,32055,1,0,0:0:0:0:
294,340,32226,1,0,0:0:0:0:
294,340,32569,6,0,P|309:327|329:318,1,33.7500012874604,0|0,0:0|2:0,0:0:0:0:
354,359,32740,2,0,P|345:340|331:324,1,33.7500012874604,0|0,0:0|2:0,0:0:0:0:
260,244,32912,6,0,P|245:231|225:222,1,33.7500012874604,0|0,0:0|2:0,0:0:0:0:
147,271,33083,2,0,P|155:252|169:236,1,33.7500012874604,0|0,0:0|2:0,0:0:0:0:
299,125,33255,6,0,P|318:117|334:103,1,33.7500012874604,0|0,0:0|2:0,0:0:0:0:
436,175,33426,2,0,P|419:158|413:140,1,33.7500012874604,0|0,0:0|2:0,0:0:0:0:
281,31,33597,22,0,P|245:46|199:57,1,67.5000025749208,2|0,0:2|2:0,0:0:0:0:
56,134,33769,2,0,P|156:162|282:198,1,215.999993408203
299,193,34283,2,2,P|268:184|250:164,1,53.9999983520508,2|0,2:0|2:0,2:0:0:0:
80,285,34455,2,0,L|11:297,1,53.9999983520508
48,266,34797,1,0,0:0:0:0:
197,28,34969,6,0,P|208:133|221:256,1,215.999993408203
422,324,35483,1,0,0:0:0:0:
343,298,35655,1,0,0:0:0:0:
343,298,35740,1,0,0:0:0:0:
343,298,35826,1,0,0:0:0:0:
370,328,35997,1,0,0:0:0:0:
493,173,36169,5,2,0:2:0:0:
332,114,36340,1,0,0:0:0:0:
406,215,36512,2,0,P|414:97|422:-13,1,215.999993408203
394,331,37026,1,0,1:0:0:0:
293,223,37197,6,0,L|297:163,1,53.9999983520508,2|0,1:2|1:0,0:0:0:0:
303,87,37540,1,0,0:0:0:0:
198,289,37712,2,0,P|293:260|418:225,1,215.999993408203
134,362,38226,1,0,0:0:0:0:
29,242,38397,5,0,0:0:0:0:
29,242,38483,1,0,0:0:0:0:
29,242,38569,1,0,0:0:0:0:
157,221,38740,1,0,0:0:0:0:
215,287,38912,1,0,0:0:0:0:
305,143,39083,1,0,0:0:0:0:
326,300,39255,6,0,P|215:315|89:334,1,215.999993408203,4|0,0:0|0:0,0:0:0:0:
43,268,39769,1,0,0:0:0:0:
43,268,39855,1,0,0:0:0:0:
43,268,39940,1,0,0:0:0:0:
43,268,40026,1,0,0:0:0:0:
43,268,40112,1,0,0:0:0:0:
112,330,40283,1,0,0:0:0:0:
298,132,40455,22,0,P|411:121|522:108,1,215.999993408203,0|0,0:2|0:0,0:0:0:0:
277,253,40969,1,0,0:0:0:0:
341,305,41140,1,0,0:0:0:0:
341,305,41226,1,0,0:0:0:0:
341,305,41312,1,0,0:0:0:0:
330,254,41483,1,0,0:0:0:0:
249,356,41655,5,2,0:2:0:0:
137,190,41826,1,0,0:0:0:0:
47,301,41997,2,0,P|130:291|230:280,1,161.999995056153,0|0,0:0|2:0,0:0:0:0:
208,283,42340,2,0,P|219:229|233:158,1,107.999996704102,2|0,0:2|2:0,0:0:0:0:
229,177,42683,6,0,P|256:173|297:172,1,53.9999983520508,0|0,0:0|2:0,0:0:0:0:
341,190,42855,2,0,P|314:183|287:179,1,53.9999983520508,0|0,0:0|2:0,0:0:0:0:
385,98,43026,2,0,P|414:89|436:79,1,53.9999983520508,0|0,0:2|2:0,0:0:0:0:
237,51,43197,2,0,P|133:41|22:31,1,215.999993408203
4,225,43712,1,8,0:2:0:0:
8,216,43883,6,0,P|41:215|68:232,1,53.9999983520508,0|8,0:0|0:2,0:0:0:0:
181,272,44055,1,8,0:2:0:0:
137,337,44226,2,0,L|156:155,1,168.750006437302,0|0,0:0|2:0,0:0:0:0:
154,169,44740,6,0,P|340:158|322:310,1,377.999988464356,4|0,0:0|2:0,0:0:0:0:
330,302,45426,2,0,P|293:293|267:258,1,67.5000025749208
279,199,45769,1,0,0:0:0:0:
440,320,45940,2,0,B|356:288|287:326|205:377|88:345,1,323.999990112305,4|0,0:0|0:0,0:0:0:0:
78,248,46626,6,0,L|149:232,1,53.9999983520508,0|8,0:0|0:2,0:0:0:0:
137,226,46797,1,0,0:2:0:0:
228,298,46969,2,0,L|239:139,1,135.000005149842
238,163,47397,1,0,0:0:0:0:
238,163,47483,2,0,B|349:183|392:98|371:-2|212:12|157:55,1,377.999988464356,4|0,0:0|2:0,0:0:0:0:
156,55,48169,2,0,L|148:144,1,67.5000025749208,8|0,0:2|2:0,0:0:0:0:
140,42,48512,2,0,L|134:110,1,67.5000025749208,8|0,0:2|2:0,0:0:0:0:
17,161,48683,6,0,P|167:160|226:258,1,269.999991760254,4|0,0:0|2:0,0:0:0:0:
225,250,49197,2,0,P|322:261|368:333,1,180
286,371,49712,2,0,P|309:265|371:235,1,168.750006437302,0|0,0:0|2:0,0:0:0:0:
355,238,50226,6,0,B|266:214|203:242|203:242|192:258|192:258|113:291|31:267,1,323.999990112305,4|0,0:0|0:0,0:0:0:0:
42,252,50912,1,8,0:2:0:0:
120,291,51083,1,0,0:2:0:0:
234,186,51255,1,8,0:2:0:0:
424,355,51426,2,0,P|434:195|444:37,1,303.750001158714,4|0,0:0|2:0,0:0:0:0:
443,51,51940,6,0,L|314:80,1,101.250003862381,2|0,0:2|2:0,0:0:0:0:
232,128,52283,2,0,P|217:115|203:89,1,33.7500012874604
136,140,52455,2,0,P|220:156|307:172,1,168.750006437302,0|0,0:0|2:0,0:0:0:0:
348,245,52969,6,0,P|435:230|483:159,1,175.499991966248,4|0,0:0|2:0,0:0:0:0:
482,162,53312,2,0,P|432:213|427:301,1,135.000005149842,2|4,0:2|1:3,0:0:0:0:
421,273,53569,1,4,0:3:0:0:
421,273,53655,5,4,0:3:0:0:
315,219,53826,1,4,0:3:0:0:
188,185,53997,1,2,0:2:0:0:
61,316,54169,6,0,P|73:200|85:86,1,229.500004377365,6|0,0:1|2:0,0:0:0:0:
155,46,54512,2,0,P|201:39|249:31,1,90,2|0,0:0|2:0,0:0:0:0:
358,153,54683,2,0,P|404:160|452:168,1,90,2|0,0:0|2:0,0:0:0:0:
48,156,55197,6,0,B|70:163|70:163|49:163|17:176,2,67.5000025749208,0|0|0,2:0|2:0|2:0,2:0:0:0:
98,55,55712,6,0,L|86:278,1,202.500007724762,0|0,0:0|2:0,0:0:0:0:
176,287,56055,2,0,L|186:84,1,202.500007724762,0|0,0:0|2:0,0:0:0:0:
274,113,56397,2,0,L|262:336,1,202.500007724762,0|0,0:0|2:0,0:0:0:0:
271,321,56740,1,0,0:0:0:0:
87,201,56912,1,2,1:2:0:0:
87,201,56997,1,2,1:2:0:0:
87,201,57083,1,0,1:2:0:0:
174,304,57255,6,0,P|171:264|168:230,1,67.5000025749208,0|0,0:0|2:0,0:0:0:0:
78,96,57426,1,0,0:0:0:0:
78,96,57597,1,0,0:0:0:0:
215,51,57769,2,0,P|248:64|284:71,1,67.5000025749208,0|0,0:0|2:0,0:0:0:0:
479,169,57940,2,0,P|414:182|332:202,1,135.000005149842,0|0,0:0|1:0,0:0:0:0:
131,302,58283,6,0,P|142:267|160:226,1,67.5000025749208,0|0,0:0|2:0,0:0:0:0:
261,16,58455,2,0,P|270:121|280:243,1,202.500007724762,0|0,0:0|2:0,0:0:0:0:
294,209,58797,2,0,P|323:217|375:229,1,67.5000025749208,0|0,0:0|2:0,0:0:0:0:
121,283,58969,2,0,P|92:291|40:303,1,67.5000025749208,0|0,0:0|2:0,0:0:0:0:
212,355,59140,2,0,P|203:254|195:153,1,202.500007724762,0|0,0:0|2:0,0:0:0:0:
186,148,59483,1,0,0:0:0:0:
327,101,59655,5,2,0:2:0:0:
327,101,59740,1,2,0:2:0:0:
327,101,59826,1,2,0:2:0:0:
263,34,59997,1,0,0:0:0:0:
129,127,60169,2,0,P|166:120|202:103,1,67.5000025749208,0|0,0:0|2:0,0:0:0:0:
399,270,60340,2,0,P|264:227|126:238,1,270.000010299683,0|2,0:0|2:0,0:0:0:0:
118,241,60769,1,2,2:0:0:0:
113,260,60855,1,2,2:0:0:0:
125,275,60940,1,2,2:0:0:0:
191,355,61026,6,0,P|200:322|218:274,1,67.5000025749208,0|0,0:0|2:0,0:0:0:0:
22,160,61197,2,0,P|116:141|231:117,1,202.500007724762,4|0,0:0|2:0,0:0:0:0:
228,132,61540,2,0,P|233:95|239:55,1,67.5000025749208,0|0,0:0|2:0,0:0:0:0:
484,204,61712,2,0,P|358:207|303:279,1,202.500007724762,0|0,0:0|2:0,0:0:0:0:
207,313,62055,2,0,P|242:322|278:330,1,67.5000025749208
364,342,62226,1,0,0:2:0:0:
158,209,62397,6,0,P|120:216|90:238,1,67.5000025749208,0|0,0:0|2:0,0:0:0:0:
32,358,62569,2,0,P|61:238|59:145,1,202.500007724762,0|0,0:0|2:0,0:0:0:0:
135,34,62912,2,0,P|140:68|145:100,1,67.5000025749208,0|0,0:0|2:0,0:0:0:0:
251,193,63083,2,0,P|350:179|435:116,1,202.500007724762,0|0,0:0|2:0,0:0:0:0:
420,101,63426,2,0,P|319:178|315:280,1,202.500007724762,0|0,0:0|2:0,0:0:0:0:
307,348,63769,1,0,0:0:0:0:
307,348,63855,1,0,0:0:0:0:
307,348,63940,1,4,0:0:0:0:
179,304,64112,1,0,0:0:0:0:
155,169,64283,6,0,L|143:80,1,67.5000025749208,0|0,0:2|2:0,0:0:0:0:
33,48,64455,2,0,P|146:61|261:74,1,229.500004377365,2|0,0:0|2:0,0:0:0:0:
500,181,64797,2,0,P|386:194|271:207,1,229.500004377365,2|0,0:0|2:0,0:0:0:0:
56,314,65140,2,0,L|270:338,1,202.500007724762,2|0,0:0|2:0,0:0:0:0:
360,384,65483,6,0,P|368:351|386:319,1,67.5000025749208,2|0,0:2|2:0,0:0:0:0:
196,242,65655,2,0,P|127:119|40:21,1,270.000010299683,2|0,0:2|0:0,0:0:0:0:
178,45,66169,6,0,P|204:78|222:106,1,67.5000025749208,0|0,0:0|2:0,0:0:0:0:
358,240,66340,2,0,P|376:211|397:185,1,67.5000025749208,0|0,0:0|2:0,0:0:0:0:
308,97,66512,1,0,1:0:0:0:
308,97,66597,1,0,1:0:0:0:
390,57,66683,6,0,P|308:147|253:213,1,202.500007724762,4|0,0:0|2:0,0:0:0:0:
270,338,67026,2,0,P|185:254|91:181,1,229.500004377365,4|0,0:2|2:0,0:0:0:0:
21,110,67369,2,0,P|29:212|39:311,1,202.500007724762,0|0,1:0|2:0,2:0:0:0:
49,317,67712,1,0,0:0:0:0:
200,134,67883,5,2,0:2:0:0:
200,134,67969,1,2,0:2:0:0:
228,209,68055,2,0,P|238:142|251:65,1,135.000005149842
440,347,68397,1,0,0:0:0:0:
338,269,68569,1,2,0:2:0:0:
338,269,68655,1,2,0:2:0:0:
338,269,68740,2,0,P|291:276|256:282,1,67.5000025749208,0|0,0:0|2:0,0:0:0:0:
179,356,68912,2,0,P|168:285|156:215,1,135.000005149842
13,110,69255,6,0,P|52:99|74:60,1,67.5000025749208,2|0,0:2|2:0,0:0:0:0:
210,83,69426,2,0,P|96:113|76:216,1,202.500007724762,4|0,0:0|2:0,0:0:0:0:
83,174,69769,2,0,P|162:179|221:292,1,202.500007724762,0|0,0:0|2:0,0:0:0:0:
217,363,70112,1,0,0:0:0:0:
217,363,70197,1,0,0:0:0:0:
217,363,70283,1,0,0:0:0:0:
54,342,70455,1,0,0:0:0:0:
14,196,70626,22,0,P|133:223|293:260,1,229.500004377365,4|0,0:0|2:0,0:0:0:0:
238,248,70969,2,0,P|120:260|50:365,1,229.500004377365,4|0,0:1|2:0,0:0:0:0:
68,351,71312,38,0,L|101:31,1,310.500005922318,2|0,0:2|2:0,0:0:0:0:
116,36,71655,2,0,P|168:113|310:119,1,229.500004377365,2|0,0:2|2:0,0:0:0:0:
296,126,71997,38,0,L|282:322,1,180,4|0,0:0|0:0,0:0:0:0:
361,355,72512,1,0,0:0:0:0:
362,268,72683,1,0,0:0:0:0:
362,268,72769,1,0,0:0:0:0:
362,268,72855,1,0,0:0:0:0:
237,151,73026,5,2,0:2:0:0:
157,161,73197,1,2,0:2:0:0:
113,282,73369,2,0,P|69:193|-10:150,1,180
1,153,73883,2,0,P|51:143|90:103,1,90
212,143,74226,1,0,0:0:0:0:
353,131,74397,2,0,P|317:103|273:96,1,90
73,312,74740,6,0,P|169:313|225:229,1,180,4|0,0:0|0:0,0:0:0:0:
250,170,75255,1,0,0:0:0:0:
136,93,75426,1,0,0:0:0:0:
136,93,75512,1,0,0:0:0:0:
136,93,75597,1,0,0:0:0:0:
142,186,75769,1,0,0:0:0:0:
259,158,75940,5,0,0:3:0:0:
25,213,76112,1,0,0:1:0:0:
256,192,76197,12,0,77140,2:0:0:0:
404,236,77312,5,2,2:0:0:0:
400,224,77397,1,2,2:0:0:0:
396,212,77483,1,2,2:0:0:0:
392,200,77569,1,2,2:0:0:0:
444,184,77655,6,2,P|394:175|340:164,1,101.250003862381,2|0,0:0|2:0,0:0:0:0:
256,252,77997,6,0,P|242:179|167:149,1,135.000005149842,12|0,0:2|1:0,0:0:0:0:
193,150,78255,1,8,0:2:0:0:
193,150,78340,2,0,P|182:113|187:68,1,67.5000025749208,0|0,0:0|2:0,0:0:0:0:
266,24,78512,6,0,P|293:45|330:56,1,67.5000025749208,2|0,0:0|2:0,0:0:0:0:
85,137,78683,2,0,P|50:149|21:169,1,67.5000025749208,2|0,0:0|2:0,0:0:0:0:
274,199,78855,2,2,B|301:233|360:247|360:247|319:243|287:273,1,168.750006437302,2|0,0:0|2:0,0:0:0:0:
285,280,79369,1,8,0:2:0:0:
395,105,79540,1,2,0:2:0:0:
395,105,79626,1,2,0:2:0:0:
395,105,79712,1,2,0:2:0:0:
318,43,79883,6,0,P|312:76|279:104,1,67.5000025749208,2|0,0:0|2:0,0:0:0:0:
235,191,80055,2,0,P|207:210|164:206,1,67.5000025749208,2|0,0:0|2:0,0:0:0:0:
83,262,80226,2,0,P|49:258|18:227,1,67.5000025749208,2|0,0:0|2:0,0:0:0:0:
108,101,80397,6,2,P|133:97|149:81,5,45.0000017166138,2|2|2|2|2|2,2:0|2:0|2:0|2:0|2:0|2:0,2:0:0:0:
196,31,80740,2,0,L|186:150,1,112.5,8|0,0:2|2:0,0:0:0:0:
244,300,80912,6,2,P|260:285|283:283,8,30,2|2|2|2|2|2|2|2|2,2:0|2:0|2:0|2:0|2:0|2:0|2:0|2:0|2:0,2:0:0:0:
307,344,81426,2,0,L|317:225,1,112.5,8|0,0:2|2:0,0:0:0:0:
383,105,81597,2,0,B|374:217|374:217|344:236|344:236|329:397,1,297.000009063721,8|0,0:2|2:0,0:0:0:0:
429,357,81940,2,2,B|469:327|469:327|437:291,8,99.0000009441376,2|2|2|2|2|2|2|2|2,2:2|2:2|2:2|2:2|2:2|2:2|2:2|2:2|2:2,2:2:0:0:
336,205,82455,6,0,B|261:219|184:141|184:141|222:260|164:324|164:324|112:305|53:343,1,450,8|2,0:2|2:0,0:0:0:0:
16,259,82883,5,2,2:2:0:0:
27,252,82969,1,2,2:2:0:0:
40,249,83055,1,2,2:2:0:0:
100,183,83140,6,2,P|96:130|90:67,1,101.250003862381,2|0,0:0|2:0,0:0:0:0:
114,181,83483,6,0,P|158:136|75:92,1,153.000002918243,12|0,0:2|1:0,0:0:0:0:
92,82,83740,1,8,0:2:0:0:
92,82,83826,1,0,0:0:0:0:
24,170,83997,6,0,P|27:205|47:236,1,67.5000025749208,2|0,0:0|2:0,0:0:0:0:
210,325,84169,2,0,P|173:334|151:358,1,67.5000025749208,2|0,0:0|2:0,0:0:0:0:
359,277,84340,2,2,B|398:258|440:272|440:272|410:310|358:311,1,168.750006437302,2|0,0:0|2:0,0:0:0:0:
338,299,84855,1,8,1:2:0:0:
156,212,85026,1,2,0:2:0:0:
157,200,85112,1,2,0:2:0:0:
158,188,85197,2,0,L|164:112,1,67.5000025749208,2|0,0:2|2:2,0:0:0:0:
173,36,85369,5,8,0:2:0:0:
77,118,85540,1,8,0:2:0:0:
281,195,85712,1,8,0:2:0:0:
167,276,85883,6,0,P|129:282|96:288,1,67.5000025749208,0|0,0:0|2:0,0:0:0:0:
272,384,86055,2,0,L|282:174,1,188.999994232178,0|0,0:0|2:0,0:0:0:0:
281,195,86397,6,0,P|319:201|352:207,1,67.5000025749208,0|0,0:0|2:0,0:0:0:0:
167,276,86569,2,0,L|156:67,1,188.999994232178,0|0,0:0|2:0,0:0:0:0:
157,87,86912,6,0,P|119:93|86:99,1,67.5000025749208,0|0,0:0|2:0,0:0:0:0:
347,206,87083,2,0,L|357:-1,1,188.999994232178,0|0,0:0|2:0,0:0:0:0:
356,17,87426,6,0,P|403:9|457:1,1,90,0|0,0:0|2:0,0:0:0:0:
162,40,87597,2,0,P|115:48|60:55,1,90,0|0,0:0|2:0,0:0:0:0:
51,233,88455,1,4,0:0:0:0:
256,192,88626,12,0,95483,2:0:0:0:
