osu file format v14

[General]
AudioFilename: audio.mp3
AudioLeadIn: 0
PreviewTime: 54472
Countdown: 0
SampleSet: Soft
StackLeniency: 0.7
Mode: 0
LetterboxInBreaks: 0
WidescreenStoryboard: 0

[Editor]
Bookmarks: 13419,16577,31104,50367,57314,60156,66472
DistanceSpacing: 0.8
BeatDivisor: 4
GridSize: 4
TimelineZoom: 1

[Metadata]
Title:BLAZING
TitleUnicode:BLAZING
Artist:GARNiDELiA
ArtistUnicode:GARNiDELiA
Creator:SevenFrenzy
Version:Extra G
Source:Gundam G Reconguista
Tags:Gundam G Reconguista
BeatmapID:1430486
BeatmapSetID:676331

[Difficulty]
HPDrainRate:6
CircleSize:4
OverallDifficulty:8
ApproachRate:9.5
SliderMultiplier:1.6
SliderTickRate:1

[Events]
//Background and Video events
0,0,"Gundam Reco.jpg",0,0
Video,0,"GUNDAM G.avi"
//Break Periods
//Storyboard Layer 0 (Background)
//Storyboard Layer 1 (Fail)
//Storyboard Layer 2 (Pass)
//Storyboard Layer 3 (Foreground)
//Storyboard Sound Samples
Sample,9314,0,"soft-hitclap5.wav",60

[TimingPoints]
7262,315.789473684211,4,2,1,100,1,0
9156,-100,4,2,1,5,0,0
9314,-100,4,2,1,60,0,0
18473,-66.6666666666667,4,2,1,60,0,0
19262,-100,4,2,1,60,0,0
55025,-100,4,2,1,5,0,0
55104,-100,4,2,1,60,0,0
55183,-100,4,2,1,5,0,0
55419,-80,4,2,1,80,0,1
65209,-80,4,2,1,80,0,1
75946,-100,4,2,1,60,0,0
84156,-66.6666666666667,4,2,1,60,0,0
84946,-100,4,2,1,60,0,0

[HitObjects]
256,192,7262,12,0,9157,0:0:0:0:
256,192,9315,5,0,0:0:0:60:soft-hitclap5.wav
248,184,9394,1,8,0:0:0:0:
240,176,9473,1,8,0:0:0:0:
232,168,9552,1,8,0:0:0:0:
220,160,9631,2,0,P|168:136|80:184,1,160,8|0,0:0|0:0,0:0:0:0:
208,284,10104,6,0,L|296:284,1,80,0|8,0:0|0:0,0:0:0:0:
428,208,10420,2,0,L|340:208,1,80
256,104,10736,1,0,0:0:0:0:
348,208,10894,1,8,0:0:0:0:
156,212,11052,5,0,0:0:0:0:
256,312,11210,2,0,P|312:328|344:324,1,80
448,188,11525,1,8,0:0:0:0:
448,188,11683,1,0,0:0:0:0:
368,96,11841,5,0,0:0:0:0:
368,96,11920,2,0,L|416:72,1,40
268,124,12078,2,0,L|304:152,1,40,0|8,0:0|0:0,0:0:0:0:
172,88,12236,2,0,L|220:64,1,40
88,136,12394,2,0,L|124:164,1,40
72,260,12631,6,0,P|128:276|160:276,1,80,0|8,0:0|0:0,0:0:0:0:
384,192,12947,1,0,0:0:0:0:
384,348,13104,1,0,0:0:0:0:
384,192,13262,2,0,P|380:144|356:112,1,80,0|8,0:0|0:0,0:0:0:0:
256,80,13578,5,0,0:0:0:0:
256,80,13736,2,0,P|200:72|152:80,1,80
80,172,14052,2,0,P|128:184|176:176,1,80,8|0,0:0|0:0,0:0:0:0:
368,140,14368,5,0,0:0:0:0:
388,168,14447,1,0,0:0:0:0:
392,200,14525,1,0,0:0:0:0:
380,232,14604,1,0,0:0:0:0:
356,248,14683,1,8,0:0:0:0:
324,252,14762,1,0,0:0:0:0:
292,252,14841,1,0,0:0:0:0:
260,240,14920,1,0,0:0:0:0:
236,228,14999,6,0,L|160:176,1,80
296,88,15315,2,0,L|372:140,1,80,8|0,0:0|0:0,0:0:0:0:
408,272,15631,2,0,B|380:308|380:308|324:312,1,80
252,192,15947,5,8,0:0:0:0:
252,192,16104,1,0,0:0:0:0:
316,104,16262,2,0,B|360:104|360:104|392:124,1,80
384,300,16578,2,0,B|344:304|344:304|304:280,1,80,8|0,0:0|0:0,0:0:0:0:
160,188,16894,5,0,0:0:0:0:
312,188,17052,1,0,0:0:0:0:
136,188,17210,1,8,0:0:0:0:
336,188,17368,1,0,0:0:0:0:
240,124,17525,5,0,0:0:0:0:
240,124,17683,2,0,L|240:28,1,80
432,164,17999,2,0,L|432:256,1,80,8|0,0:0|0:0,0:0:0:0:
332,316,18315,1,8,0:0:0:0:
256,184,18473,2,0,B|340:184|340:184|324:252|272:296|216:312|144:260|128:188|140:72|200:76|356:80,1,600.000022888184,8|0,0:0|0:0,0:0:0:0:
440,184,19420,1,8,0:0:0:0:
440,184,19578,1,8,0:0:0:0:
372,308,19736,5,0,0:0:0:0:
372,308,19815,1,0,0:0:0:0:
372,308,19894,1,0,0:0:0:0:
120,204,20052,2,0,P|144:168|188:148,1,80
352,172,20367,2,0,P|320:204|280:220,1,80,4|0,0:0|0:0,0:0:0:0:
116,88,20683,5,0,0:0:0:0:
260,64,20840,2,0,L|352:64,1,80
424,196,21156,2,0,L|328:196,1,80
112,192,21472,2,0,B|128:236|128:236|176:244,1,80
433,267,21788,2,0,B|445:223|445:223|417:187,1,80
256,64,22104,5,0,0:0:0:0:
256,64,22262,1,0,0:0:0:0:
128,168,22419,1,0,0:0:0:0:
320,128,22577,1,4,0:0:0:0:
128,92,22735,1,0,0:0:0:0:
320,200,22893,6,0,L|392:276,1,80
292,340,23209,2,0,B|244:328|244:328|192:336,1,80
88,196,23525,2,0,P|136:176|184:176,1,80
392,216,23840,2,0,P|344:232|296:232,1,80
256,64,24156,2,0,P|308:56|360:64,2,80
80,92,24630,5,0,0:0:0:0:
84,116,24709,1,0,0:0:0:0:
88,144,24788,1,0,0:0:0:0:
92,168,24867,1,0,0:0:0:0:
96,196,24946,1,0,0:0:0:0:
100,220,25025,1,0,0:0:0:0:
104,248,25104,1,4,0:0:0:0:
256,320,25262,6,0,P|300:304|336:272,1,80
416,72,25577,2,0,P|360:92|336:120,1,80
256,168,25893,1,0,0:0:0:0:
256,168,26051,1,0,0:0:0:0:
348,208,26209,6,0,L|436:168,1,80
320,304,26525,2,0,L|232:344,1,80
136,284,26840,2,0,L|136:184,1,80
256,56,27156,1,0,0:0:0:0:
256,56,27314,2,0,P|304:68|336:100,1,80
188,176,27630,6,0,L|64:64,1,160,4|0,0:0|0:0,0:0:0:0:
64,200,28104,2,0,L|192:316,1,160,4|0,0:0|0:0,0:0:0:0:
344,312,28577,2,0,L|472:196,1,160,4|0,0:0|0:0,0:0:0:0:
440,84,29051,2,0,L|376:144,1,80,4|0,0:0|0:0,0:0:0:0:
256,252,29367,2,0,L|320:196,1,80
256,84,29683,5,0,0:0:0:0:
224,88,29762,1,0,0:0:0:0:
196,100,29840,1,0,0:0:0:0:
172,124,29919,1,0,0:0:0:0:
164,156,29998,1,0,0:0:0:0:
164,188,30077,1,0,0:0:0:0:
164,216,30156,1,4,0:0:0:0:
160,312,30314,6,0,P|212:328|248:328,1,80,0|8,0:0|0:0,0:0:0:0:
456,248,30630,2,0,P|392:232|364:232,1,80
192,216,30946,1,0,0:0:0:0:
340,112,31104,1,8,0:0:0:0:
172,112,31262,1,0,0:0:0:0:
312,216,31419,1,0,0:0:0:0:
256,44,31577,1,0,0:0:0:0:
192,216,31735,6,0,L|248:152,1,80,8|0,0:0|0:0,0:0:0:0:
340,112,32051,2,0,L|256:144,1,80
176,112,32367,2,0,L|256:144,1,80,8|0,0:0|0:0,0:0:0:0:
308,216,32683,2,0,L|252:140,1,80
252,48,32998,2,0,L|252:136,1,80,8|0,0:0|0:0,0:0:0:0:
252,280,33314,5,0,0:0:0:0:
252,280,33472,1,0,0:0:0:0:
128,316,33630,1,8,0:0:0:0:
128,316,33788,1,0,0:0:0:0:
64,216,33946,1,0,0:0:0:0:
64,216,34104,6,0,P|104:176|144:168,1,80,0|8,0:0|0:0,0:0:0:0:
328,72,34419,2,0,B|372:80|372:80|404:116,1,80
436,248,34735,1,0,0:0:0:0:
276,320,34893,2,0,B|236:296|236:296|232:224,1,80,8|0,0:0|0:0,0:0:0:0:
276,88,35209,5,0,0:0:0:0:
376,184,35367,1,0,0:0:0:0:
304,56,35525,1,8,0:0:0:0:
340,204,35683,1,0,0:0:0:0:
344,52,35840,1,0,0:0:0:0:
300,208,35998,1,0,0:0:0:0:
160,72,36156,2,0,B|120:88|120:88|92:128,1,80,8|0,0:0|0:0,0:0:0:0:
176,300,36472,2,0,B|220:288|220:288|252:240,1,80
352,152,36788,5,8,0:0:0:0:
256,36,36946,1,0,0:0:0:0:
168,156,37104,1,0,0:0:0:0:
256,44,37262,1,0,0:0:0:0:
352,160,37419,1,8,0:0:0:0:
256,52,37577,1,0,0:0:0:0:
168,164,37735,6,0,P|168:236|236:308,1,160,8|0,0:0|0:0,0:0:0:0:
412,244,38209,2,0,P|416:192|340:96,1,160,8|0,0:0|0:0,0:0:0:0:
248,56,38683,2,0,P|184:60|100:116,1,160,8|0,0:0|0:0,0:0:0:0:
56,216,39156,2,0,P|96:240|136:244,1,80
248,192,39472,1,0,0:0:0:0:
248,192,39630,1,0,0:0:0:0:
392,176,39788,5,8,0:0:0:0:
388,208,39867,1,8,0:0:0:0:
372,232,39946,1,8,0:0:0:0:
348,248,40025,1,8,0:0:0:0:
324,256,40104,1,8,0:0:0:0:
300,272,40183,1,8,0:0:0:0:
288,296,40262,1,12,0:0:0:0:
256,192,40419,12,8,41367,0:0:0:0:
160,192,41683,5,8,0:0:0:0:
256,76,41840,1,8,0:0:0:0:
336,192,41998,1,8,0:0:0:0:
256,300,42156,2,0,P|212:296|168:272,1,80,8|0,0:0|0:0,0:0:0:0:
128,88,42472,2,0,P|176:76|216:80,1,80
376,104,42788,5,8,0:0:0:0:
376,104,42946,1,0,0:0:0:0:
256,188,43104,1,0,0:0:0:0:
256,188,43262,1,0,0:0:0:0:
372,264,43419,1,8,0:0:0:0:
372,264,43577,2,0,P|332:304|300:312,1,80
196,312,43893,6,0,L|104:312,1,80,0|8,0:0|0:0,0:0:0:0:
32,192,44209,2,0,L|116:192,1,80
196,68,44525,2,0,L|104:68,1,80,0|8,0:0|0:0,0:0:0:0:
320,68,44840,1,0,0:0:0:0:
444,68,44998,1,0,0:0:0:0:
444,184,45156,2,0,L|348:184,1,80,0|12,0:0|0:0,0:0:0:0:
256,192,45472,12,8,46419,0:0:0:0:
156,192,46735,5,8,0:0:0:0:
352,192,46893,1,8,0:0:0:0:
148,192,47051,1,8,0:0:0:0:
364,192,47209,1,8,0:0:0:0:
136,192,47367,1,8,0:0:0:0:
380,192,47525,2,0,L|460:192,1,80
288,256,47840,6,0,L|232:328,1,80,12|0,0:0|0:0,0:0:0:0:
76,260,48156,2,0,B|60:220|60:220|84:176,1,80
232,68,48472,2,0,B|244:108|244:108|216:160,1,80,8|0,0:0|0:0,0:0:0:0:
292,276,48946,1,0,0:0:0:0:
316,252,49262,1,8,0:0:0:0:
344,228,49577,1,8,0:0:0:0:
368,204,49893,1,0,0:0:0:0:
256,56,50367,5,12,0:0:0:0:
256,288,50525,1,0,0:0:0:0:
104,116,50683,1,0,0:0:0:0:
420,112,50840,1,0,0:0:0:0:
232,112,50998,1,12,0:0:0:0:
336,28,51156,1,0,0:0:0:0:
344,252,51314,5,0,0:0:0:0:
132,120,51472,1,0,0:0:0:0:
128,336,51630,1,12,0:0:0:0:
248,192,51788,1,0,0:0:0:0:
64,192,51946,1,0,0:0:0:0:
252,48,52104,1,0,0:0:0:0:
172,240,52262,5,12,0:0:0:0:
356,132,52419,1,0,0:0:0:0:
156,224,52577,1,0,0:0:0:0:
372,148,52735,1,0,0:0:0:0:
144,212,52893,1,12,0:0:0:0:
388,164,53051,1,0,0:0:0:0:
132,200,53209,5,0,0:0:0:0:
404,180,53367,1,0,0:0:0:0:
116,188,53525,1,12,0:0:0:0:
420,196,53683,1,0,0:0:0:0:
100,176,53840,1,12,0:0:0:0:
436,212,53998,1,12,0:0:0:0:
204,288,54472,6,0,P|196:244|212:120,1,160
312,84,54946,2,0,P|324:108|320:136,1,40
424,176,55104,2,0,P|408:200|388:212,1,40
296,300,55419,6,8,P|236:312|100:256,1,200,12|8,0:0|0:0,0:0:0:0:
80,104,55893,1,8,0:0:0:0:
80,104,55972,1,8,0:0:0:0:
80,104,56051,2,0,P|140:96|188:104,1,100,8|0,0:0|0:0,0:0:0:0:
424,176,56367,2,0,P|364:192|308:192,1,100,8|0,0:0|0:0,0:0:0:0:
136,200,56683,2,0,P|96:264|96:304,1,100,8|0,0:0|0:0,0:0:0:0:
256,304,56998,5,8,0:0:0:0:
432,300,57156,1,0,0:0:0:0:
256,304,57314,1,8,0:0:0:0:
432,300,57472,1,0,0:0:0:0:
256,304,57630,2,0,P|192:292|156:260,1,100,8|0,0:0|0:0,0:0:0:0:
72,128,57946,6,8,P|132:88|164:80,1,100,12|8,0:0|0:0,0:0:0:0:
184,72,58183,1,8,0:0:0:0:
216,80,58262,2,0,P|276:104|324:108,1,100,8|0,0:0|0:0,0:0:0:0:
456,196,58577,1,8,0:0:0:0:
372,324,58735,1,0,0:0:0:0:
184,320,58893,2,0,P|152:268|132:216,1,100,8|0,0:0|0:0,0:0:0:0:
232,48,59209,6,0,P|292:64|336:88,1,100,8|0,0:0|0:0,0:0:0:0:
464,152,59525,1,8,0:0:0:0:
256,212,59683,1,0,0:0:0:0:
464,276,59840,1,8,0:0:0:0:
252,320,59998,1,0,0:0:0:0:
464,376,60156,1,8,0:0:0:0:
252,320,60314,6,0,P|164:300|136:284,1,100,0|12,0:0|0:0,0:0:0:0:
324,180,60630,2,0,P|392:200|428:228,1,100,0|8,0:0|0:0,0:0:0:0:
252,336,60946,2,0,P|164:316|136:300,1,100,0|8,0:0|0:0,0:0:0:0:
72,164,61262,1,0,0:0:0:0:
72,164,61419,1,8,0:0:0:0:
328,60,61577,6,0,B|384:64|384:64|336:96,1,100,0|8,0:0|0:0,0:0:0:0:
196,184,61893,2,0,B|148:196|148:196|196:220,1,100,0|8,0:0|0:0,0:0:0:0:
332,312,62209,2,0,B|388:316|388:316|340:348,1,100,0|8,0:0|0:0,0:0:0:0:
144,320,62525,1,0,0:0:0:0:
144,320,62683,2,0,B|104:288|104:288|92:228,1,100,8|0,0:0|0:0,0:0:0:0:
144,112,62998,2,4,L|256:112,1,100,12|4,0:0|0:0,0:0:0:0:
432,112,63472,5,4,0:0:0:0:
432,140,63788,5,4,0:0:0:0:
432,168,64104,5,4,0:0:0:0:
432,192,64419,6,0,L|432:256,1,50,4|0,0:0|0:0,0:0:0:0:
396,236,64577,2,0,L|396:296,1,50,4|0,0:0|0:0,0:0:0:0:
360,276,64735,2,0,L|360:336,1,50,4|0,0:0|0:0,0:0:0:0:
328,308,64893,2,0,L|328:364,1,50,4|0,0:0|0:0,0:0:0:0:
216,312,65209,5,8,0:0:0:0:
184,304,65288,1,8,0:0:0:0:
160,280,65367,1,8,0:0:0:0:
152,252,65446,1,8,0:0:0:0:
152,220,65525,1,12,0:0:0:0:
172,72,65683,6,0,P|232:64|284:76,1,100,0|8,0:0|0:0,0:0:0:0:
452,192,65998,2,0,L|332:192,1,100,0|8,0:0|0:0,0:0:0:0:
212,192,66314,1,0,0:0:0:0:
68,192,66472,1,8,0:0:0:0:
348,320,66630,6,0,L|472:320,1,100,0|8,0:0|0:0,0:0:0:0:
212,320,66946,1,0,0:0:0:0:
64,320,67104,1,8,0:0:0:0:
84,132,67262,6,0,P|128:96|180:84,1,100,0|8,0:0|0:0,0:0:0:0:
388,80,67577,1,0,0:0:0:0:
388,80,67735,1,8,0:0:0:0:
440,212,67893,2,0,P|356:208|332:200,1,100,0|12,0:0|0:0,0:0:0:0:
200,148,68209,2,0,P|152:176|132:216,1,100,0|8,0:0|0:0,0:0:0:0:
256,316,68525,1,0,0:0:0:0:
256,316,68683,6,0,L|352:256,1,100,12|0,0:0|0:0,0:0:0:0:
352,136,68998,2,0,L|260:192,1,100,8|0,0:0|0:0,0:0:0:0:
64,304,69314,1,12,0:0:0:0:
144,116,69472,1,0,0:0:0:0:
216,304,69630,1,8,0:0:0:0:
36,176,69788,1,0,0:0:0:0:
248,176,69946,1,12,0:0:0:0:
360,304,70104,6,0,P|412:272|436:228,1,100,0|8,0:0|0:0,0:0:0:0:
448,56,70419,2,0,B|388:56|368:108|360:156|288:184|152:172,1,300,0|8,0:0|0:0,0:0:0:0:
72,168,71051,2,0,P|52:232|60:276,1,100,0|8,0:0|0:0,0:0:0:0:
420,280,71367,2,0,P|436:216|420:168,1,100,0|8,0:0|0:0,0:0:0:0:
172,168,71683,6,0,L|64:168,1,100,0|8,0:0|0:0,0:0:0:0:
320,280,71998,2,0,L|432:280,1,100,0|8,0:0|0:0,0:0:0:0:
72,168,72314,2,0,B|96:220|96:220|160:220,1,100,0|8,0:0|0:0,0:0:0:0:
420,276,72630,2,0,B|392:224|392:224|336:224,1,100,0|8,0:0|0:0,0:0:0:0:
256,192,72946,1,0,0:0:0:0:
256,192,73104,1,8,0:0:0:0:
256,320,73262,5,8,0:0:0:0:
136,192,73577,1,8,0:0:0:0:
256,52,73893,1,8,0:0:0:0:
372,192,74209,1,8,0:0:0:0:
256,320,74525,5,8,0:0:0:0:
136,192,74683,1,8,0:0:0:0:
256,52,74840,1,8,0:0:0:0:
372,192,74998,1,8,0:0:0:0:
256,320,75156,5,8,0:0:0:0:
372,192,75314,1,8,0:0:0:0:
256,52,75472,1,8,0:0:0:0:
136,192,75630,1,12,0:0:0:0:
256,320,75788,6,0,L|368:320,1,100,0|8,0:0|0:0,0:0:0:0:
468,192,76104,2,0,L|376:192,1,80
256,192,76419,1,0,0:0:0:0:
256,192,76577,1,8,0:0:0:0:
100,140,76735,1,0,0:0:0:0:
100,140,76893,2,0,B|128:104|128:104|168:92,1,80
400,248,77209,2,0,B|380:284|380:284|340:300,1,80,8|0,0:0|0:0,0:0:0:0:
240,304,77525,5,0,0:0:0:0:
240,304,77604,2,0,L|200:280,1,40
108,276,77762,2,0,L|64:304,1,40,0|8,0:0|0:0,0:0:0:0:
244,196,77919,2,0,L|204:172,1,40
112,168,78077,2,0,L|68:196,1,40,0|4,0:0|0:0,0:0:0:0:
112,56,78314,6,0,L|208:56,1,80,0|8,0:0|0:0,0:0:0:0:
400,56,78630,2,0,L|300:56,1,80
192,132,78946,1,0,0:0:0:0:
316,132,79104,1,8,0:0:0:0:
128,224,79262,5,0,0:0:0:0:
128,224,79419,2,0,P|120:272|140:312,1,80
392,300,79734,2,0,P|400:256|388:224,1,80,8|0,0:0|0:0,0:0:0:0:
252,68,80051,5,0,0:0:0:0:
216,76,80130,1,0,0:0:0:0:
192,100,80209,1,0,0:0:0:0:
176,132,80288,1,0,0:0:0:0:
172,164,80367,1,8,0:0:0:0:
176,200,80446,1,0,0:0:0:0:
192,228,80525,1,0,0:0:0:0:
224,244,80604,1,0,0:0:0:0:
252,248,80683,6,0,L|332:248,1,80,4|0,0:0|0:0,0:0:0:0:
448,188,80998,2,0,L|368:124,1,80,8|0,0:0|0:0,0:0:0:0:
160,60,81314,2,0,L|232:120,1,80
368,224,81630,1,8,0:0:0:0:
368,224,81788,1,0,0:0:0:0:
156,300,81946,6,0,B|144:260|144:260|168:212,1,80
404,300,82262,2,0,B|400:344|400:344|360:372,1,80,8|0,0:0|0:0,0:0:0:0:
256,152,82577,1,0,0:0:0:0:
256,300,82735,1,0,0:0:0:0:
256,128,82893,1,8,0:0:0:0:
256,324,83051,1,0,0:0:0:0:
100,212,83209,5,4,0:0:0:0:
100,212,83367,2,0,P|92:160|104:116,1,80
456,140,83683,2,0,P|460:192|452:232,1,80
280,192,83998,1,8,0:0:0:0:
280,192,84156,2,0,B|364:192|364:192|348:260|296:304|240:320|168:268|152:196|164:80|224:84|380:88,1,600.000022888184,12|0,0:0|0:0,0:0:0:0:
444,288,85104,6,8,P|424:336|392:364,1,80
256,288,85419,1,8,0:0:0:0:
256,108,85577,1,12,0:0:0:0:
144,192,86051,5,8,0:0:0:0:
368,192,86209,1,8,0:0:0:0:
128,192,86367,1,8,0:0:0:0:
388,192,86525,1,8,0:0:0:0:
112,192,86683,1,8,0:0:0:0:
408,192,86841,1,8,0:0:0:0:
