osu file format v14

[General]
AudioFilename: KIll la kill OP 2.mp3
AudioLeadIn: 0
PreviewTime: 51358
Countdown: 0
SampleSet: Normal
StackLeniency: 0.7
Mode: 0
LetterboxInBreaks: 0
WidescreenStoryboard: 1

[Editor]
Bookmarks: 19336,30122,75965
DistanceSpacing: 1.3
BeatDivisor: 4
GridSize: 4
TimelineZoom: 1.4

[Metadata]
Title:Ambiguous (TV Size)
TitleUnicode:Ambiguous (TV Size)
Artist:GARNiDELiA
ArtistUnicode:GARNiDELiA
Creator:marty45
Version:Light Insane
Source:キルラキル
Tags:kill la kill opening Katou Yuu Trigger meg rock toku MARiA Matoi Ryuko Senketsu Muukeh HighTec
BeatmapID:822964
BeatmapSetID:367599

[Difficulty]
HPDrainRate:6
CircleSize:4
OverallDifficulty:6.5
ApproachRate:8.5
SliderMultiplier:1.8
SliderTickRate:2

[Events]
//Background and Video events
0,0,"BG.jpg",0,0
//Break Periods
//Storyboard Layer 0 (Background)
//Storyboard Layer 1 (Fail)
//Storyboard Layer 2 (Pass)
//Storyboard Layer 3 (Foreground)
//Storyboard Sound Samples

[TimingPoints]
460,337.078651685393,4,1,2,75,1,0
460,-133.333333333333,4,2,2,75,0,0
5937,-100,4,2,1,10,0,0
8044,-100,4,1,2,75,0,0
18156,-100,4,1,2,60,0,0
18830,-166.666666666667,4,1,2,60,0,0
19167,-100,4,2,1,60,0,0
29785,-100,4,2,2,65,0,0
30122,-100,4,1,2,70,0,0
35263,-100,4,1,2,70,0,0
35347,-100,4,1,2,70,0,0
36695,-100,4,1,2,60,0,0
40740,-100,4,2,2,65,0,0
41077,-133.333333333333,4,2,2,65,0,0
48830,-133.333333333333,4,2,2,75,0,0
51021,-166.666666666667,4,2,2,75,0,0
51358,-166.666666666667,4,2,2,100,0,0
51695,-100,4,1,2,80,0,1
61555,-100,4,1,2,90,0,1
67875,-100,4,1,0,90,0,1
68212,-100,4,1,2,90,0,1
73268,-100,4,1,2,80,0,0
82875,-100,4,1,1,75,0,0
83549,-166.666666666667,4,1,2,75,0,0
84392,-100,4,1,2,75,0,0
84729,-100,4,1,2,75,0,0
85235,-100,4,1,2,75,0,0
88100,-100,4,1,2,10,0,0

[HitObjects]
388,228,460,6,0,P|388:140|352:100,1,135.000005149842,2|2,0:0|0:0,0:0:0:0:
216,68,965,2,2,P|160:84|88:120,1,135.000005149842,2|2,0:0|0:0,0:0:0:0:
168,228,1639,2,0,L|168:364,1,135.000005149842,2|2,0:0|0:0,0:0:0:0:
168,160,2313,2,2,P|168:104|216:36,1,135.000005149842,2|0,0:0|0:0,0:0:0:0:
396,152,3156,6,2,P|396:196|356:280,1,135.000005149842,2|0,0:0|0:0,0:0:0:0:
272,316,3662,2,0,P|228:292|212:268,1,67.5000025749208,2|0,0:0|0:0,0:0:0:0:
140,160,3999,2,0,P|176:172|212:160,1,67.5000025749208,2|0,0:0|0:0,0:0:0:0:
312,104,4336,1,2,0:0:0:0:
252,240,4673,2,2,P|228:268|136:284,1,135.000005149842,2|2,0:0|0:0,0:0:0:0:
112,168,5347,2,2,P|136:128|220:108,1,135.000005149842,2|2,0:0|0:0,0:0:0:0:
296,164,5853,1,2,0:0:0:0:
256,192,5937,12,0,7875,0:0:0:0:
256,112,8044,6,0,P|256:176|256:212,1,90,0|8,3:0|0:0,0:0:0:0:
140,278,8549,6,0,P|124:231|136:191,1,90,4|0,0:0|0:0,0:0:0:0:
188,100,8886,1,8,0:0:0:0:
295,112,9055,2,0,P|330:144|350:183,1,90,2|0,0:0|0:0,0:0:0:0:
322,282,9392,2,0,P|275:294|239:278,1,90,2|8,0:0|0:0,0:0:0:0:
247,160,9729,2,0,P|299:140|334:140,1,90,4|0,0:0|0:0,0:0:0:0:
441,183,10066,5,0,0:0:0:0:
346,290,10235,1,8,0:0:0:0:
338,148,10403,2,0,P|338:100|342:57,1,90,2|0,0:0|0:0,0:0:0:0:
259,92,10740,2,0,P|255:148|263:183,1,90,2|8,0:0|0:0,0:0:0:0:
271,310,11077,1,2,0:0:0:0:
180,223,11246,1,4,0:0:0:0:
85,278,11415,2,0,P|53:318|61:354,1,90,0|8,0:0|0:0,0:0:0:0:
97,207,11752,6,0,P|128:172|168:168,1,90,2|0,0:0|0:0,0:0:0:0:
239,88,12089,1,2,0:0:0:0:
231,203,12257,2,0,P|216:259|196:286,1,90,8|4,0:0|0:0,0:0:0:0:
77,215,12594,2,0,P|73:168|93:120,1,90,0|2,0:0|0:0,0:0:0:0:
208,65,12931,2,0,P|251:69|295:88,1,90,8|2,0:0|0:0,0:0:0:0:
315,215,13268,2,0,L|315:310,1,90,8|10,0:0|0:0,0:0:0:0:
200,263,13606,2,0,L|200:168,1,90,10|10,0:0|0:0,0:0:0:0:
144,88,13943,5,4,0:0:0:0:
61,179,14111,1,0,0:0:0:0:
121,290,14280,2,0,P|164:318|204:319,1,90,8|2,0:0|0:0,0:0:0:0:
271,219,14617,1,0,0:0:0:0:
394,243,14785,1,2,0:0:0:0:
322,140,14954,2,0,P|287:108|248:88,1,90,8|4,0:0|0:0,0:0:0:0:
128,69,15291,1,0,0:0:0:0:
117,191,15459,6,0,P|148:235|196:255,2,90,2|8|2,0:0|0:0|0:0,0:0:0:0:
61,80,15965,1,0,0:0:0:0:
172,21,16134,1,2,0:0:0:0:
279,84,16302,2,0,P|315:124|330:164,1,90,10|2,0:0|0:0,0:0:0:0:
315,282,16639,2,0,P|287:326|247:346,1,90,4|0,0:0|0:0,0:0:0:0:
204,207,16976,2,0,P|220:160|255:128,1,90,8|2,0:0|0:0,0:0:0:0:
208,33,17313,1,0,0:0:0:0:
140,136,17482,5,2,0:0:0:0:
255,84,17651,2,0,P|299:76|342:88,1,90,8|4,0:0|0:0,0:0:0:0:
134,109,17988,5,0,0:0:0:0:
260,110,18157,2,0,P|303:122|337:151,1,90,2|8,0:0|0:0,0:0:0:0:
322,267,18493,2,0,P|295:302|247:318,1,90,2|2,0:0|0:0,0:0:0:0:
172,231,18830,6,0,P|152:187|172:112,1,107.999996704102,2|2,0:0|0:0,0:0:0:0:
160,130,19336,6,0,P|216:136|312:208,1,180,2|2,0:0|0:0,0:0:0:0:
316,316,19842,2,0,P|280:348|240:352,1,90,0|2,0:0|0:0,0:0:0:0:
160,276,20179,1,0,0:0:0:0:
176,168,20347,1,2,0:0:0:0:
272,120,20516,2,0,P|320:108|360:108,1,90,2|0,0:0|0:0,0:0:0:0:
312,204,20853,2,0,P|264:224|220:220,1,90,2|0,0:0|0:0,0:0:0:0:
140,136,21190,2,0,P|132:88|144:48,1,90,2|0,0:0|0:0,0:0:0:0:
104,184,21527,5,0,0:0:0:0:
156,280,21695,2,0,P|200:316|236:324,1,90,2|2,0:0|0:0,0:0:0:0:
328,276,22033,1,0,0:0:0:0:
360,172,22201,2,0,P|364:124|352:80,1,90,2|0,0:0|0:0,0:0:0:0:
256,36,22538,1,2,0:0:0:0:
268,144,22707,2,0,P|268:208|268:240,1,90,2|0,0:0|0:0,0:0:0:0:
256,340,23044,6,0,P|200:336|168:324,1,90,2|0,0:0|0:0,0:0:0:0:
272,272,23381,2,0,P|356:256|368:248,1,90,2|0,0:0|0:0,0:0:0:0:
244,208,23718,2,0,P|196:204|156:188,1,90,2|0,0:0|0:0,0:0:0:0:
252,136,24055,5,2,0:0:0:0:
304,124,24392,5,2,0:0:0:0:
256,240,24729,6,6,P|208:264|168:272,1,90,2|0,0:0|0:0,0:0:0:0:
84,212,25066,1,2,0:0:0:0:
104,104,25235,1,0,0:0:0:0:
196,48,25403,2,2,P|256:44|288:56,1,90,2|0,0:0|0:0,0:0:0:0:
360,132,25740,1,2,0:0:0:0:
256,104,25909,1,0,0:0:0:0:
152,128,26077,2,2,P|112:168|100:200,1,90,2|0,0:0|0:0,0:0:0:0:
80,304,26415,2,2,P|100:348|128:388,1,90,2|0,0:0|0:0,0:0:0:0:
208,316,26752,6,0,P|212:268|192:228,1,90,2|2,0:0|0:0,0:0:0:0:
160,200,27004,1,0,0:0:0:0:
124,172,27089,2,0,P|96:136|84:88,1,90,2|0,0:0|0:0,0:0:0:0:
160,32,27426,2,0,P|224:48|248:60,1,90,2|0,0:0|0:0,0:0:0:0:
328,128,27763,1,2,0:0:0:0:
320,236,27931,2,0,P|272:300|252:312,1,90,0|2,0:0|0:0,0:0:0:0:
184,236,28268,1,0,0:0:0:0:
184,236,28353,1,0,0:0:0:0:
184,236,28437,6,0,P|184:188|188:128,1,90,2|2,0:0|0:0,0:0:0:0:
204,40,28774,1,2,0:0:0:0:
268,128,28943,2,0,P|292:172|300:224,1,90,0|2,0:0|0:0,0:0:0:0:
184,236,29280,2,0,P|144:184|144:152,1,90,0|10,0:0|0:0,0:0:0:0:
132,52,29617,2,0,P|104:100|104:144,1,90,0|10,0:0|0:3,0:0:0:0:
104,128,30122,6,0,P|168:168|256:128,1,180,4|8,0:0|0:0,0:0:0:0:
324,44,30628,2,0,P|332:92|328:140,1,90,0|2,0:0|0:0,0:0:0:0:
288,232,30965,2,0,P|208:232|180:236,1,90,0|8,0:0|0:0,0:0:0:0:
192,336,31302,2,0,P|248:344|284:332,1,90,0|2,0:0|0:0,0:0:0:0:
328,236,31639,2,0,P|328:168|328:128,1,90,0|8,0:0|0:0,0:0:0:0:
220,168,31976,2,0,L|220:268,1,90,2|0,0:0|0:0,0:0:0:0:
112,240,32313,2,0,L|112:144,1,90,0|8,0:0|0:0,0:0:0:0:
132,44,32651,5,0,0:0:0:0:
172,144,32819,1,2,0:0:0:0:
240,60,32988,2,0,P|280:24|408:48,1,180,2|2,0:0|0:0,0:0:0:0:
432,140,33493,2,0,P|416:184|380:216,1,90,0|0,0:0|0:0,0:0:0:0:
276,208,33830,1,8,0:0:0:0:
172,184,33999,1,0,0:0:0:0:
80,240,34167,2,0,P|64:288|72:332,1,90,2|0,0:0|0:0,0:0:0:0:
176,304,34504,2,0,P|220:260|232:224,1,90,8|0,0:0|0:0,0:0:0:0:
248,128,34842,5,2,0:0:0:0:
160,64,35010,1,0,0:0:0:0:
68,120,35179,2,0,P|16:172|0:196,1,90,12|0,0:0|0:0,0:0:0:0:
64,276,35516,1,4,0:0:0:0:
148,344,35684,1,0,0:0:0:0:
240,284,35853,1,8,0:0:0:0:
280,184,36021,2,0,P|300:136|332:108,1,90,2|0,0:0|0:0,0:0:0:0:
428,68,36358,5,0,0:0:0:0:
380,164,36527,1,8,0:0:0:0:
280,200,36695,2,0,P|196:224|168:232,1,90,2|2,0:0|0:0,0:0:0:0:
120,304,37033,1,2,0:0:0:0:
204,368,37201,1,0,0:0:0:0:
172,264,37370,6,0,P|152:204|144:168,1,90,2|0,0:0|0:0,0:0:0:0:
76,96,37707,2,0,P|120:72|164:72,1,90,0|8,0:0|0:0,0:0:0:0:
204,92,37959,1,0,0:0:0:0:
244,128,38044,2,0,P|272:184|276:220,1,90,0|2,0:0|0:0,0:0:0:0:
276,320,38381,2,0,P|252:368|220:380,1,90,0|8,0:0|0:0,0:0:0:0:
136,308,38718,1,0,0:0:0:0:
176,208,38886,1,2,0:0:0:0:
284,208,39055,6,0,L|384:208,1,90,0|8,0:0|0:0,0:0:0:0:
228,240,39392,2,0,P|168:248|136:244,1,90,2|2,0:0|0:0,0:0:0:0:
252,156,39729,2,0,P|300:128|348:120,1,90,0|8,0:0|0:0,0:0:0:0:
344,228,40066,1,0,0:0:0:0:
256,288,40235,2,0,P|200:300|80:264,1,180,2|8,0:0|0:0,0:0:0:0:
64,184,40740,6,0,P|76:132|56:88,1,90,4|0,0:0|0:0,0:0:0:0:
104,200,41077,2,0,P|96:156|116:108,1,67.5000025749208,0|2,0:0|0:0,0:0:0:0:
152,224,41415,2,0,P|140:180|112:168,1,67.5000025749208,2|8,0:0|0:0,0:0:0:0:
152,256,41752,6,0,P|176:208|212:196,1,67.5000025749208,2|0,0:0|0:0,0:0:0:0:
256,164,42089,1,2,0:0:0:0:
328,200,42257,1,0,0:0:0:0:
348,280,42426,6,0,P|356:344|348:360,1,67.5000025749208,0|2,0:0|0:0,0:0:0:0:
372,244,42763,2,0,P|376:304|388:328,1,67.5000025749208,0|8,0:0|0:0,0:0:0:0:
348,212,43100,2,0,P|348:264|336:280,1,67.5000025749208,0|0,0:0|0:0,0:0:0:0:
332,176,43437,6,0,P|304:208|256:200,1,67.5000025749208,4|0,0:0|0:0,0:0:0:0:
200,268,43774,1,0,0:0:0:0:
116,212,43943,1,2,0:0:0:0:
140,116,44111,6,0,P|104:108|75:120,1,67.5000025749208,2|8,0:0|0:0,0:0:0:0:
172,88,44448,2,0,P|132:96|100:68,1,67.5000025749208,2|0,0:0|0:0,0:0:0:0:
208,116,44785,2,0,P|164:108|136:128,1,67.5000025749208,4|0,0:0|0:0,0:0:0:0:
240,80,45122,2,0,P|192:84|168:60,1,67.5000025749208,0|2,0:0|0:0,0:0:0:0:
272,108,45459,6,0,P|240:152|248:184,1,67.5000025749208,0|8,0:0|0:0,0:0:0:0:
260,260,45797,1,0,0:0:0:0:
348,308,45965,1,0,0:0:0:0:
412,228,46134,6,0,P|440:200|472:196,1,67.5000025749208,4|0,0:0|0:0,0:0:0:0:
364,192,46471,2,0,P|396:216|448:196,1,67.5000025749208,0|2,0:0|0:0,0:0:0:0:
320,228,46808,2,0,P|368:224|384:208,1,67.5000025749208,2|8,0:0|0:0,0:0:0:0:
280,192,47145,2,0,P|336:200|356:228,1,67.5000025749208,2|0,0:0|0:0,0:0:0:0:
260,268,47482,1,4,0:0:0:0:
192,312,47651,1,0,0:0:0:0:
96,276,47819,1,2,0:0:0:0:
180,216,47988,1,0,0:0:0:0:
92,168,48156,1,2,0:0:0:0:
192,112,48325,1,0,0:0:0:0:
288,152,48493,6,0,P|300:208|296:220,1,67.5000025749208,2|0,0:0|0:0,0:0:0:0:
200,244,48830,2,0,P|256:244|296:244,1,67.5000025749208,4|0,0:0|0:0,0:0:0:0:
176,204,49167,2,0,L|272:204,1,67.5000025749208,2|0,0:0|0:0,0:0:0:0:
148,164,49504,2,0,P|204:164|244:164,1,67.5000025749208,2|8,0:0|0:0,0:0:0:0:
124,124,49841,2,0,L|220:124,1,67.5000025749208,2|0,0:0|0:0,0:0:0:0:
100,84,50179,2,0,L|244:84,1,135.000005149842,4|8,0:0|0:0,0:0:0:0:
320,140,50684,1,8,0:0:0:0:
248,212,50853,1,0,0:0:0:0:
328,220,51021,6,0,P|384:220|420:184,1,107.999996704102,0|6,0:0|0:0,0:0:0:0:
328,256,51695,6,0,P|365:212|486:216,1,180,4|8,0:0|0:0,0:0:0:0:
502,321,52201,2,0,P|457:357|393:369,1,90,2|0,0:0|0:0,0:0:0:0:
457,264,52538,2,0,P|393:321|377:325,1,90,2|8,0:0|0:0,0:0:0:0:
288,288,52875,1,2,0:0:0:0:
215,208,53044,1,0,0:0:0:0:
175,107,53212,2,0,P|139:70|131:30,1,90,2|8,0:0|0:0,0:0:0:0:
215,103,53549,2,0,P|175:74|135:66,1,90,2|0,0:0|0:0,0:0:0:0:
215,139,53886,2,0,P|147:135|74:216,1,180,2|2,0:0|0:0,0:0:0:0:
131,308,54392,5,4,0:0:0:0:
207,232,54561,2,0,P|244:191|260:151,2,90,0|8|2,0:0|0:0|0:0,0:0:0:0:
126,308,55066,1,0,0:0:0:0:
54,228,55235,1,2,0:0:0:0:
118,143,55403,1,8,0:0:0:0:
215,191,55572,2,0,B|255:222|255:222|260:304|348:288,1,180,2|0,0:0|0:0,0:0:0:0:
417,208,56077,5,8,0:0:0:0:
357,115,56246,2,0,P|308:103|227:99,1,90,2|0,0:0|0:0,0:0:0:0:
244,204,56583,2,0,P|292:216|373:220,1,90,2|8,0:0|0:0,0:0:0:0:
409,143,56920,2,0,P|417:87|381:50,1,90,0|4,0:0|0:0,0:0:0:0:
494,95,57257,2,0,P|515:132|495:171,1,90,0|8,0:0|0:0,0:0:0:0:
401,187,57594,5,2,0:0:0:0:
320,111,57763,1,0,0:0:0:0:
260,200,57931,1,2,0:0:0:0:
175,268,58100,2,0,P|122:296|70:284,2,90,8|2|0,0:0|0:0|0:0,0:0:0:0:
260,200,58606,1,0,0:0:0:0:
276,91,58774,2,0,P|276:38|248:6,1,90,8|2,0:0|0:0,0:0:0:0:
159,62,59111,2,0,P|159:115|187:147,1,90,0|2,0:0|0:0,0:0:0:0:
260,220,59448,2,0,P|312:224|357:220,1,90,8|2,0:0|0:0,0:0:0:0:
413,131,59785,6,0,P|413:87|409:78,2,45,4|0|0,0:0|0:0|0:0,0:0:0:0:
381,236,60122,2,0,P|369:280|336:317,1,90,8|2,0:0|0:0,0:0:0:0:
239,272,60459,1,0,0:0:0:0:
151,208,60628,2,0,P|98:187|86:143,1,90,2|8,0:0|0:0,0:0:0:0:
195,167,60965,1,2,0:0:0:0:
292,119,61134,2,0,P|344:99|357:54,1,90,0|8,0:0|0:0,0:0:0:0:
256,111,61471,6,0,L|211:127,3,45,8|0|0|0,0:0|0:0|0:0|0:0,0:0:0:0:
171,159,61808,2,0,L|147:200,3,45,4|0|8|0,0:0|0:0|0:0|0:0,0:0:0:0:
155,252,62145,2,0,L|175:304,3,45,8|0|0|0,0:0|0:0|0:0|0:0,0:0:0:0:
215,325,62482,6,0,P|268:337|369:260,1,180,4|8,0:0|0:0,0:0:0:0:
373,159,62988,2,0,P|312:151|260:163,1,90,2|0,0:0|0:0,0:0:0:0:
248,260,63325,2,0,P|308:268|361:256,1,90,2|8,0:0|0:0,0:0:0:0:
413,187,63662,2,0,P|409:103|389:87,1,90,2|0,0:0|0:0,0:0:0:0:
304,135,63999,2,0,P|308:220|328:236,1,90,2|8,0:0|0:0,0:0:0:0:
344,321,64336,2,0,P|260:317|244:296,1,90,2|0,0:0|0:0,0:0:0:0:
183,240,64673,2,0,P|183:171|260:91,1,180,2|2,0:0|0:0,0:0:0:0:
365,91,65179,6,0,P|397:127|409:171,1,90,4|0,0:0|0:0,0:0:0:0:
373,268,65516,1,8,0:0:0:0:
268,240,65684,2,0,P|235:204|223:159,1,90,2|0,0:0|0:0,0:0:0:0:
147,87,66021,2,0,P|118:131|126:208,1,90,2|8,0:0|0:0,0:0:0:0:
156,268,66358,5,4,0:0:0:0:
408,112,66695,5,4,0:0:0:0:
124,56,67033,5,4,0:0:0:0:
256,288,67370,5,12,0:0:0:0:
288,36,67707,5,8,3:0:0:0:
288,34,67875,2,0,P|284:127|256:220,1,180,4|8,0:0|0:0,0:0:0:0:
215,313,68381,5,0,0:0:0:0:
131,244,68549,1,2,0:0:0:0:
155,139,68718,2,0,P|195:66|211:58,1,90,0|8,0:0|0:0,0:0:0:0:
300,26,69055,2,0,P|361:82|365:100,1,90,4|0,0:0|0:0,0:0:0:0:
369,195,69392,1,0,0:0:0:0:
296,276,69561,1,8,0:0:0:0:
191,296,69729,2,0,P|110:317|98:321,2,90,0|0|8,0:0|0:0|0:0,0:0:0:0:
284,240,70235,6,0,P|328:220|361:183,1,90,0|0,0:0|3:0,0:0:0:0:
296,99,70572,2,0,P|252:119|219:155,1,90,4|0,0:0|0:0,0:0:0:0:
203,256,70909,2,0,L|203:353,1,90,8|4,0:0|0:0,0:0:0:0:
102,300,71246,2,0,L|102:200,1,90,0|4,0:0|0:0,0:0:0:0:
131,103,71583,2,0,P|183:87|239:103,1,90,0|4,0:0|0:0,0:0:0:0:
244,200,71920,2,0,P|191:216|135:200,1,90,0|4,0:0|0:0,0:0:0:0:
62,155,72257,1,0,0:0:0:0:
139,78,72426,1,4,0:0:0:0:
235,127,72594,1,0,0:0:0:0:
272,232,72763,2,0,P|284:276|280:333,2,90,0|0|0,0:0|0:0|0:0,0:0:0:0:
227,131,73268,6,0,P|187:87|155:74,1,90,4|0,0:0|0:0,0:0:0:0:
86,159,73606,2,0,P|126:204|159:216,1,90,8|2,0:0|0:0,0:0:0:0:
260,187,73943,1,0,0:0:0:0:
357,236,74111,1,2,0:0:0:0:
397,337,74280,1,8,0:0:0:0:
292,357,74448,2,0,P|199:365|191:361,1,90,4|0,0:0|0:0,0:0:0:0:
122,292,74785,1,2,0:0:0:0:
147,187,74954,2,0,P|191:135|219:127,1,90,8|2,0:0|0:0,0:0:0:0:
308,78,75291,5,0,0:0:0:0:
361,175,75459,1,2,0:0:0:0:
252,159,75628,1,12,0:0:0:0:
143,179,75797,2,0,P|86:195|46:252,1,90,0|4,0:0|0:0,0:0:0:0:
86,325,76134,1,0,0:0:0:0:
191,357,76302,1,8,0:0:0:0:
260,272,76471,2,0,P|292:216|296:183,1,90,2|0,0:0|0:0,0:0:0:0:
268,87,76808,1,2,0:0:0:0:
163,66,76976,2,0,P|110:111|102:167,1,90,8|4,0:0|0:0,0:0:0:0:
159,224,77313,5,0,0:0:0:0:
102,317,77482,1,2,0:0:0:0:
18,248,77651,1,8,0:0:0:0:
66,151,77819,2,0,P|131:99|163:99,1,90,0|2,0:0|0:0,0:0:0:0:
231,147,78156,2,0,P|167:200|135:200,1,90,8|8,0:0|0:0,0:0:0:0:
90,284,78493,1,8,0:0:0:0:
167,361,78662,2,0,P|215:329|244:268,1,90,4|0,0:0|0:0,0:0:0:0:
268,200,78999,5,8,0:0:0:0:
292,304,79167,1,2,0:0:0:0:
361,220,79336,2,0,P|401:183|441:175,1,90,0|2,0:0|0:0,0:0:0:0:
461,70,79673,1,8,0:0:0:0:
352,66,79842,6,0,P|276:82|252:103,1,90,4|0,0:0|0:0,0:0:0:0:
227,191,80179,2,0,P|268:159|304:115,1,90,2|8,0:0|0:0,0:0:0:0:
300,22,80516,2,0,P|280:78|280:135,1,90,2|0,0:0|0:0,0:0:0:0:
312,212,80853,2,0,P|272:151|239:135,1,90,2|8,0:0|0:0,0:0:0:0:
159,99,81190,1,0,0:0:0:0:
62,151,81358,1,4,0:0:0:0:
74,260,81527,6,0,P|94:304|223:337,1,180,0|2,0:0|0:0,0:0:0:0:
304,280,82033,2,0,L|348:236,2,45,0|0|2,0:0|0:0|0:0,0:0:0:0:
195,264,82370,5,8,0:0:0:0:
312,195,82538,1,4,0:0:0:0:
175,175,82707,1,0,0:0:0:0:
300,127,82875,2,0,P|381:99|401:99,1,90,2|0,0:0|0:0,0:0:0:0:
248,82,83212,2,0,P|167:54|147:54,1,90,8|8,0:0|3:0,0:0:0:0:
110,151,83549,6,0,P|102:191|118:268,1,107.999996704102,2|0,0:0|0:0,0:0:0:0:
139,280,83971,5,8,3:0:0:0:
171,292,84055,1,8,3:0:0:0:
308,204,84224,5,10,0:0:0:0:
151,159,84392,2,0,P|110:187|86:228,1,90,8|2,0:0|0:0,0:0:0:0:
191,337,84729,1,8,0:0:0:0:
312,240,84898,2,0,P|340:187|296:74,1,180,10|4,0:0|0:0,0:0:0:0:
256,192,85403,12,0,88100,0:0:0:0:
