osu file format v14

[General]
AudioFilename: KIll la kill OP 2.mp3
AudioLeadIn: 0
PreviewTime: 51358
Countdown: 0
SampleSet: Normal
StackLeniency: 0.7
Mode: 0
LetterboxInBreaks: 0
WidescreenStoryboard: 0

[Editor]
Bookmarks: 75965
DistanceSpacing: 1.2
BeatDivisor: 4
GridSize: 4
TimelineZoom: 1.4

[Metadata]
Title:Ambiguous (TV Size)
TitleUnicode:Ambiguous (TV Size)
Artist:GARNiDELiA
ArtistUnicode:GARNiDELiA
Creator:marty45
Version:Extra
Source:キルラキル
Tags:kill la kill opening Katou Yuu Trigger meg rock toku MARiA Matoi Ryuko Senketsu Muukeh HighTec
BeatmapID:806262
BeatmapSetID:367599

[Difficulty]
HPDrainRate:6
CircleSize:4
OverallDifficulty:8
ApproachRate:9.2
SliderMultiplier:1.8
SliderTickRate:2

[Events]
//Background and Video events
0,0,"BG.jpg",0,0
//Break Periods
//Storyboard Layer 0 (Background)
//Storyboard Layer 1 (Fail)
//Storyboard Layer 2 (Pass)
//Storyboard Layer 3 (Foreground)
//Storyboard Sound Samples

[TimingPoints]
460,337.078651685393,4,2,2,75,1,0
460,-133.333333333333,4,2,2,75,0,0
5937,-100,4,2,1,10,0,0
8044,-100,4,1,2,75,0,0
18156,-100,4,1,2,60,0,0
18830,-166.666666666667,4,1,2,60,0,0
19167,-100,4,2,1,60,0,0
29785,-100,4,2,2,65,0,0
30122,-100,4,1,2,70,0,0
35263,-100,4,1,2,70,0,0
35347,-100,4,1,2,70,0,0
36695,-100,4,1,2,60,0,0
40740,-100,4,2,2,65,0,0
41077,-133.333333333333,4,2,2,65,0,0
48830,-133.333333333333,4,2,2,75,0,0
51021,-166.666666666667,4,2,2,75,0,0
51358,-166.666666666667,4,2,2,100,0,0
51695,-100,4,1,2,80,0,1
61555,-100,4,1,2,90,0,1
67875,-100,4,1,0,90,0,1
68212,-100,4,1,2,90,0,1
73268,-100,4,1,2,80,0,0
82875,-100,4,1,1,75,0,0
83549,-166.666666666667,4,1,2,75,0,0
85235,-100,4,1,2,75,0,0
88100,-100,4,1,2,10,0,0

[HitObjects]
392,228,460,6,2,P|392:176|360:96,1,135.000005149842
256,40,965,2,0,P|244:80|228:136,1,67.5000025749208,2|0,0:0|0:0,0:0:0:0:
192,248,1302,1,2,0:0:0:0:
324,316,1471,1,0,0:0:0:0:
336,160,1639,2,2,P|316:88|244:48,1,135.000005149842
100,208,2145,2,0,P|128:256|160:284,1,67.5000025749208,0|2,0:0|0:0,0:0:0:0:
220,320,2482,2,0,P|276:276|336:208,1,135.000005149842,2|2,0:0|0:0,0:0:0:0:
392,100,3156,5,2,0:0:0:0:
292,40,3325,1,2,0:0:0:0:
200,128,3493,2,0,P|196:176|200:216,1,67.5000025749208,0|2,0:0|0:0,0:0:0:0:
256,320,3830,1,0,0:0:0:0:
368,192,3999,2,0,L|392:96,1,67.5000025749208,2|0,0:0|0:0,0:0:0:0:
336,308,4336,2,0,P|320:344|284:384,1,67.5000025749208,2|0,0:0|0:0,0:0:0:0:
296,160,4673,2,2,P|272:92|212:48,1,135.000005149842
104,100,5179,1,0,0:0:0:0:
92,228,5347,2,2,P|128:236|212:176,1,135.000005149842
240,64,5853,1,2,0:0:0:0:
256,192,5937,12,0,7875,0:0:0:0:
256,96,8044,6,0,L|256:196,1,90,0|8,3:0|0:0,0:0:0:0:
88,224,8549,5,4,0:0:0:0:
260,312,8718,1,0,0:0:0:0:
160,144,8886,1,8,0:0:0:0:
332,132,9055,2,0,P|388:108|420:88,1,90,2|0,0:0|0:0,0:0:0:0:
216,192,9392,1,2,0:0:0:0:
344,232,9561,2,0,P|432:248|452:240,1,90,8|4,0:0|0:0,0:0:0:0:
176,96,9898,1,0,0:0:0:0:
392,108,10066,1,0,0:0:0:0:
428,144,10151,1,0,0:0:0:0:
448,188,10235,2,0,P|460:244|440:284,1,90,8|2,0:0|0:0,0:0:0:0:
216,268,10572,6,0,P|152:224|136:196,1,90,0|2,0:0|0:0,0:0:0:0:
332,224,10909,1,8,0:0:0:0:
392,84,11077,1,2,0:0:0:0:
236,32,11246,1,4,0:0:0:0:
164,172,11415,2,0,P|152:220|152:276,1,90,0|8,0:0|0:0,0:0:0:0:
284,344,11752,2,0,P|336:344|384:312,1,90,2|0,0:0|0:0,0:0:0:0:
288,160,12089,1,2,0:0:0:0:
136,80,12257,1,8,0:0:0:0:
124,260,12426,6,0,P|172:312|296:296,1,180,4|2,0:0|0:0,0:0:0:0:
384,256,12931,2,0,P|392:168|376:132,1,90,8|2,0:0|0:0,0:0:0:0:
280,44,13268,1,8,0:0:0:0:
104,144,13437,1,10,0:0:0:0:
76,184,13521,1,0,0:0:0:0:
64,232,13606,1,10,0:0:0:0:
68,280,13690,1,0,0:0:0:0:
88,324,13774,1,10,0:0:0:0:
124,356,13858,1,0,0:0:0:0:
172,368,13943,6,0,P|224:360|280:308,1,90,4|0,0:0|0:0,0:0:0:0:
416,224,14280,2,0,P|416:168|396:124,1,90,8|2,0:0|0:0,0:0:0:0:
232,40,14617,1,0,0:0:0:0:
104,176,14785,1,2,0:0:0:0:
180,308,14954,2,0,P|208:264|244:192,1,90,8|4,0:0|0:0,0:0:0:0:
224,24,15291,2,0,P|172:64|148:96,1,90,0|2,0:0|0:0,0:0:0:0:
240,348,15628,2,0,P|288:288|296:256,1,90,8|2,0:0|0:0,0:0:0:0:
284,60,15965,1,0,0:0:0:0:
96,108,16134,1,2,0:0:0:0:
140,296,16302,1,10,0:0:0:0:
364,260,16471,6,0,P|396:212|416:160,1,90,2|4,0:0|0:0,0:0:0:0:
392,48,16808,1,0,0:0:0:0:
240,184,16976,2,0,L|172:248,1,90,8|2,0:0|0:0,0:0:0:0:
408,104,17313,1,0,0:0:0:0:
172,164,17482,2,0,L|80:192,1,90,2|8,0:0|0:0,0:0:0:0:
444,156,17819,1,4,0:0:0:0:
480,192,17903,1,0,0:0:0:0:
512,232,17988,1,0,0:0:0:0:
312,124,18156,6,0,P|260:96|200:72,1,90,2|8,0:0|0:0,0:0:0:0:
56,152,18493,1,2,0:0:0:0:
124,332,18662,1,2,0:0:0:0:
276,192,18830,6,0,P|312:152|340:80,1,107.999996704102,2|2,0:0|0:0,0:0:0:0:
208,80,19336,6,0,P|164:100|128:136,1,90,2|0,0:0|0:0,0:0:0:0:
132,296,19673,1,2,0:0:0:0:
280,332,19842,1,0,0:0:0:0:
408,228,20010,2,0,P|412:144|332:60,1,180,2|2,0:0|0:0,0:0:0:0:
208,80,20516,2,0,P|192:140|192:196,1,90,2|0,0:0|0:0,0:0:0:0:
200,324,20853,1,2,0:0:0:0:
336,176,21021,1,0,0:0:0:0:
152,52,21190,2,0,P|100:80|76:116,1,90,2|0,0:0|0:0,0:0:0:0:
104,264,21527,1,0,0:0:0:0:
292,344,21695,1,2,0:0:0:0:
424,184,21864,2,2,P|416:96|332:40,2,180
308,324,22707,6,0,L|208:324,1,90,2|0,0:0|0:0,0:0:0:0:
148,216,23044,2,0,L|240:216,1,90,2|0,0:0|0:0,0:0:0:0:
392,156,23381,2,0,P|400:88|392:52,1,90,2|0,0:0|0:0,0:0:0:0:
208,132,23718,1,2,0:0:0:0:
96,308,23886,1,0,0:0:0:0:
320,216,24055,1,2,0:0:0:0:
104,160,24224,1,0,0:0:0:0:
296,316,24392,2,0,L|420:344,1,90,2|0,0:0|0:0,0:0:0:0:
432,320,24645,1,2,0:0:0:0:
460,280,24729,6,0,P|468:232|456:172,1,90,2|0,0:0|0:0,0:0:0:0:
376,72,25066,1,2,0:0:0:0:
208,168,25235,1,0,0:0:0:0:
400,280,25403,1,2,0:0:0:0:
428,116,25572,2,0,L|416:24,1,90,0|2,0:0|0:0,0:0:0:0:
256,112,25909,2,0,P|252:156|256:204,1,90,0|2,0:0|0:0,0:0:0:0:
308,348,26246,1,0,0:0:0:0:
108,280,26415,1,2,0:0:0:0:
320,152,26583,1,0,0:0:0:0:
136,64,26752,2,0,L|40:24,1,90,2|2,0:0|0:0,0:0:0:0:
208,244,27089,6,0,L|340:296,1,135,2|0,0:0|0:0,0:0:0:0:
396,304,27426,2,0,P|424:240|436:192,1,90,2|0,0:0|0:0,0:0:0:0:
428,56,27763,1,2,0:0:0:0:
276,64,27931,1,0,0:0:0:0:
176,196,28100,1,2,0:0:0:0:
276,64,28268,6,0,P|372:44|400:52,1,90,0|2,0:0|0:0,0:0:0:0:
464,168,28606,1,2,0:0:0:0:
476,216,28690,1,2,0:0:0:0:
476,264,28774,2,0,P|472:312|460:376,1,90,2|0,0:0|0:0,0:0:0:0:
352,192,29111,2,0,L|352:92,1,90,2|0,0:0|0:0,0:0:0:0:
208,256,29448,2,0,L|208:352,1,90,10|0,0:0|0:0,0:0:0:0:
136,104,29785,1,10,0:3:0:0:
136,104,30122,6,0,P|176:72|308:64,1,180,4|8,0:0|0:0,0:0:0:0:
408,108,30628,2,0,P|400:164|376:224,1,90,0|2,0:0|0:0,0:0:0:0:
288,288,30965,2,0,P|276:232|280:176,1,90,0|8,0:0|0:0,0:0:0:0:
264,40,31302,1,0,0:0:0:0:
108,132,31471,1,2,0:0:0:0:
160,300,31639,1,0,0:0:0:0:
288,156,31808,2,0,L|352:68,1,90,8|2,0:0|0:0,0:0:0:0:
488,120,32145,2,0,L|420:228,1,90,0|0,0:0|0:0,0:0:0:0:
236,332,32482,1,8,0:0:0:0:
124,244,32651,6,0,P|96:204|84:140,1,90,0|2,0:0|0:0,0:0:0:0:
192,56,32988,2,0,P|236:92|256:120,1,90,2|8,0:0|0:0,0:0:0:0:
324,284,33325,1,2,0:0:0:0:
136,228,33493,1,0,0:0:0:0:
308,188,33662,1,0,0:0:0:0:
156,320,33830,1,8,0:0:0:0:
212,160,33999,1,0,0:0:0:0:
248,344,34167,2,0,L|244:244,1,90,2|0,0:0|0:0,0:0:0:0:
248,32,34504,2,0,L|248:132,1,90,8|0,0:0|0:0,0:0:0:0:
248,344,34842,6,0,P|248:288|236:248,1,90,2|0,0:0|0:0,0:0:0:0:
172,100,35179,1,12,0:0:0:0:
136,68,35263,1,0,0:0:0:0:
88,60,35347,1,0,0:0:0:0:
40,192,35516,2,0,P|32:240|40:292,1,90,4|0,0:0|0:0,0:0:0:0:
220,332,35853,2,0,P|240:260|236:208,1,90,8|2,0:0|0:0,0:0:0:0:
120,64,36190,1,0,0:0:0:0:
308,208,36358,1,0,0:0:0:0:
88,148,36527,1,8,0:0:0:0:
328,112,36695,1,2,0:0:0:0:
124,248,36864,6,0,P|48:308|44:312,1,90,2|2,0:0|0:0,0:0:0:0:
236,96,37201,1,0,0:0:0:0:
380,160,37370,1,2,0:0:0:0:
232,240,37538,1,0,0:0:0:0:
284,64,37707,1,0,0:0:0:0:
392,244,37875,1,8,0:0:0:0:
160,188,38044,1,0,0:0:0:0:
352,76,38212,1,2,0:0:0:0:
396,100,38297,1,0,0:0:0:0:
432,132,38381,6,0,L|496:200,1,90,0|8,0:0|0:0,0:0:0:0:
224,152,38718,1,0,0:0:0:0:
224,152,38802,1,0,0:0:0:0:
224,152,38886,1,2,0:0:0:0:
416,188,39055,1,0,0:0:0:0:
176,288,39224,1,8,0:0:0:0:
256,72,39392,2,0,P|308:132|320:152,1,90,2|2,0:0|0:0,0:0:0:0:
264,316,39729,2,0,P|224:288|188:248,1,90,0|8,0:0|0:0,0:0:0:0:
104,68,40066,1,0,0:0:0:0:
104,116,40151,1,0,0:0:0:0:
104,164,40235,2,0,P|108:220|152:336,1,180,2|8,0:0|0:0,0:0:0:0:
288,280,40740,6,0,P|292:216|280:96,1,180,4|0,0:0|0:0,0:0:0:0:
152,156,41246,2,0,P|148:208|156:244,1,67.5000025749208,2|2,0:0|0:0,0:0:0:0:
288,348,41583,1,8,0:0:0:0:
400,160,41752,1,2,0:0:0:0:
400,160,41836,1,0,0:0:0:0:
400,160,41920,1,0,0:0:0:0:
180,204,42089,1,2,0:0:0:0:
324,72,42257,1,0,0:0:0:0:
328,260,42426,2,0,L|328:336,1,67.5000025749208,0|2,0:0|0:0,0:0:0:0:
208,164,42763,2,0,L|208:80,1,67.5000025749208,0|8,0:0|0:0,0:0:0:0:
408,224,43100,2,0,L|412:312,1,67.5000025749208,0|0,0:0|0:0,0:0:0:0:
408,116,43437,5,4,0:0:0:0:
408,80,43521,1,0,0:0:0:0:
408,44,43606,1,0,0:0:0:0:
344,240,43774,2,0,P|328:268|296:304,1,67.5000025749208,0|2,0:0|0:0,0:0:0:0:
144,224,44111,1,2,0:0:0:0:
204,76,44280,1,8,0:0:0:0:
344,156,44448,1,2,0:0:0:0:
268,316,44617,2,0,L|264:240,1,67.5000025749208,0|4,0:0|0:0,0:0:0:0:
256,68,44954,2,0,L|256:152,1,67.5000025749208,0|0,0:0|0:0,0:0:0:0:
308,336,45291,1,2,0:0:0:0:
444,208,45459,1,0,0:0:0:0:
224,224,45628,2,0,L|80:224,1,135.000005149842,8|0,0:0|0:0,0:0:0:0:
336,224,46134,5,4,0:0:0:0:
336,224,46218,1,0,0:0:0:0:
336,224,46302,1,0,0:0:0:0:
192,104,46471,2,0,P|140:72|128:64,1,67.5000025749208,0|2,0:0|0:0,0:0:0:0:
136,248,46808,2,0,L|208:284,1,67.5000025749208,2|8,0:0|0:0,0:0:0:0:
392,180,47145,2,0,L|316:132,1,67.5000025749208,2|0,0:0|0:0,0:0:0:0:
168,100,47482,1,4,0:0:0:0:
168,100,47566,1,0,0:0:0:0:
168,100,47651,1,0,0:0:0:0:
188,264,47819,5,2,0:0:0:0:
348,168,47988,1,0,0:0:0:0:
212,80,48156,2,0,P|128:40|120:40,1,101.250003862381,2|0,0:0|0:0,0:0:0:0:
100,100,48493,2,0,P|92:144|96:188,1,67.5000025749208,2|0,0:0|0:0,0:0:0:0:
136,336,48830,2,0,P|172:328|208:304,1,67.5000025749208,4|0,0:0|0:0,0:0:0:0:
324,160,49167,5,2,0:0:0:0:
120,104,49336,1,0,0:0:0:0:
348,80,49504,1,2,0:0:0:0:
120,180,49673,1,8,0:0:0:0:
400,236,49842,5,2,0:0:0:0:
160,40,50010,1,0,0:0:0:0:
288,272,50179,1,4,0:0:0:0:
300,32,50347,1,0,0:0:0:0:
112,264,50516,1,8,0:0:0:0:
392,128,50684,5,8,0:0:0:0:
432,100,50768,1,0,0:0:0:0:
468,136,50852,1,0,0:0:0:0:
456,184,50936,1,0,0:0:0:0:
412,208,51021,1,0,0:0:0:0:
364,228,51105,1,0,0:0:0:0:
336,272,51190,1,0,0:0:0:0:
116,160,51695,6,0,P|112:76|116:40,1,90,4|0,0:0|0:0,0:0:0:0:
256,132,52033,2,0,P|260:200|252:264,1,90,8|2,0:0|0:0,0:0:0:0:
120,312,52370,1,0,0:0:0:0:
232,72,52538,1,2,0:0:0:0:
280,60,52622,1,0,0:0:0:0:
328,72,52707,1,8,0:0:0:0:
384,244,52875,2,0,P|360:292|316:320,1,90,2|0,0:0|0:0,0:0:0:0:
136,168,53212,2,0,P|136:100|144:60,1,90,2|8,0:0|0:0,0:0:0:0:
220,280,53549,5,2,0:0:0:0:
64,180,53718,1,0,0:0:0:0:
280,240,53886,1,2,0:0:0:0:
24,240,54055,1,8,0:0:0:0:
328,184,54224,1,2,0:0:0:0:
96,272,54392,1,4,0:0:0:0:
48,292,54476,1,0,0:0:0:0:
0,312,54561,1,0,0:0:0:0:
128,160,54729,2,0,L|188:64,1,90,8|2,0:0|0:0,0:0:0:0:
388,100,55066,2,0,L|344:212,1,90,0|2,0:0|0:0,0:0:0:0:
196,296,55403,6,0,P|188:244|196:168,1,90,8|2,0:0|0:0,0:0:0:0:
312,56,55740,1,0,0:0:0:0:
408,220,55909,1,0,0:0:0:0:
232,340,56077,1,8,0:0:0:0:
80,208,56246,1,2,0:0:0:0:
56,164,56330,1,0,0:0:0:0:
52,116,56415,2,0,P|56:64|76:24,1,90,0|2,0:0|0:0,0:0:0:0:
160,236,56752,1,8,0:0:0:0:
220,76,56920,2,0,P|244:28|272:-8,1,90,0|4,0:0|0:0,0:0:0:0:
392,160,57257,5,0,0:0:0:0:
256,332,57426,1,8,0:0:0:0:
156,168,57594,1,2,0:0:0:0:
372,260,57763,1,0,0:0:0:0:
216,76,57931,1,2,0:0:0:0:
84,240,58100,2,0,P|72:296|72:336,1,90,8|2,0:0|0:0,0:0:0:0:
228,220,58437,2,0,P|244:156|244:116,1,90,0|0,0:0|0:0,0:0:0:0:
84,64,58774,2,0,P|72:124|72:184,1,90,8|2,0:0|0:0,0:0:0:0:
288,304,59111,2,0,P|308:260|328:192,1,90,0|2,0:0|0:0,0:0:0:0:
264,56,59448,1,8,0:0:0:0:
424,164,59617,1,2,0:0:0:0:
192,224,59785,1,4,0:0:0:0:
144,240,59870,1,0,0:0:0:0:
96,256,59954,1,0,0:0:0:0:
328,152,60122,6,0,P|376:120|412:88,1,90,8|2,0:0|0:0,0:0:0:0:
176,228,60459,1,0,0:0:0:0:
176,228,60628,2,0,P|96:228|56:208,1,90,2|8,0:0|0:0,0:0:0:0:
264,68,60965,1,2,0:0:0:0:
264,68,61134,2,0,P|316:64|368:72,1,90,0|8,0:0|0:0,0:0:0:0:
396,284,61471,2,0,L|344:324,1,45,8|0,0:0|0:0,0:0:0:0:
256,344,61639,2,0,L|264:288,1,45,0|0,0:0|0:0,0:0:0:0:
304,164,61808,2,0,L|248:200,1,45,4|0,0:0|0:0,0:0:0:0:
171,316,61976,2,0,P|167:272|183:208,1,90,8|8,0:0|0:0,0:0:0:0:
264,68,62482,6,0,P|316:52|376:64,1,90,4|0,0:0|0:0,0:0:0:0:
304,224,62820,2,0,P|212:247|184:239,1,90,8|2,0:0|0:0,0:0:0:0:
180,80,63157,2,0,P|212:12|224:0,1,90,0|2,0:0|0:0,0:0:0:0:
368,208,63494,2,0,P|368:264|352:312,2,90,8|2|0,0:0|0:0|0:0,0:0:0:0:
296,48,63999,1,2,0:0:0:0:
128,132,64168,2,0,P|76:180|44:232,1,90,8|2,0:0|0:0,0:0:0:0:
340,260,64505,1,0,0:0:0:0:
140,288,64673,1,2,0:0:0:0:
96,268,64757,1,0,0:0:0:0:
64,228,64842,2,0,P|40:188|28:136,1,90,8|2,0:0|0:0,0:0:0:0:
96,44,65179,6,0,P|148:68|208:176,1,180,4|8,0:0|0:0,0:0:0:0:
148,316,65684,1,2,0:0:0:0:
364,324,65853,1,0,0:0:0:0:
352,112,66021,2,0,L|352:20,1,90,2|8,0:0|0:0,0:0:0:0:
236,184,66358,2,0,L|236:296,1,90,4|0,0:0|0:0,0:0:0:0:
104,120,66695,2,0,L|104:24,1,90,4|8,0:0|0:0,0:0:0:0:
288,88,67033,2,0,P|352:124|392:156,1,90,4|0,0:0|0:0,0:0:0:0:
304,328,67370,2,0,P|228:296|196:276,1,90,12|8,0:0|0:0,0:0:0:0:
152,136,67707,5,8,3:0:0:0:
312,56,67875,1,4,0:0:0:0:
351,36,67959,1,0,0:0:0:0:
394,46,68043,1,0,0:0:0:0:
412,85,68127,1,0,0:0:0:0:
390,123,68212,1,8,0:0:0:0:
357,153,68296,1,0,0:0:0:0:
333,190,68380,1,0,0:0:0:0:
335,235,68464,1,0,0:0:0:0:
363,269,68549,1,2,0:0:0:0:
80,168,68718,6,0,P|80:108|96:64,1,90,0|8,0:0|0:0,0:0:0:0:
236,36,69055,1,4,0:0:0:0:
357,153,69224,2,0,P|385:190|401:249,1,90,0|0,0:0|0:0,0:0:0:0:
252,336,69561,2,0,P|192:304|164:256,1,90,8|0,0:0|0:0,0:0:0:0:
104,100,69898,5,0,0:0:0:0:
124,56,69982,1,0,0:0:0:0:
164,28,70066,1,8,0:0:0:0:
212,44,70151,1,8,0:0:0:0:
240,84,70235,2,0,P|272:128|308:152,1,90,0|0,0:0|3:0,0:0:0:0:
448,224,70572,2,0,P|472:164|468:112,1,90,4|0,0:0|0:0,0:0:0:0:
300,148,70909,2,0,P|280:212|288:276,1,90,8|4,0:0|0:0,0:0:0:0:
316,368,71246,1,0,0:0:0:0:
104,276,71415,6,0,P|68:224|60:100,1,180,4|4,0:0|0:0,0:0:0:0:
160,24,71920,1,0,0:0:0:0:
304,40,72089,2,0,P|344:92|344:224,1,180,4|4,0:0|0:0,0:0:0:0:
200,360,72594,1,0,0:0:0:0:
192,156,72763,2,0,L|184:56,1,90,0|0,0:0|0:0,0:0:0:0:
200,292,73100,6,0,L|208:392,1,90,0|4,0:0|0:0,0:0:0:0:
236,156,73437,1,0,0:0:0:0:
396,80,73606,1,8,0:0:0:0:
396,284,73774,1,2,0:0:0:0:
200,232,73943,2,0,L|72:196,2,90,0|2|8,0:0|0:0|0:0,0:0:0:0:
396,284,74448,2,0,P|464:260|500:224,1,90,4|0,0:0|0:0,0:0:0:0:
452,96,74785,1,2,0:0:0:0:
288,204,74954,1,8,0:0:0:0:
196,360,75122,1,2,0:0:0:0:
64,208,75291,1,0,0:0:0:0:
172,52,75459,1,2,0:0:0:0:
328,176,75628,6,0,P|352:228|364:284,1,90,12|0,0:0|0:0,0:0:0:0:
132,168,75965,2,0,P|116:96|116:60,1,90,4|0,0:0|0:0,0:0:0:0:
388,184,76302,2,0,P|408:248|412:292,1,90,8|2,0:0|0:0,0:0:0:0:
80,152,76639,2,0,P|72:92|72:56,1,90,0|2,0:0|0:0,0:0:0:0:
360,72,76976,1,8,0:0:0:0:
148,224,77145,1,4,0:0:0:0:
112,260,77229,1,0,0:0:0:0:
72,292,77313,1,0,0:0:0:0:
292,120,77482,2,0,P|328:40|332:24,1,90,2|8,0:0|0:0,0:0:0:0:
168,256,77819,6,0,P|156:308|156:352,1,90,0|2,0:0|0:0,0:0:0:0:
328,88,78156,1,8,0:0:0:0:
336,344,78325,1,8,0:0:0:0:
180,156,78493,1,8,0:0:0:0:
428,212,78662,1,4,0:0:0:0:
192,292,78830,1,0,0:0:0:0:
408,120,78999,1,8,0:0:0:0:
244,352,79167,1,2,0:0:0:0:
244,96,79336,1,0,0:0:0:0:
408,296,79504,1,2,0:0:0:0:
168,228,79673,1,8,0:0:0:0:
408,120,79842,6,0,P|472:92|516:88,1,90,4|0,0:0|0:0,0:0:0:0:
224,248,80179,1,2,0:0:0:0:
420,52,80347,2,0,P|484:36|512:40,1,90,8|2,0:0|0:0,0:0:0:0:
268,308,80684,1,0,0:0:0:0:
348,32,80853,2,0,P|336:88|316:128,1,90,2|8,0:0|0:0,0:0:0:0:
236,336,81190,2,0,P|236:280|232:228,1,90,0|4,0:0|0:0,0:0:0:0:
216,48,81527,5,0,0:0:0:0:
56,168,81695,1,8,0:0:0:0:
244,156,81864,1,2,0:0:0:0:
92,56,82033,1,0,0:0:0:0:
156,240,82201,2,0,P|232:296|252:304,1,90,2|8,0:0|0:0,0:0:0:0:
300,164,82538,2,0,P|252:120|208:96,1,90,4|0,0:0|0:0,0:0:0:0:
56,236,82875,1,2,0:0:0:0:
36,280,82959,1,0,0:0:0:0:
32,328,83044,1,0,0:0:0:0:
120,112,83212,1,8,0:0:0:0:
200,328,83381,1,8,3:0:0:0:
332,156,83549,6,0,P|328:88|308:52,1,107.999996704102,2|0,0:0|0:0,0:0:0:0:
272,40,83971,1,8,3:0:0:0:
232,48,84055,5,8,3:0:0:0:
100,152,84224,1,10,0:0:0:0:
160,344,84392,1,8,0:0:0:0:
256,200,84561,1,2,0:0:0:0:
44,268,84729,1,8,0:0:0:0:
264,356,84898,2,0,L|376:356,1,107.999996704102,10|4,0:0|0:0,0:0:0:0:
256,192,85403,12,0,88100,0:0:0:0:
