osu file format v14

[General]
AudioFilename: KIll la kill OP 2.mp3
AudioLeadIn: 0
PreviewTime: 51358
Countdown: 0
SampleSet: Normal
StackLeniency: 0.7
Mode: 0
LetterboxInBreaks: 0
WidescreenStoryboard: 1

[Editor]
Bookmarks: 75965
DistanceSpacing: 1.3
BeatDivisor: 2
GridSize: 4
TimelineZoom: 1.4

[Metadata]
Title:Ambiguous (TV Size)
TitleUnicode:Ambiguous (TV Size)
Artist:GARNiDELiA
ArtistUnicode:GARNiDELiA
Creator:marty45
Version:Easy
Source:キルラキル
Tags:kill la kill opening Katou Yuu Trigger meg rock toku MARiA Matoi Ryuko Senketsu Muukeh HighTec
BeatmapID:861692
BeatmapSetID:367599

[Difficulty]
HPDrainRate:3
CircleSize:3
OverallDifficulty:3
ApproachRate:3
SliderMultiplier:1
SliderTickRate:2

[Events]
//Background and Video events
0,0,"BG.jpg",0,0
//Break Periods
//Storyboard Layer 0 (Background)
//Storyboard Layer 1 (Fail)
//Storyboard Layer 2 (Pass)
//Storyboard Layer 3 (Foreground)
//Storyboard Sound Samples

[TimingPoints]
460,337.078651685393,4,2,2,75,1,0
460,-133.333333333333,4,2,2,75,0,0
5937,-133.333333333333,4,2,1,10,0,0
8044,-133.333333333333,4,1,2,75,0,0
18156,-133.333333333333,4,1,2,60,0,0
18830,-133.333333333333,4,1,2,60,0,0
19167,-133.333333333333,4,2,1,60,0,0
29785,-133.333333333333,4,2,2,65,0,0
30122,-133.333333333333,4,1,2,70,0,0
35263,-133.333333333333,4,1,2,70,0,0
35347,-133.333333333333,4,1,2,70,0,0
36695,-133.333333333333,4,1,2,60,0,0
40740,-133.333333333333,4,2,2,65,0,0
41077,-133.333333333333,4,2,2,65,0,0
48830,-133.333333333333,4,2,2,75,0,0
51021,-133.333333333333,4,2,2,75,0,0
51358,-133.333333333333,4,2,2,100,0,0
51695,-133.333333333333,4,1,2,80,0,1
61555,-133.333333333333,4,1,2,90,0,1
62145,-133.333333333333,4,1,2,40,0,1
62313,-133.333333333333,4,1,2,90,0,1
67875,-133.333333333333,4,1,0,90,0,1
68212,-133.333333333333,4,1,2,90,0,1
73268,-133.333333333333,4,1,2,80,0,0
82875,-133.333333333333,4,1,1,75,0,0
83549,-133.333333333333,4,1,2,75,0,0
85235,-133.333333333333,4,1,2,75,0,0
88100,-133.333333333333,4,1,2,10,0,0

[HitObjects]
348,232,460,6,0,P|348:192|248:100,2,150.000005722046
296,328,2482,1,0,0:0:0:0:
204,272,3156,2,0,B|136:224|136:224|136:112,1,150.000005722046
256,68,4504,2,0,B|324:116|324:116|324:228,1,150.000005722046
280,324,5853,1,0,0:0:0:0:
256,192,5937,12,0,8212,0:0:0:0:
220,232,8549,6,0,B|160:232|132:224|116:216|104:196|96:172|92:152|96:128,1,150.000005722046
120,92,9561,1,0,0:0:0:0:
172,76,9898,2,0,P|228:88|268:112,1,75.000002861023
288,144,10572,2,0,L|196:184,1,75.000002861023
176,224,11246,6,0,B|208:272|220:284|220:284|276:284|308:230|308:230|360:224|396:248,1,225.000008583069
404,300,12594,2,0,P|368:320|304:328,2,75.000002861023
428,252,13606,6,0,P|448:200|392:92,1,150.000005722046
348,80,14617,1,0,0:0:0:0:
296,92,14954,2,0,L|116:92,1,150.000005722046
100,144,15965,5,0,0:0:0:0:
144,244,16639,2,0,P|248:244|316:220,1,150.000005722046
368,200,17651,1,0,0:0:0:0:
340,120,17988,6,0,P|360:76|352:24,2,75.000002861023
304,160,18999,1,0,0:0:0:0:
304,160,19336,6,0,P|240:120|176:160,1,150.000005722046
196,264,20684,2,0,B|292:260|292:260|336:328,1,150.000005722046
256,368,22033,2,0,P|164:380|80:356,2,150.000005722046
348,312,24055,1,0,0:0:0:0:
320,208,24729,6,0,P|268:120|204:84,1,150.000005722046
128,156,26077,2,0,P|180:244|244:284,1,150.000005722046
300,284,27089,5,0,0:0:0:0:
344,252,27426,2,0,L|424:188,1,75.000002861023
432,148,28100,2,0,L|336:168,1,75.000002861023
296,192,28774,2,0,L|296:292,1,75.000002861023
288,336,29448,2,0,L|196:336,1,75.000002861023
192,236,30122,6,0,P|172:184|192:132,1,75.0000028610231
268,144,30797,2,0,P|288:196|268:248,1,75.0000028610231
224,292,31471,2,0,L|112:312,1,75.0000028610231
144,208,32145,2,0,P|176:144|196:120,1,75.0000028610231
260,96,32819,2,0,P|320:80|372:96,1,75.0000028610231
408,120,33493,2,0,B|368:168|368:168|332:184,1,75.0000028610231
308,256,34167,6,0,L|276:348,1,75.0000028610231
200,336,34842,2,0,L|112:376,1,75.0000028610231
104,272,35516,2,0,B|104:164|104:164|116:96|204:96|204:96|284:96,2,300.000011444092
228,312,38549,2,0,P|324:272|328:176,2,150.000005722046
140,272,40235,1,0,0:0:0:0:
168,128,40740,6,0,L|120:192,1,75.0000028610231
164,212,41246,2,0,L|220:264,1,75.0000028610231
312,236,41920,2,0,L|388:192,1,75.0000028610231
368,152,42426,2,0,L|304:52,1,112.500004291535
164,76,43437,6,0,L|164:164,1,75.0000028610231
212,148,43943,2,0,L|212:228,1,75.0000028610231
308,232,44617,2,0,P|312:180|292:128,1,75.0000028610231
300,112,45122,2,0,P|256:136|216:184,1,112.500004291535
204,316,46134,6,0,P|204:252|232:220,1,75.0000028610231
244,208,46639,2,0,P|248:164|220:112,1,75.0000028610231
208,96,47145,2,0,P|172:72|112:72,2,75.0000028610231
188,192,48156,2,0,P|212:160|232:112,1,75.0000028610231
320,140,48830,6,0,P|356:164|396:216,1,75.0000028610231
296,236,49504,2,0,P|332:260|372:312,1,75.0000028610231
276,344,50179,2,0,P|240:320|200:268,1,75.0000028610231
212,248,50684,2,0,L|192:148,1,75.0000028610231
256,88,51695,6,0,B|312:88|312:88|348:128,1,75.0000028610231
356,140,52201,2,0,P|372:192|336:220,1,75.0000028610231
272,244,52875,2,0,B|212:228|212:228|180:192,1,75.0000028610231
216,120,53549,2,0,B|252:80|252:80|296:56,1,75.0000028610231
388,100,54392,6,0,L|448:164,1,75.0000028610231
416,196,54898,2,0,L|372:264,1,75.0000028610231
312,332,55572,1,0,0:0:0:0:
172,232,56246,6,0,L|172:140,1,75.0000028610231
180,60,56920,1,0,0:0:0:0:
364,128,57594,5,0,0:0:0:0:
364,128,57763,2,0,L|364:220,1,75.0000028610231
360,252,58268,2,0,L|256:248,1,75.0000028610231
188,228,58943,6,0,P|176:176|192:128,1,75.0000028610231
216,120,59448,2,0,L|264:160,1,37.5000014305115
285,174,59785,2,0,L|285:266,1,75.0000028610231
244,276,60291,2,0,L|168:316,1,75.0000028610231
84,280,60965,2,0,P|80:192|108:132,1,150.000005722046
148,116,61808,2,0,L|248:116,1,75.0000028610231
