osu file format v13

[General]
AudioFilename: 01. ambiguous.mp3
AudioLeadIn: 0
PreviewTime: 73519
Countdown: 0
SampleSet: Soft
StackLeniency: 0.7
Mode: 0
LetterboxInBreaks: 1
WidescreenStoryboard: 1

[Editor]
DistanceSpacing: 1
BeatDivisor: 4
GridSize: 4
TimelineZoom: 1

[Metadata]
Title:Ambiguous
TitleUnicode:Ambiguous
Artist:GARNiDELiA
ArtistUnicode:GARNiDELiA
Creator:[Kamiya]
Version:Hard
Source:kill la kill
Tags:bilibili
BeatmapID:408897
BeatmapSetID:168123

[Difficulty]
HPDrainRate:6
CircleSize:4
OverallDifficulty:6
ApproachRate:8
SliderMultiplier:1.4
SliderTickRate:1

[Events]
//Background and Video events
0,0,"BG.jpg",0,0
//Break Periods
2,95282,105793
2,160001,179782
//Storyboard Layer 0 (Background)
//Storyboard Layer 1 (Fail)
//Storyboard Layer 2 (Pass)
//Storyboard Layer 3 (Foreground)
//Storyboard Sound Samples
//Background Colour Transformations
3,100,163,162,255

[TimingPoints]
22274,337.078651685393,4,2,1,100,1,0
22274,-100,4,2,1,50,0,0
30363,-100,4,2,1,80,0,1
40644,-66.6666666666667,4,2,1,80,0,1
41150,-100,4,2,1,50,0,0
51936,-80,4,2,1,50,0,0
62554,-133.333333333333,4,2,1,50,0,0
72330,-80,4,2,1,80,0,1
72835,-80,4,1,0,80,0,1
73004,-80,4,1,1,80,0,1
73172,-80,4,2,1,50,0,0
73509,-80,4,2,1,50,0,1
76206,-80,4,2,1,50,0,1
94577,-133.333333333333,4,2,1,50,0,1
95082,-80,4,2,1,50,0,0
106206,-133.333333333333,4,2,1,50,0,0
116656,-80,4,2,1,50,0,0
127273,-133.333333333333,4,2,1,50,0,0
137049,-133.333333333333,4,2,1,80,0,0
137554,-133.333333333333,4,1,0,80,0,0
137891,-80,4,2,1,80,0,1
157105,-133.333333333333,4,2,1,50,0,0
159296,-133.333333333333,4,2,1,50,0,0
159802,-80,4,2,1,50,0,0
189296,-133.333333333333,4,2,1,50,0,0
189980,-100,4,2,1,50,0,0
190644,-80,4,2,1,50,0,0
205644,-80,4,2,1,30,0,0
206993,-100,4,2,1,50,0,0
217779,-80,4,2,1,50,0,0
227891,-80,4,2,1,80,0,0
228566,-80,4,2,1,80,0,1
247442,-100,4,2,1,80,0,1
249465,-133.333333333333,4,2,1,50,0,0
250139,-80,4,2,1,50,0,0

[Colours]
Combo1 : 192,192,192
Combo2 : 0,128,255
Combo3 : 128,0,128
Combo4 : 0,255,255

[HitObjects]
148,164,22274,6,0,B|272:164|272:164|260:176,1,140,2|0,0:0|0:0,0:0:0:0:
260,175,22779,1,0,0:0:0:0:
260,175,23116,1,0,0:0:0:0:
400,144,23453,2,0,P|420:96|488:28,2,140
360,224,24465,1,0,0:0:0:0:
300,80,24970,6,0,B|192:80|192:80|212:112,1,140,2|0,0:0|0:0,0:0:0:0:
208,107,25476,1,0,0:0:0:0:
208,107,25813,1,0,0:0:0:0:
160,232,26150,2,0,P|120:264|72:360,2,140
236,184,27161,1,0,0:0:0:0:
312,144,27498,1,0,0:0:0:0:
256,192,27835,12,0,30026,0:0:0:0:
148,104,30363,6,0,L|220:104,1,70,2|0,0:0|0:0,0:0:0:0:
304,100,30700,2,0,L|360:152,1,70
152,312,31206,5,0,0:0:0:0:
240,280,31375,1,0,0:0:0:0:
240,280,31543,2,0,P|300:252|352:188,1,140
388,112,32049,1,0,0:0:0:0:
296,108,32217,1,0,0:0:0:0:
200,108,32386,2,0,L|200:32,1,70
104,108,32723,2,0,L|104:200,1,70
104,268,33060,5,2,0:0:0:0:
196,264,33229,1,0,0:0:0:0:
196,264,33397,2,0,L|196:344,1,70
280,340,33734,1,0,0:0:0:0:
288,256,33903,2,0,P|296:216|320:184,1,70
400,196,34240,2,0,P|424:224|440:256,2,70
336,128,34745,1,0,0:0:0:0:
400,196,34914,1,0,0:0:0:0:
436,100,35082,6,0,P|460:72|492:56,1,70
352,44,35420,2,0,P|372:12|404:-8,1,70
256,56,35757,6,2,P|212:76|184:96,1,70,2|0,0:0|0:0,0:0:0:0:
116,136,36094,1,0,0:0:0:0:
56,208,36262,1,0,0:0:0:0:
204,308,36599,5,0,0:0:0:0:
204,308,36768,1,0,0:0:0:0:
204,308,36936,2,0,P|260:272|292:192,1,140
252,128,37442,1,0,0:0:0:0:
292,208,37611,1,0,0:0:0:0:
360,280,37779,2,0,P|344:312|336:352,2,70
400,204,38285,1,0,0:0:0:0:
432,120,38453,6,0,L|356:96,1,70,2|0,0:0|0:0,0:0:0:0:
284,76,38790,2,0,L|208:88,1,70
132,112,39127,1,0,0:0:0:0:
180,188,39296,1,0,0:0:0:0:
180,188,39633,6,0,P|204:236|216:336,1,140
300,328,40139,1,0,0:0:0:0:
300,244,40307,1,0,0:0:0:0:
304,156,40476,2,0,P|320:112|344:80,1,70
168,96,41824,6,2,L|84:96,2,70
256,96,42330,1,2,0:0:0:0:
348,96,42498,2,2,L|420:96,1,70,2|0,0:0|0:0,0:0:0:0:
424,180,42835,1,2,0:0:0:0:
424,180,43004,2,2,P|424:260|384:320,1,140
332,368,43509,1,2,0:0:0:0:
312,280,43678,2,2,P|264:232|176:224,1,140
108,232,44184,1,2,0:0:0:0:
256,36,44858,5,2,0:0:0:0:
256,36,45026,1,2,0:0:0:0:
196,112,45195,2,2,L|160:184,1,70,2|0,0:0|0:0,0:0:0:0:
316,116,45532,2,2,L|352:176,1,70,2|0,0:0|0:0,0:0:0:0:
236,224,45869,2,2,L|196:312,1,70,2|0,0:0|0:0,0:0:0:0:
312,276,46206,2,2,L|356:340,1,70,2|0,0:0|0:0,0:0:0:0:
412,268,46543,6,2,L|448:192,1,70
468,120,46880,2,2,L|504:128,2,35
380,100,47217,1,2,0:0:0:0:
344,176,47386,1,2,0:0:0:0:
292,104,47554,1,2,0:0:0:0:
196,96,47723,2,2,L|196:60,2,35
192,180,48060,1,2,0:0:0:0:
188,268,48229,6,2,L|188:352,1,70
280,264,48566,2,2,L|280:348,1,70
368,264,48903,1,2,0:0:0:0:
368,176,49071,2,2,L|404:176,2,35
276,176,49408,1,2,0:0:0:0:
280,88,49577,6,2,L|352:44,1,70
204,132,49914,2,2,L|140:176,1,70
72,224,50251,2,2,L|48:192,2,35
128,288,50588,5,2,0:0:0:0:
184,344,50925,1,2,0:0:0:0:
256,376,51262,1,2,0:0:0:0:
116,104,51936,6,2,L|208:104,1,87.5
288,104,52273,1,10,0:0:0:0:
248,176,52442,1,0,0:0:0:0:
204,104,52611,1,2,0:0:0:0:
152,180,52779,1,2,0:0:0:0:
196,248,52948,6,2,L|280:300,1,87.5,2|2,0:0|0:0,0:0:0:0:
336,344,53285,1,0,0:0:0:0:
270,294,53453,1,0,0:0:0:0:
344,252,53622,1,8,0:0:0:0:
416,308,53790,1,0,0:0:0:0:
432,224,53959,6,2,L|444:136,1,87.5
456,52,54296,1,2,0:0:0:0:
443,137,54465,1,2,0:0:0:0:
364,80,54633,1,0,0:0:0:0:
272,80,54802,2,2,L|168:80,2,87.5,0|8|2,0:0|0:0|0:0,0:0:0:0:
364,80,55307,1,2,0:0:0:0:
320,160,55476,1,2,0:0:0:0:
260,228,55644,2,2,L|200:296,1,87.5
144,352,55981,5,2,0:0:0:0:
116,336,56318,1,2,0:0:0:0:
88,320,56656,1,2,0:0:0:0:
60,304,56993,1,2,0:0:0:0:
32,288,57330,6,2,L|88:208,1,87.5,0|0,0:0|0:0,0:0:0:0:
132,152,57667,1,8,0:0:0:0:
168,228,57835,1,2,0:0:0:0:
82,216,58004,1,2,0:0:0:0:
44,140,58172,1,2,0:0:0:0:
96,68,58341,2,2,L|184:68,1,87.5
272,68,58678,6,2,L|364:68,2,87.5,0|0|8,0:0|0:0|0:0,0:0:0:0:
183,68,59184,1,2,0:0:0:0:
232,148,59352,2,2,L|232:236,1,87.5
236,316,59689,1,2,0:0:0:0:
328,312,59858,1,2,0:0:0:0:
320,224,60026,2,2,P|336:144|396:60,1,175,0|8,0:0|0:0,0:0:0:0:
124,104,61038,6,2,L|212:104,1,87.5,10|0,0:0|0:0,0:0:0:0:
124,200,61375,2,2,L|228:200,1,87.5,2|0,0:0|0:0,0:0:0:0:
304,96,61712,1,8,0:0:0:0:
304,192,61880,1,0,0:0:0:0:
304,288,62049,1,2,0:0:0:0:
420,280,62554,6,0,L|420:172,1,105.000004005432
420,92,63060,1,0,0:0:0:0:
344,132,63229,1,0,0:0:0:0:
344,48,63397,1,8,0:0:0:0:
264,88,63566,2,0,L|204:88,1,52.5000020027161
212,172,63903,2,0,L|332:172,1,105.000004005432
317,172,64408,1,0,0:0:0:0:
320,308,65251,6,0,L|208:308,1,105.000004005432
212,228,65757,2,0,L|276:228,1,52.5000020027161
308,228,66094,2,0,L|364:224,1,52.5000020027161,8|0,0:0|0:0,0:0:0:0:
404,224,66431,1,0,0:0:0:0:
404,224,66599,2,0,P|380:168|344:120,1,105.000004005432
296,72,67105,2,0,P|236:104|216:136,1,105.000004005432,0|8,0:0|0:0,0:0:0:0:
88,312,67948,6,0,L|88:204,1,105.000004005432
88,128,68453,1,0,0:0:0:0:
88,52,68622,1,0,0:0:0:0:
160,88,68790,1,8,0:0:0:0:
164,168,68959,2,0,L|164:240,1,52.5000020027161
164,168,69296,2,0,P|196:160|240:88,1,105.000004005432
396,168,69970,2,0,P|344:144|308:88,1,105.000004005432
256,40,70644,6,0,L|256:152,1,105.000004005432
192,256,71318,2,0,L|316:256,1,105.000004005432
440,252,71993,1,0,0:0:0:0:
368,144,72330,5,0,0:0:0:0:
440,252,72498,1,0,0:0:0:0:
300,244,72667,1,0,0:0:0:0:
368,144,72835,1,4,0:0:0:0:
124,88,73509,6,0,L|216:88,1,87.5,2|0,0:0|0:0,0:0:0:0:
300,88,73847,1,10,0:0:0:0:
304,172,74015,2,2,L|304:264,2,87.5
300,88,74521,1,10,0:0:0:0:
388,84,74689,6,2,L|480:84,1,87.5,2|0,0:0|0:0,0:0:0:0:
480,176,75026,2,2,L|388:176,1,87.5,2|8,0:0|0:0,0:0:0:0:
172,108,75363,2,2,L|172:204,1,87.5,2|0,0:0|0:0,0:0:0:0:
264,196,75700,2,2,L|264:104,1,87.5,2|8,0:0|0:0,0:0:0:0:
140,24,76038,1,2,0:0:0:0:
140,24,76206,6,2,P|64:76|48:168,1,175,2|10,0:0|0:0,0:0:0:0:
136,124,76712,2,2,P|168:156|216:176,1,87.5,2|0,0:0|0:0,0:0:0:0:
224,88,77049,2,2,P|280:92|324:88,1,87.5,2|8,0:0|0:0,0:0:0:0:
280,8,77386,2,2,P|340:20|400:116,1,175
400,192,77891,1,10,0:0:0:0:
368,280,78060,6,2,L|292:332,1,87.5
212,340,78397,2,2,L|124:340,1,87.5,2|10,0:0|0:0,0:0:0:0:
40,344,78734,2,2,P|40:264|76:176,1,175
124,104,79240,1,10,0:0:0:0:
212,104,79408,2,2,P|256:88|280:56,2,87.5
212,104,79914,1,10,0:0:0:0:
244,184,80082,2,2,P|280:256|308:360,1,175
305,346,80757,6,2,P|380:300|432:208,1,175
328,228,81262,2,2,P|356:192|376:148,1,87.5,10|2,0:0|0:0,0:0:0:0:
284,132,81599,2,2,P|232:88|120:68,1,175,2|10,0:0|0:0,0:0:0:0:
84,152,82105,2,2,P|152:216|252:228,1,175
304,280,82611,1,10,0:0:0:0:
229,231,82779,1,2,0:0:0:0:
224,316,82948,1,2,0:0:0:0:
304,184,83116,5,2,0:0:0:0:
304,184,83285,1,10,0:0:0:0:
380,76,83453,1,2,0:0:0:0:
252,72,83622,5,2,0:0:0:0:
252,72,83706,1,2,0:0:0:0:
252,72,83790,1,2,0:0:0:0:
252,72,83875,1,2,0:0:0:0:
252,72,83959,1,2,0:0:0:0:
252,72,84043,1,2,0:0:0:0:
252,72,84127,1,2,0:0:0:0:
252,72,84212,1,2,0:0:0:0:
252,72,84296,2,2,L|164:72,1,87.5
72,72,84633,1,10,0:0:0:0:
140,168,84802,6,2,P|184:200|208:244,1,87.5
112,256,85139,2,2,P|124:304|112:352,1,87.5,2|10,0:0|0:0,0:0:0:0:
117,340,85476,2,2,P|192:340|312:288,1,175
360,248,85981,1,10,0:0:0:0:
356,160,86150,2,2,B|320:136|264:120|264:120|208:64,1,175
211,67,86656,1,10,0:0:0:0:
140,120,86824,1,2,0:0:0:0:
68,180,86993,2,2,B|152:256|152:256|176:336,1,175,2|10,0:0|0:0,0:0:0:0:
248,288,87498,6,2,B|236:228|236:228|252:116,1,175
252,116,88004,1,10,0:0:0:0:
260,80,88172,1,2,0:0:0:0:
280,44,88509,1,2,0:0:0:0:
280,44,88847,2,2,P|336:76|392:180,1,175
416,256,89352,1,10,0:0:0:0:
416,256,89521,1,2,0:0:0:0:
312,288,89689,2,2,P|232:236|184:156,1,175,2|10,0:0|0:0,0:0:0:0:
152,92,90195,1,2,0:0:0:0:
88,160,90363,6,2,L|28:232,1,87.5
144,240,90700,1,10,0:0:0:0:
144,240,90869,2,2,B|180:180|180:180|288:152,1,175
372,152,91375,1,8,0:0:0:0:
328,224,91543,1,0,0:0:0:0:
281,153,91712,1,0,0:0:0:0:
116,64,92049,6,2,L|116:160,1,87.5,10|2,0:0|0:0,0:0:0:0:
196,148,92386,2,2,B|248:72|248:72|352:48,1,175,2|10,0:0|0:0,0:0:0:0:
360,48,92891,1,2,0:0:0:0:
392,44,93229,1,2,0:0:0:0:
408,216,93566,1,2,0:0:0:0:
256,332,93903,1,2,0:0:0:0:
104,196,94240,1,2,0:0:0:0:
256,44,94577,6,0,L|256:216,1,157.500006008148,0|4,0:0|0:0,0:0:0:0:
240,112,106543,6,0,P|224:156|184:212,1,105.000004005432
280,196,107049,2,0,P|292:244|320:296,1,105.000004005432
368,364,107554,1,0,0:0:0:0:
408,288,107723,2,0,P|424:228|424:168,1,105.000004005432
424,104,108229,1,0,0:0:0:0:
332,80,108397,2,0,P|276:68|220:72,1,105.000004005432
116,180,109577,5,0,0:0:0:0:
116,180,109745,1,0,0:0:0:0:
116,180,109914,2,0,L|116:296,1,105.000004005432
256,288,110588,2,0,L|256:168,1,105.000004005432
388,88,111262,6,0,B|364:148|364:148|288:124|276:160,1,157.500006008148
256,192,111936,12,0,113116,0:0:0:0:
168,172,113453,5,0,0:0:0:0:
168,172,113622,1,0,0:0:0:0:
168,172,113790,2,0,B|256:172|256:172|324:128,1,157.500006008148
304,48,114970,1,0,0:0:0:0:
304,48,115139,2,0,B|252:96|252:96|148:96,1,157.500006008148
165,96,115981,1,0,0:0:0:0:
68,192,117330,6,2,L|68:280,2,87.5,2|2|10,0:0|0:0|0:0,0:0:0:0:
72,108,117835,2,2,P|128:80|248:72,1,175
316,104,118341,1,10,0:0:0:0:
244,168,118509,2,2,P|212:196|188:244,2,87.5,2|0|2,0:0|0:0|0:0,0:0:0:0:
316,104,119015,1,10,0:0:0:0:
408,104,119184,6,2,L|500:104,1,87.5,2|0,0:0|0:0,0:0:0:0:
452,192,119521,1,2,0:0:0:0:
452,192,119689,2,2,L|364:192,1,87.5,10|2,0:0|0:0,0:0:0:0:
92,296,120363,6,2,P|132:260|168:240,1,87.5,10|2,0:0|0:0,0:0:0:0:
240,288,120700,2,2,P|248:232|164:160,1,175,2|10,0:0|0:0,0:0:0:0:
232,52,121375,2,2,P|264:128|352:140,1,175,2|10,0:0|0:0,0:0:0:0:
436,276,122049,6,2,L|436:180,1,87.5
432,104,122386,1,10,0:0:0:0:
356,148,122554,1,2,0:0:0:0:
356,148,122891,1,2,0:0:0:0:
356,148,123060,5,10,0:0:0:0:
296,200,123397,1,0,0:0:0:0:
240,252,123734,1,0,0:0:0:0:
180,304,124071,1,0,0:0:0:0:
116,364,124408,2,2,L|48:300,1,87.5
56,220,124745,2,2,L|112:220,2,43.75,10|2|2,0:0|0:0|0:0,0:0:0:0:
56,220,125082,1,2,0:0:0:0:
160,68,125757,5,10,0:0:0:0:
160,68,125925,2,2,P|224:56|352:72,1,175
332,66,126431,1,10,0:0:0:0:
408,176,126768,1,2,0:0:0:0:
104,232,127273,6,0,P|136:200|200:160,1,105.000004005432
264,140,127779,2,0,L|328:140,1,52.5000020027161
320,224,128116,2,0,L|260:224,1,52.5000020027161,8|0,0:0|0:0,0:0:0:0:
184,224,128453,1,0,0:0:0:0:
184,224,128622,2,0,P|152:176|96:132,1,105.000004005432
48,96,129127,1,0,0:0:0:0:
256,96,129465,1,8,0:0:0:0:
460,220,129802,5,0,0:0:0:0:
460,220,129970,2,0,P|404:208|340:204,1,105.000004005432
268,200,130476,2,0,L|200:200,1,52.5000020027161
216,288,130813,2,0,L|284:288,1,52.5000020027161,8|0,0:0|0:0,0:0:0:0:
352,284,131150,1,0,0:0:0:0:
352,284,131318,2,0,P|364:228|392:172,1,105.000004005432
324,128,131824,2,0,P|280:120|204:128,1,105.000004005432,0|8,0:0|0:0,0:0:0:0:
96,296,132498,5,0,0:0:0:0:
96,296,132667,2,0,P|160:304|208:292,1,105.000004005432
276,256,133172,2,0,L|328:256,1,52.5000020027161
416,260,133509,1,8,0:0:0:0:
380,184,133678,1,0,0:0:0:0:
328,256,133847,1,0,0:0:0:0:
292,180,134015,2,0,P|272:136|220:88,1,105.000004005432
124,204,134689,2,0,P|144:264|176:308,1,105.000004005432
404,256,135363,6,0,B|404:184|404:184|368:160,1,105.000004005432
192,92,136038,2,0,B|192:164|192:164|220:204,1,105.000004005432
344,328,136712,1,0,0:0:0:0:
316,196,137049,5,8,0:0:0:0:
344,328,137217,1,8,0:0:0:0:
440,244,137386,1,8,0:0:0:0:
316,196,137554,1,4,0:0:0:0:
76,256,138229,6,2,P|96:160|152:108,1,175,2|10,0:0|0:0,0:0:0:0:
188,216,138734,2,2,P|240:208|272:184,1,87.5,2|0,0:0|0:0,0:0:0:0:
224,116,139071,2,2,P|272:96|328:100,1,87.5,2|8,0:0|0:0,0:0:0:0:
396,96,139408,2,2,P|424:168|428:268,1,175
400,348,139914,1,10,0:0:0:0:
328,288,140082,2,2,B|296:188|296:188|232:140,1,175
239,145,140588,1,8,0:0:0:0:
239,145,140757,1,0,0:0:0:0:
104,284,140925,6,2,P|72:320|36:348,2,87.5,2|2|10,0:0|0:0|0:0,0:0:0:0:
92,192,141431,2,2,P|108:104|160:24,1,175
236,32,141936,1,10,0:0:0:0:
328,32,142105,2,2,L|384:32,2,43.75
236,32,142442,1,2,0:0:0:0:
284,116,142611,1,10,0:0:0:0:
384,112,142779,6,2,P|376:164|352:200,1,87.5
300,260,143116,2,2,P|264:296|216:320,1,87.5,2|10,0:0|0:0,0:0:0:0:
144,340,143453,2,2,P|112:292|92:168,1,175
88,92,143959,1,10,0:0:0:0:
168,40,144127,1,2,0:0:0:0:
168,40,144296,2,2,P|128:8|80:4,2,87.5,2|2|10,0:0|0:0|0:0,0:0:0:0:
224,108,144802,2,2,P|252:164|272:280,1,175
264,360,145307,5,10,0:0:0:0:
348,316,145476,2,2,P|384:280|420:152,1,175
324,212,145981,2,2,P|332:164|320:120,1,87.5,10|2,0:0|0:0,0:0:0:0:
304,44,146318,2,2,P|248:40|120:68,1,175,2|10,0:0|0:0,0:0:0:0:
52,96,146824,1,2,0:0:0:0:
100,256,147161,1,2,0:0:0:0:
188,256,147330,6,2,L|288:256,1,87.5,8|0,0:0|0:0,0:0:0:0:
360,256,147667,1,2,0:0:0:0:
300,328,147835,2,2,L|272:364,2,43.75,2|2|10,0:0|0:0|0:0,0:0:0:0:
416,332,148172,2,2,L|448:364,2,43.75
360,256,148509,1,2,0:0:0:0:
360,256,148594,1,2,0:0:0:0:
360,256,148678,1,10,0:0:0:0:
360,256,148762,1,2,0:0:0:0:
360,256,148847,1,2,0:0:0:0:
360,256,148931,1,2,0:0:0:0:
360,256,149015,6,2,P|360:184|316:72,1,175,2|10,0:0|0:0,0:0:0:0:
260,28,149521,1,2,0:0:0:0:
326,87,149689,1,2,0:0:0:0:
232,120,149858,1,2,0:0:0:0:
164,48,150026,1,10,0:0:0:0:
48,176,150195,6,2,P|52:116|76:88,1,87.5,2|0,0:0|0:0,0:0:0:0:
128,148,150532,2,2,P|128:196|112:232,1,87.5,2|8,0:0|0:0,0:0:0:0:
176,280,150869,2,2,P|204:240|248:216,1,87.5,2|0,0:0|0:0,0:0:0:0:
316,236,151206,2,2,P|292:280|256:300,1,87.5,2|8,0:0|0:0,0:0:0:0:
432,240,151543,1,2,0:0:0:0:
432,240,151712,6,2,P|404:184|312:112,1,175,2|10,0:0|0:0,0:0:0:0:
224,108,152217,2,2,P|176:116|128:144,1,87.5,2|0,0:0|0:0,0:0:0:0:
204,204,152554,2,2,P|196:248|196:312,1,87.5,2|8,0:0|0:0,0:0:0:0:
120,244,152891,1,2,0:0:0:0:
328,192,153229,1,2,0:0:0:0:
216,36,153566,1,2,0:0:0:0:
216,36,153903,6,2,L|216:224,1,175
300,216,154408,2,2,P|360:224|388:216,1,87.5,2|0,0:0|0:0,0:0:0:0:
348,140,154745,2,2,P|304:128|252:136,1,87.5,8|0,0:0|0:0,0:0:0:0:
176,160,155082,1,0,0:0:0:0:
220,228,155251,1,0,0:0:0:0:
272,56,155420,5,10,0:0:0:0:
272,56,155588,2,2,P|200:64|80:108,1,175
220,152,156094,2,2,P|272:160|304:180,1,87.5,10|2,0:0|0:0,0:0:0:0:
380,224,156431,2,2,L|412:256,3,43.75
424,284,156768,2,2,L|420:328,3,43.75
420,360,157105,6,2,P|352:356|312:332,1,105.000004005432
288,320,157611,1,2,0:0:0:0:
260,300,157948,1,2,0:0:0:0:
112,200,158285,1,2,0:0:0:0:
256,56,158622,1,2,0:0:0:0:
404,192,158959,1,2,0:0:0:0:
256,56,159296,6,2,L|256:228,1,157.500006008148
104,116,180532,5,0,0:0:0:0:
176,88,180700,1,0,0:0:0:0:
252,72,180869,1,0,0:0:0:0:
328,72,181038,1,0,0:0:0:0:
400,96,181206,1,0,0:0:0:0:
400,96,181375,2,0,P|364:160|280:224,1,175,0|8,0:0|0:0,0:0:0:0:
264,136,181880,2,0,P|224:152|196:192,1,87.5
208,272,182217,2,0,P|244:312|288:320,1,87.5,0|8,0:0|0:0,0:0:0:0:
376,328,182554,6,0,P|404:292|420:248,1,87.5
376,172,182891,2,0,P|352:212|336:264,1,87.5,0|8,0:0|0:0,0:0:0:0:
280,316,183229,2,0,P|236:288|208:252,1,87.5
264,196,183566,2,0,P|256:148|264:100,1,87.5,0|8,0:0|0:0,0:0:0:0:
261,109,183903,1,0,0:0:0:0:
261,109,184071,2,0,P|176:124|104:172,1,175,0|8,0:0|0:0,0:0:0:0:
56,244,184577,1,0,0:0:0:0:
232,352,184914,1,0,0:0:0:0:
240,172,185251,1,0,0:0:0:0:
372,56,185588,5,0,0:0:0:0:
372,56,185757,2,0,L|372:144,1,87.5,8|0,0:0|0:0,0:0:0:0:
280,232,186094,2,0,L|280:140,1,87.5
192,176,186431,2,0,L|192:88,1,87.5,8|0,0:0|0:0,0:0:0:0:
192,12,186768,2,0,P|144:24|72:136,1,175,0|8,0:0|0:0,0:0:0:0:
76,208,187273,1,0,0:0:0:0:
256,328,187611,1,0,0:0:0:0:
412,196,187948,1,0,0:0:0:0:
252,84,188285,1,0,0:0:0:0:
252,196,188622,6,0,P|324:148|424:104,1,175,0|8,0:0|0:0,0:0:0:0:
480,88,189127,1,0,0:0:0:0:
484,172,189296,2,2,L|484:280,1,105.000004005432
388,92,189802,5,8,0:0:0:0:
392,176,189970,2,2,L|392:296,1,105.000004005432
296,92,190476,5,8,0:0:0:0:
296,176,190644,2,2,L|296:352,1,175
212,356,191150,6,0,L|212:252,1,87.5
208,184,191487,1,0,0:0:0:0:
212,268,191656,1,0,0:0:0:0:
128,224,191824,1,0,0:0:0:0:
128,136,191993,6,2,L|36:136,2,87.5
216,136,192498,2,2,P|256:152|296:188,1,87.5
352,240,192835,2,2,P|392:284|412:328,1,87.5
476,244,193172,1,0,0:0:0:0:
480,324,193341,1,2,0:0:0:0:
476,244,193509,6,2,L|476:60,1,175,0|2,0:0|0:0,0:0:0:0:
380,76,194015,2,2,P|348:112|328:152,1,87.5
288,216,194352,1,0,0:0:0:0:
252,288,194521,1,0,0:0:0:0:
196,224,194689,1,0,0:0:0:0:
120,168,194858,6,2,P|152:96|240:32,1,175
352,176,195532,2,2,P|332:240|248:328,1,175
200,376,196038,1,2,0:0:0:0:
144,160,196375,5,2,0:0:0:0:
160,244,196543,1,2,0:0:0:0:
228,188,196712,1,2,0:0:0:0:
212,104,196880,1,2,0:0:0:0:
296,124,197049,2,2,L|344:128,2,43.75
212,104,197386,1,2,0:0:0:0:
272,40,197554,6,2,L|372:40,1,87.5
444,40,197891,1,0,0:0:0:0:
272,136,198060,2,2,L|380:136,1,87.5
448,136,198397,1,0,0:0:0:0:
272,232,198566,2,2,L|376:232,1,87.5
452,232,198903,1,0,0:0:0:0:
336,324,199071,6,2,L|244:324,1,87.5
160,328,199408,1,0,0:0:0:0:
160,328,199577,2,2,P|140:236|152:136,1,175
136,64,200251,6,2,L|236:64,2,87.5,2|2|8,0:0|0:0|0:0,0:0:0:0:
224,156,200757,2,2,L|128:156,2,87.5,2|2|8,0:0|0:0|0:0,0:0:0:0:
140,248,201262,2,2,L|236:248,2,87.5,2|2|8,0:0|0:0|0:0,0:0:0:0:
228,336,201768,2,2,L|136:336,2,87.5,2|2|8,0:0|0:0|0:0,0:0:0:0:
312,332,202273,1,2,0:0:0:0:
312,332,202442,1,2,0:0:0:0:
256,192,202611,12,4,205644,0:0:0:0:
96,124,206993,6,0,P|152:104|236:96,1,140
264,96,207498,1,0,0:0:0:0:
296,104,207835,1,0,0:0:0:0:
324,116,208172,1,0,0:0:0:0:
352,128,208509,1,0,0:0:0:0:
352,128,208847,6,0,P|328:240|312:288,1,140
64,272,209689,6,0,P|72:208|120:128,1,140
120,112,210195,1,0,0:0:0:0:
212,276,210532,1,0,0:0:0:0:
212,276,210869,2,0,P|224:220|276:128,1,140
420,200,211543,6,0,P|420:260|388:344,1,140
393,334,212217,1,0,0:0:0:0:
104,196,212891,5,0,0:0:0:0:
104,196,213060,2,0,L|88:128,1,70
224,72,213566,2,0,L|284:208,1,140
144,328,214240,6,0,P|200:328|284:312,1,140
360,288,214745,1,0,0:0:0:0:
424,236,214914,1,0,0:0:0:0:
476,160,215082,2,0,P|436:104|376:64,1,140
264,88,215588,2,0,P|304:132|372:176,1,140
84,208,216262,6,0,P|116:144|180:80,1,140
216,184,216936,1,0,0:0:0:0:
216,184,217105,2,0,P|296:148|344:84,1,140
452,88,217779,6,2,P|388:40|296:4,1,175
196,40,218285,2,2,P|240:84|348:124,1,175
420,172,218790,1,2,0:0:0:0:
388,260,218959,6,2,L|360:224,2,43.75
308,296,219296,2,2,P|272:260|256:224,1,87.5
232,144,219633,2,2,P|188:168|164:200,1,87.5
120,276,219970,1,2,0:0:0:0:
64,192,220139,2,2,P|32:252|24:292,1,87.5
64,192,220476,6,2,P|92:136|184:56,1,175
252,40,220981,1,2,0:0:0:0:
336,36,221150,1,2,0:0:0:0:
416,56,221318,1,2,0:0:0:0:
488,108,221487,1,2,0:0:0:0:
488,108,221656,2,2,P|432:144|324:160,1,175
240,164,222161,1,2,0:0:0:0:
240,164,222330,2,2,B|200:72|200:72|120:88,1,175
128,328,223004,5,2,0:0:0:0:
128,328,223172,2,2,L|316:328,1,175
448,328,223847,1,2,0:0:0:0:
216,144,224184,1,2,0:0:0:0:
292,200,224352,1,2,0:0:0:0:
292,200,224689,5,2,0:0:0:0:
292,200,224858,2,2,P|336:160|376:144,1,87.5
436,108,225195,1,2,0:0:0:0:
340,80,225363,1,2,0:0:0:0:
216,144,225532,6,2,L|248:112,2,43.75
216,144,225869,2,2,P|176:180|152:224,1,87.5
116,284,226206,1,2,0:0:0:0:
208,288,226375,2,2,P|264:288|300:284,1,87.5
380,264,226712,1,2,0:0:0:0:
384,88,227049,5,2,0:0:0:0:
252,52,227386,5,2,0:0:0:0:
272,176,227554,1,2,0:0:0:0:
384,88,227723,1,2,0:0:0:0:
252,52,227891,1,2,0:0:0:0:
140,132,228060,1,2,0:0:0:0:
140,132,228566,6,2,P|116:196|120:316,1,175,2|10,0:0|0:0,0:0:0:0:
192,232,229071,2,2,P|208:280|232:320,1,87.5,2|0,0:0|0:0,0:0:0:0:
304,264,229408,2,2,P|360:280|396:284,1,87.5,2|0,0:0|0:0,0:0:0:0:
472,288,229745,2,2,P|464:216|408:132,1,175
344,72,230251,1,10,0:0:0:0:
308,156,230420,6,2,P|264:132|248:92,1,87.5
208,28,230757,2,2,P|164:48|136:80,1,87.5,2|10,0:0|0:0,0:0:0:0:
92,148,231094,1,2,0:0:0:0:
92,236,231262,6,2,B|160:304|160:304|188:384,1,175,2|10,0:0|0:0,0:0:0:0:
186,378,231768,1,2,0:0:0:0:
276,336,231936,1,2,0:0:0:0:
248,252,232105,2,2,P|240:204|252:152,1,87.5,2|8,0:0|0:0,0:0:0:0:
332,208,232442,2,2,P|348:124|420:56,1,175
480,28,232948,1,10,0:0:0:0:
480,116,233116,6,2,P|472:168|456:208,1,87.5,2|0,0:0|0:0,0:0:0:0:
388,140,233453,2,2,P|364:176|312:220,1,87.5,2|8,0:0|0:0,0:0:0:0:
296,128,233790,2,2,P|220:168|116:184,1,175
48,200,234296,1,10,0:0:0:0:
112,268,234465,1,2,0:0:0:0:
132,184,234633,6,2,P|136:128|152:88,2,87.5,2|2|10,0:0|0:0|0:0,0:0:0:0:
196,248,235139,2,2,P|268:296|352:324,1,175
432,336,235644,1,10,0:0:0:0:
432,248,235813,6,2,P|424:176|380:76,1,175
336,192,236318,2,2,P|312:152|284:120,1,87.5,10|2,0:0|0:0,0:0:0:0:
232,60,236656,6,2,P|168:80|64:140,1,175,2|10,0:0|0:0,0:0:0:0:
120,248,237161,2,2,P|200:216|280:168,1,175
344,120,237667,1,10,0:0:0:0:
344,208,237835,1,2,0:0:0:0:
276,170,238004,1,2,0:0:0:0:
428,164,238172,5,2,0:0:0:0:
428,164,238341,1,2,0:0:0:0:
344,292,238509,1,2,0:0:0:0:
236,312,238678,2,2,L|184:320,3,43.75
164,324,239015,2,2,L|120:332,3,43.75
88,336,239352,6,2,P|80:272|88:152,1,175,2|8,0:0|0:0,0:0:0:0:
104,76,239858,1,2,0:0:0:0:
86,161,240026,1,2,0:0:0:0:
172,144,240195,1,2,0:0:0:0:
196,56,240363,1,8,0:0:0:0:
260,124,240532,6,2,P|296:156|316:204,1,87.5,2|0,0:0|0:0,0:0:0:0:
364,104,240869,2,2,P|412:80|444:40,1,87.5,2|8,0:0|0:0,0:0:0:0:
504,96,241206,2,2,P|504:156|460:276,1,175
416,336,241712,1,10,0:0:0:0:
416,336,241880,1,2,0:0:0:0:
324,352,242049,2,2,P|240:340|164:272,1,175,2|10,0:0|0:0,0:0:0:0:
116,208,242554,6,2,L|76:236,2,43.75
116,208,242891,1,2,0:0:0:0:
116,208,243229,2,2,P|124:136|168:36,1,175
368,48,243903,2,2,P|364:140|324:224,1,175
240,340,244577,5,2,0:0:0:0:
240,340,244745,2,2,L|336:336,1,87.5,2|0,0:0|0:0,0:0:0:0:
232,252,245082,2,2,L|320:252,1,87.5,8|0,0:0|0:0,0:0:0:0:
320,160,245420,2,2,L|220:160,1,87.5,0|0,0:0|0:0,0:0:0:0:
156,92,245757,5,10,0:0:0:0:
156,92,245925,2,2,P|152:168|88:264,1,175
48,180,246431,2,2,P|44:120|60:80,2,87.5,10|2|2,0:0|0:0|0:0,0:0:0:0:
100,252,246936,1,2,0:0:0:0:
176,308,247105,6,2,P|232:316|264:336,1,87.5,10|0,0:0|0:0,0:0:0:0:
340,344,247442,2,2,P|396:304|448:224,1,140,2|10,0:0|0:0,0:0:0:0:
476,188,247948,1,2,0:0:0:0:
256,80,248285,1,2,0:0:0:0:
72,192,248622,1,2,0:0:0:0:
256,328,248959,1,2,0:0:0:0:
412,192,249296,1,2,0:0:0:0:
256,80,249633,6,2,L|256:200,1,105.000004005432
256,268,250139,5,2,0:0:0:0:
256,268,250307,2,2,L|344:268,2,87.5,2|10|2,0:0|0:0|0:0,0:0:0:0:
168,272,250813,1,2,0:0:0:0:
84,276,250981,1,2,0:0:0:0:
280,84,251318,6,2,P|328:108|376:216,1,175
272,184,251824,2,2,P|252:224|200:248,1,87.5,10|2,0:0|0:0,0:0:0:0:
184,124,252161,2,2,P|152:92|136:52,2,87.5,2|2|10,0:0|0:0|0:0,0:0:0:0:
272,184,252667,1,2,0:0:0:0:
340,252,252835,6,2,L|408:320,1,87.5
276,320,253172,2,2,L|204:252,1,87.5,10|2,0:0|0:0,0:0:0:0:
152,200,253509,1,2,0:0:0:0:
88,144,253678,1,2,0:0:0:0:
232,348,254015,6,2,P|180:296|152:192,1,175
248,240,254521,2,2,P|244:192|252:148,1,87.5,10|2,0:0|0:0,0:0:0:0:
336,200,254858,2,2,L|376:232,6,43.75
250,153,255532,6,2,P|204:124|144:128,1,87.5
180,212,255869,2,2,P|136:232|104:268,1,87.5,10|2,0:0|0:0,0:0:0:0:
192,312,256206,2,2,P|236:292|260:256,1,87.5
88,68,256712,6,2,P|112:136|188:216,1,175
192,104,257217,2,2,P|232:144|264:152,1,87.5,10|2,0:0|0:0,0:0:0:0:
280,68,257554,2,2,P|248:36|204:20,2,87.5,2|2|10,0:0|0:0|0:0,0:0:0:0:
320,148,258060,6,2,P|332:236|316:332,1,175
319,320,258566,1,10,0:0:0:0:
228,328,258734,1,2,0:0:0:0:
228,328,258903,2,2,B|192:204|192:204|132:164,1,175,2|10,0:0|0:0,0:0:0:0:
76,144,259408,2,2,B|144:88|144:88|248:132,1,175
300,164,259914,5,10,0:0:0:0:
300,164,259998,1,2,0:0:0:0:
300,164,260082,2,2,P|344:192|408:300,1,175
148,192,260925,5,2,0:0:0:0:
220,52,261094,1,2,0:0:0:0:
300,164,261262,1,2,0:0:0:0:
220,136,261431,1,2,0:0:0:0:
296,80,261599,2,2,L|368:24,1,87.5
256,192,262105,12,4,268004,0:0:0:0:
